#TITLE:The Hero;
#SUBTITLE:One Punch Man Opening 1;
#ARTIST:JAM Project;
#TITLETRANSLIT:;
#SUBTITLETRANSLIT:;
#ARTISTTRANSLIT:;
#GENRE:;
#CREDIT:Magna Trick;
#BANNER:THBN.png;
#BACKGROUND:THB.png;
#LYRICSPATH:;
#CDTITLE:Magna Trick title!.png;
#MUSIC:The Hero.mp3;
#OFFSET:-0.130863;
#SAMPLESTART:9.000000;
#SAMPLELENGTH:16.000000;
#SELECTABLE:YES;
#BPMS:0.000000=130.050003
,20.500000=260.100006
,52.500000=130.050003
,56.500000=260.100006
,72.500000=130.050003
,80.500000=260.100006
,96.500000=130.050003
,101.000000=260.100006
,107.000000=130.050003
,123.000000=260.100006
,181.000000=130.050003
,184.000000=260.100006
,328.000000=130.050003
;
#STOPS:
;
#BGCHANGES:0.083=The Hero.avi=1.000=0=0=1=====,
327.000=THB.png=1.000=0=0=1=====,
99999=-nosongbg-=1.000=0=0=0 // don't automatically add -songbackground-
;
#KEYSOUNDS:;
#ATTACKS:;

//---------------dance-single - ----------------
#NOTES:
     dance-single:
     :
     Hard:
     10:
     0.500629,0.861359,0.500629,0.222502,0.144626,315.000000,270.000000,45.000000,20.000000,0.000000,0.000000,0.500629,0.861359,0.500629,0.222502,0.144626,315.000000,270.000000,45.000000,20.000000,0.000000,0.000000:
0000
0000
0000
0000
,
0000
0000
0000
0000
0001
0000
0000
1000
0000
0000
0100
0000
0000
0010
0000
0000
,
0001
0000
0010
0000
0001
0000
0000
1000
0000
0000
0001
0000
0000
0100
0000
0000
,
0020
0000
0000
0000
1030
0000
0000
0001
0000
0000
1000
0000
0000
0001
0000
0000
,
0010
0000
0100
0000
1000
0000
0000
2000
0000
0000
3002
0000
0000
0000
0000
0000
,
0003
0010
0000
0100
0000
0000
1000
0000
,
0000
0001
0000
0000
0100
0000
0000
0001
,
0000
1000
0000
0010
0000
0000
0100
0000
,
0000
1000
0000
0000
0100
0000
0000
0020
,
0000
0000
0000
1030
0000
0000
0001
0000
,
0000
1000
0000
0000
0100
0000
0000
0010
,
0000
0001
0000
0010
0000
0000
0100
0000
,
0000
2000
0000
0000
0000
3001
0000
0200
,
0000
0000
0300
0000
1001
0000
0000
0110
0000
0000
1001
0000
0000
0000
0010
0100
,
1000
1001
0000
1001
0000
0000
0000
0000
,
0000
0110
0000
0110
0000
0000
0000
0000
,
0000
1010
0000
1010
0000
0000
0000
0101
,
0000
0000
0000
0101
0000
0000
0000
0000
,
0000
0000
0000
0000
0001
0010
0100
1000
0000
0000
1000
0000
1000
0100
0010
0001
,
0000
0000
0001
0000
0001
0010
0100
1000
0001
0100
0020
0000
0000
0000
0000
0000
,
0030
1100
0000
1100
0000
0000
0000
0000
,
0000
0101
0000
0101
0000
0000
0000
0000
,
0000
1010
0000
1010
0000
0000
0000
0011
,
0000
0000
0000
0011
0000
0000
0000
0000
,
0000
0000
0000
0000
0001
0010
0100
1000
0000
0000
0000
0000
1000
0100
0010
0001
,
0000
0000
1010
0000
0000
1100
0000
0000
,
0011
0000
0000
0101
0000
0000
1001
0000
,
0001
0000
1000
0001
1000
0000
0001
0000
1000
0000
0010
0000
0100
0000
0001
0000
,
0010
0000
0100
0010
0100
0000
1000
0000
0001
0000
0100
0000
0010
0000
0100
0000
,
0001
1000
1000
0001
0001
0100
0010
0100
,
0110
1001
0110
0002
,
0000
2003
0000
3000
,
0001
1000
0100
1000
,
0001
0100
0001
1000
,
0010
2000
0000
3000
,
0000
0101
0000
1010
,
0000
1001
0000
0100
,
1000
0001
0010
0100
,
0010
0001
1000
1010
,
0000
0101
0000
0000
,
0001
0100
2000
3000
,
0000
1000
0100
0001
,
0010
0000
1000
0000
0000
1000
0000
0000
,
0010
0200
0300
2000
,
0002
0000
0000
3003
,
0000
0000
0000
0000
0001
0100
0010
0100
0000
0001
1000
0000
0100
0000
0000
0000
,
0011
0000
1100
0000
,
0000
0010
1000
0001
,
0100
1000
0100
0010
,
0001
0010
2000
3000
,
0000
0000
1010
0000
,
0101
0000
1001
0000
,
0000
0001
0010
0100
,
1000
0100
0010
0001
,
1100
0000
0011
0000
,
0000
0001
0100
2000
,
3000
0000
1000
0100
,
0001
0000
0010
0000
0100
0000
0000
0100
,
0000
0000
0010
0000
0002
0000
0000
0003
,
0200
0020
0000
0000
,
0330
0000
0000
0010
,
0010
1000
0001
0100
,
0001
0100
0010
1000
0001
0000
0000
1000
,
0000
0000
1000
0000
0000
1000
0000
0000
,
0001
0000
0001
0000
0001
0000
0000
0010
,
0000
0000
0010
0000
0000
0010
0000
0000
,
0100
0000
0100
0000
0100
0000
0000
1000
,
0000
0000
1000
0000
0000
1000
0000
0000
,
0001
0000
0001
0000
0001
0000
0000
0100
,
0000
0000
0100
0000
0000
0100
0000
0000
,
0010
0000
0010
0000
0010
0000
0000
1000
,
0000
0000
0001
0000
0000
0100
0000
0000
,
0001
0000
1000
0000
0010
0000
0000
0100
,
0000
0000
0001
0000
0000
0010
0000
0000
,
0100
0000
0000
0000
1000
0000
0000
0001
,
0000
0000
0010
0000
0000
0001
0000
0000
,
1000
0000
0010
0000
0100
0000
0000
0001
,
0000
1000
0000
0100
,
0010
0000
0000
0000
0011
0000
0000
1100
,
0000
0000
1001
0000
0000
1001
0000
0000
,
0110
0000
0000
2001
0000
0000
0000
0000
,
0000
0000
0000
0000
0000
0000
3001
0100
0001
0000
0000
0000
0000
0000
0000
0000
;

//---------------dance-single - ----------------
#NOTES:
     dance-single:
     :
     Challenge:
     16:
     0.929739,1.364213,0.534004,0.255877,0.339315,585.000000,537.000000,48.000000,23.000000,0.000000,1.000000,0.929739,1.364213,0.534004,0.255877,0.339315,585.000000,537.000000,48.000000,23.000000,0.000000,1.000000:
0000
0000
0000
0000
,
0000
0000
0000
0000
1000
0001
1000
0001
0010
0100
0010
0001
0100
0001
1000
0010
,
1000
0100
0010
0001
0010
1000
0010
0001
0100
0010
0100
0010
1000
0001
1000
0010
,
0200
0000
0000
0000
0301
1000
0001
1000
0010
0100
0010
1000
0100
1000
0001
0010
,
0001
0100
0010
1000
0002
0000
0003
0020
0000
0000
2030
0000
0000
0000
0000
0000
,
3000
0001
0100
1000
0000
0000
1001
0000
,
0000
1010
0000
0000
0101
0000
0000
1000
,
0001
0100
0010
1000
0000
0000
1100
0000
,
0000
0011
0000
0000
1001
0000
0000
0200
,
0000
0001
0000
0301
0000
0000
1010
0000
,
0000
0101
0000
0000
1001
0000
0000
0100
,
0000
1000
0000
0002
0000
0000
0203
0000
,
0000
2300
0000
0000
3001
0010
0000
0020
,
0000
0000
0031
0000
1000
0001
0000
0100
0010
0000
1000
0001
0000
0100
0010
0100
,
0010
1001
0000
1001
0000
0100
0000
1000
,
0001
0110
0000
0110
0000
1000
0001
0000
,
1000
0101
0000
0101
0000
0001
0000
1010
,
0000
1000
0000
1010
0000
0001
1000
0000
,
1000
0000
0001
0000
1000
0100
0010
0001
0010
0001
0100
0010
1000
0010
0100
0001
,
1000
0100
1000
0010
1000
0100
0010
0001
1000
0010
0200
0000
0000
0001
1300
0000
,
0001
1000
0001
0000
1000
0000
0011
0000
0100
0000
0010
0000
1000
0000
0001
0000
,
0100
1010
0000
1010
0001
1000
0001
0100
,
0010
0101
0000
0101
1000
0001
0010
1100
,
0010
1000
0001
1100
0000
0001
0000
1000
,
0000
0000
0100
0000
1000
0100
0010
0001
0000
0000
0001
0000
0001
0010
0100
1000
,
0000
1000
0001
0000
0101
0000
0000
0000
0001
0000
0011
0000
0000
0000
1000
0000
,
1100
0000
1000
1010
0010
0100
1001
0000
,
1001
0000
0001
1000
0001
0000
1000
0000
1001
0000
0100
0000
0002
0000
2003
0000
,
3110
0000
0010
0100
0010
0000
0100
0000
0110
0000
0001
1000
0001
1000
0010
0100
,
0001
1000
1000
0001
0001
0010
0100
0010
,
0001
0010
0001
0010
0100
1000
0100
1000
0002
0000
0003
0000
2000
0000
0000
0000
,
0000
0000
3002
0000
0013
0100
0000
0100
,
1000
0000
0001
0000
0010
0000
0001
1000
,
0010
1000
0001
0000
1000
0000
0001
0100
,
1000
0100
0002
0000
0103
0010
0000
0010
,
1000
1010
1000
0101
,
0001
0000
1001
0000
1000
0001
0000
0001
,
1000
0100
1000
0010
0100
0010
1000
0100
,
0010
0001
1000
0001
1000
0010
0100
0001
,
1000
0100
1001
0000
0010
1000
0000
1000
,
0100
0000
0010
0001
1000
0001
0000
0001
,
1000
0000
0001
0010
0001
1000
0010
1000
,
0001
0100
0001
1000
0100
0010
0000
0010
,
0001
0000
0020
0000
0031
1000
0001
0000
,
0100
0000
0020
0000
1000
0130
0000
0100
,
1000
0000
0000
0000
0000
0000
0000
0000
0000
0000
0000
0000
1000
0000
0000
0010
0000
0000
0100
0000
0000
0010
0000
0000
0000
0000
0000
1000
0000
0000
0001
0000
0000
0000
0000
0000
0010
0000
0000
0000
0000
0000
0100
0000
1000
0000
0100
0000
,
1000
0001
1000
0100
0011
0000
0001
0010
,
0000
0010
0100
0000
1000
0001
1000
0010
,
0100
0001
0010
0001
0100
0010
1000
0100
,
1000
0001
0010
1000
0002
0000
0103
1000
,
0000
1000
0010
0000
0101
0001
0100
0000
,
1010
1000
0010
0000
1001
1000
0001
0010
,
0000
0010
0100
0000
1000
0001
0010
0001
,
1000
0010
0001
1000
0100
0001
1000
0001
,
0010
1000
0001
0100
1001
0000
0001
1000
,
0000
1000
0010
0000
0010
0100
0002
1000
,
0003
1000
0100
0010
0001
0010
1000
0010
,
0001
0010
0100
1000
0001
0000
0001
0010
,
0000
0100
1000
0000
2000
0000
0001
3010
,
0100
0000
1000
0100
0010
0000
0001
1000
,
0000
1000
0001
0000
0100
0000
0100
1000
,
0100
0001
0010
0001
1000
0100
0001
0100
,
1000
0010
1000
0001
0100
0000
0001
0100
,
0000
0010
1000
0000
0100
0010
0000
0001
,
1000
0100
1000
0010
1000
0000
0100
0010
,
0000
0001
0100
0000
0010
1000
0000
0100
,
0010
0001
0010
0100
0010
0000
0100
1000
,
0000
0001
0100
0000
0010
1000
0000
0100
,
1000
0001
1000
0010
1000
0000
0010
0100
,
0000
0001
0010
0000
0100
1000
0001
0001
,
0100
0010
1000
0010
0100
0000
0100
0001
,
0000
0001
1000
0000
1000
0010
0000
0010
,
1000
0100
0010
0001
1000
0000
1000
0100
,
0000
0100
0001
0000
0001
0100
1000
0010
,
1000
0001
0100
0001
1000
0000
1000
0100
,
0000
0100
0010
0000
0010
0001
1000
0001
,
0100
0010
1000
0100
1000
0000
1000
0100
,
0000
0100
0010
0000
0010
0001
1000
0001
,
0100
0001
0010
0000
1100
1000
0000
0011
,
0001
0000
1001
1000
0000
1001
0001
0000
,
0110
0010
0000
1002
0000
0000
0000
0000
,
0000
0000
0000
0000
0000
0000
1003
0010
2000
0000
0000
0000
3000
0000
0000
0000
;

//---------------dance-single - ----------------
#NOTES:
     dance-single:
     :
     Medium:
     8:
     0.445003,0.814773,0.211377,0.300377,0.105688,280.000000,261.000000,19.000000,27.000000,0.000000,0.000000,0.445003,0.814773,0.211377,0.300377,0.105688,280.000000,261.000000,19.000000,27.000000,0.000000,0.000000:
0000
0000
0000
0000
,
0000
0000
0000
0000
1000
0000
0000
0001
0000
0000
1000
0000
0000
0001
0000
0000
,
1000
0000
0100
0000
1000
0000
0000
0001
0000
0000
1000
0000
0000
0001
0000
0000
,
0200
0000
0000
0000
0301
0000
0000
1000
0000
0000
0001
0000
0000
1000
0000
0000
,
0100
0000
0010
0000
0100
0000
0000
0002
0000
0000
2003
0000
0000
0000
0000
0000
,
3000
0100
0000
0010
0000
0000
0001
0000
,
0000
1000
0000
0000
0010
0000
0000
1000
,
0000
0001
0000
0100
0000
0000
0010
0000
,
0000
1000
0000
0000
0010
0000
0000
0200
,
0000
0000
0000
0301
0000
0000
1000
0000
,
0000
0001
0000
0000
0010
0000
0000
0100
,
0000
1000
0000
0100
0000
0000
0010
0000
,
0000
0002
0000
0000
0000
1003
0000
0020
,
0000
0000
0030
0000
1000
0000
0000
0001
0000
0000
1000
0000
0000
0000
0001
1000
,
0001
1001
0000
1001
0000
0000
0000
0000
,
0000
0100
0000
0100
0000
0000
0000
0000
,
0000
0110
0000
0110
0000
0000
0000
0010
,
0000
0000
0000
0010
0000
0000
0000
0000
,
0000
0000
1000
0100
1000
0001
0001
0010
,
0100
0000
1000
0000
1000
0001
1000
0001
1000
0001
0200
0000
0000
0000
0000
0000
,
0300
1001
0000
1001
0000
0000
0000
0000
,
0000
0010
0000
0010
0000
0000
0000
0000
,
0000
0110
0000
0110
0000
0000
0000
0100
,
0000
0000
0000
0100
0000
0000
0000
0000
,
0000
0000
0000
0000
1000
0100
1000
0100
0000
0000
0000
0000
0001
0010
0001
0010
,
0000
0000
0002
0000
0003
0020
0000
0030
,
0200
0000
0300
2000
0000
3000
0001
0000
,
1000
0001
0001
1000
0001
0100
0010
1000
,
0100
0010
0010
0001
1000
0010
0100
0010
,
1000
0001
0001
1000
1000
0010
0100
0001
,
1001
0110
1001
2000
,
0000
3002
0000
0003
,
1000
0001
0010
0001
,
1000
0010
1000
0001
,
0100
0002
0000
0003
,
0000
1000
0000
0001
,
0000
1001
0000
0010
,
0001
1000
0100
0010
,
0100
1000
0001
0101
,
0000
1010
0000
0000
,
1000
0001
2000
3000
,
0000
0001
1000
1000
,
0001
0000
0001
0000
0000
0001
0000
0000
,
0100
0020
0030
1000
,
0002
0000
0000
0003
,
0000
0000
0000
0000
1000
0010
1000
0010
0000
1000
0010
0000
1000
0000
0000
0000
,
1100
0000
0011
0000
,
0000
0100
0001
1000
,
0010
1000
0010
0100
,
0001
0100
0002
0003
,
0000
0000
0001
0000
,
1000
0000
1001
0000
,
0000
1000
0100
0010
,
0001
0010
0100
1000
,
0002
0003
2000
3000
,
0000
1000
0001
2000
,
3000
0000
0001
1000
,
1000
0000
0001
0000
0001
0000
0000
0010
,
0000
0000
0100
0000
2000
0000
0000
3000
,
0010
0200
0000
0000
,
0300
0000
0000
0100
,
0100
0001
1000
0010
,
2000
0000
3002
0000
2003
0000
0000
3001
,
0000
0000
0001
0000
0000
0001
0000
0000
,
1000
0000
0100
0000
1000
0000
0000
0100
,
0000
0000
0100
0000
0000
0100
0000
0000
,
0010
0000
0001
0000
0010
0000
0000
0001
,
0000
0000
0001
0000
0000
0001
0000
0000
,
1000
0000
0001
0000
1000
0000
0000
0010
,
0000
0000
0010
0000
0000
0010
0000
0000
,
0100
0000
0010
0000
0100
0000
0000
0001
,
0000
0000
1000
0000
0000
0010
0000
0000
,
1000
0000
0001
0000
1000
0000
0000
0010
,
0000
0000
1000
0000
0000
0100
0000
0000
,
0010
0000
0000
0000
0001
0000
0000
1000
,
0000
0000
0100
0000
0000
1000
0000
0000
,
0001
0000
0100
0000
0001
0000
0000
1000
,
0000
0001
0000
0010
,
0100
0000
0000
0000
1000
0000
0000
0001
,
0000
0000
1000
0000
0000
0001
0000
0000
,
0110
0000
0000
1002
0000
0000
0000
0000
,
0000
0000
0000
0003
0000
0000
0000
0000
;

//---------------dance-single - ----------------
#NOTES:
     dance-single:
     :
     Easy:
     5:
     0.270180,0.409890,0.011125,0.033375,0.027813,170.000000,169.000000,1.000000,3.000000,0.000000,0.000000,0.270180,0.409890,0.011125,0.033375,0.027813,170.000000,169.000000,1.000000,3.000000,0.000000,0.000000:
0000
0000
0000
0000
,
0000
0000
0000
0000
,
0000
0000
0000
0000
,
0000
0000
0000
0000
,
0000
0000
0000
0000
1000
0000
0000
0001
0000
0000
1000
0000
0000
0000
0000
0000
,
0000
1000
0000
2000
0000
0000
0000
0000
,
0000
0000
0000
0000
,
0000
0000
0000
0000
,
0000
0000
0000
3000
0000
0000
0000
0000
,
0000
0000
0000
0001
0000
0000
0100
0000
,
0000
0001
0000
0000
0000
0000
0000
0000
,
0000
0000
0000
1000
0000
0000
0100
0000
,
0000
1000
0000
0000
0000
0000
0000
0000
,
0000
0000
0000
0010
0000
0000
0010
0000
0000
0010
0000
0000
0000
1000
0000
1000
,
0000
1000
0000
0001
0000
0000
0000
0000
,
0000
1000
0000
1000
0000
0000
0000
0000
,
0000
0001
0000
0001
0000
0000
0000
0100
,
0000
0000
0000
0010
0000
0000
0000
0000
,
0000
1000
0000
0001
,
0000
0010
0010
0010
,
0000
0000
0000
0100
0000
0000
0000
0000
,
0000
1000
0000
1000
0000
0000
0000
0000
,
0000
0001
0000
0001
0000
0000
0000
0100
,
0000
0000
0000
0010
0000
0000
0000
0000
,
0000
1000
0000
0001
,
0000
0000
0100
0000
0000
0100
0000
0000
,
0100
0000
0000
0100
0000
0000
0010
0000
,
1000
1000
1000
1000
,
0001
0001
0001
0001
,
0010
0100
0010
0100
,
1000
1000
0001
0001
,
0000
0100
0000
0000
,
0010
0100
0010
0000
,
1000
0010
1000
0010
,
1000
0010
0000
0000
,
0000
0001
0000
0001
,
0000
0001
0000
0000
,
1000
0100
1000
0100
,
1000
0100
0000
0010
,
0000
0010
0000
0000
,
0001
0100
0001
0000
,
0000
1000
0001
1000
,
0001
0000
1000
0000
0000
1000
0000
0000
,
1000
0001
0000
1000
,
0001
0000
0000
0000
,
0000
0001
0001
1000
,
0010
0100
0010
0000
,
0000
0010
0100
0010
,
0100
0010
1000
0010
,
1000
0001
1000
0000
,
0000
0000
0001
0000
,
0001
0000
0010
0000
,
0000
0100
0010
0100
,
1000
0100
1000
0001
,
0100
0000
0100
0000
,
0000
0010
0100
0010
,
0000
0000
0010
1000
,
0010
0000
1000
0000
0001
0000
0000
0001
,
0000
1000
0001
0000
,
1000
0001
0000
0000
,
0000
0000
0000
0001
,
0010
0001
1000
0000
,
0001
0000
0100
0000
,
0000
0000
0000
0000
,
0000
0000
0000
0000
0010
0000
0000
1000
,
0000
0000
0010
0000
0000
1000
0000
0000
,
0001
0000
0000
0000
0001
0000
0000
0001
,
0000
1000
0000
0000
,
0000
0000
0000
0000
0100
0000
0000
0100
,
0000
0010
0000
0000
,
0000
0000
0000
0000
0001
0000
0000
0001
,
0000
1000
0000
0000
,
0000
0000
0000
0000
0010
0000
0000
0010
,
0000
0100
0000
0000
,
0000
0000
0000
0000
0001
0000
0000
0001
,
0000
0010
0000
0000
,
0000
0000
0000
0000
0100
0000
0000
0100
,
0000
1000
0000
0000
0000
0000
0000
0000
,
0000
0000
0000
0000
0010
0000
0000
1000
,
0000
0000
0001
0000
0000
0100
0000
0000
,
0010
0000
0000
2002
0000
0000
0000
0000
,
0000
0000
0000
0000
0000
0000
0000
3003
;
