#TITLE:Tank!;
#SUBTITLE:Cowboy Bebop Opening;
#ARTIST:The Seatbelts;
#TITLETRANSLIT:;
#SUBTITLETRANSLIT:;
#ARTISTTRANSLIT:;
#GENRE:;
#CREDIT:;
#BANNER:TBN.jpg;
#BACKGROUND:TBG.jpg;
#LYRICSPATH:;
#CDTITLE:Magna Trick title!.png;
#MUSIC:Tank!.mp3;
#OFFSET:0.000000;
#SAMPLESTART:52.000000;
#SAMPLELENGTH:14.000000;
#SELECTABLE:YES;
#BPMS:0.000000=141.210007
,48.500000=139.000000
,61.000000=140.000000
,76.000000=142.000000
,87.000000=141.000000
,145.000000=140.000000
,147.500000=139.000000
,162.500000=141.000000
,167.000000=144.000000
,172.000000=141.000000
,179.000000=140.000000
,181.000000=139.000000
,196.500000=136.000000
,203.000000=143.000000
,205.000000=145.000000
;
#STOPS:
;
#BGCHANGES:0.083=Tank!.avi=1.000=0=0=1=====,
206.500=TBG.jpg=1.000=0=0=1=====,
99999=-nosongbg-=1.000=0=0=0 // don't automatically add -songbackground-
;
#KEYSOUNDS:;
#ATTACKS:;

//---------------dance-single - ----------------
#NOTES:
     dance-single:
     :
     Hard:
     13:
     0.544342,0.720350,0.177744,0.233289,0.683204,343.000000,327.000000,16.000000,21.000000,0.000000,0.000000,0.544342,0.720350,0.177744,0.233289,0.683204,343.000000,327.000000,16.000000,21.000000,0.000000,0.000000:
0000
0000
0000
0000
0001
1000
0000
0001
1000
0000
0001
1000
0000
0001
1000
0000
,
0001
1000
0010
0000
0100
0000
0001
0100
,
1000
0000
0000
0000
0100
0000
0000
1000
0000
0000
1000
0000
0001
0000
0000
0100
,
0000
0000
0100
0000
0010
0000
0000
0010
0000
0000
1000
0000
0001
0000
0000
1000
,
0000
0000
0100
0000
0010
0000
0000
0010
0000
0000
0001
0000
1000
0000
0000
1000
,
0000
0000
0010
0000
0100
0000
0000
0100
0000
0000
0001
0000
0010
0000
0000
0010
,
0000
0000
0100
0000
1000
0000
0000
1000
0000
0000
0001
0000
0100
0000
0000
0100
,
0000
0010
1100
0000
0011
0000
0110
0001
,
1000
0000
0000
0000
1000
0100
0000
1000
0010
0000
1000
0001
0000
1000
0100
0000
,
1000
0000
0001
0000
0100
0000
0000
0010
0000
0000
0010
0000
0100
0000
0000
0001
,
0000
0000
0001
0000
0010
0100
0000
0010
0001
0000
0010
1000
0000
0010
0001
0000
,
1000
0000
0001
0000
1000
0000
0000
0010
0000
0000
0010
0000
0100
0000
0000
0001
,
0000
0000
0001
0000
0100
0001
0000
0100
0010
0000
0100
0001
0000
0100
0010
0000
,
0100
0000
0010
0000
1000
0000
0000
0001
0000
0000
0001
0000
0100
0000
0000
1000
,
0000
0000
1000
0000
0001
0010
0000
0001
1000
0000
0001
0100
0000
0001
0010
0000
,
0001
0000
1000
0000
0010
0000
0000
0010
0000
0000
0100
0000
0001
0000
0000
0001
,
0000
0000
1000
0000
0001
1000
0000
0000
0000
0000
1000
0001
0000
0000
0000
0000
,
0001
1000
0000
0000
0001
1000
0000
0000
0000
0000
0001
1000
0000
0000
0000
0000
,
0001
1000
0000
0000
0001
1000
0000
0010
0100
0000
0001
1000
0000
0100
0010
0000
,
0001
1000
0010
0000
0101
0000
1010
1100
,
0000
0012
0000
0000
0000
0000
0000
0000
,
1003
0000
0010
0000
0100
0000
0000
0001
0000
0000
1000
0000
0100
0000
0000
0010
,
0000
0000
0001
0000
1000
0001
1000
0001
2000
0000
0000
0000
0000
0000
0000
0000
,
3000
0000
0000
0000
0001
1000
0100
1000
,
0001
0000
0100
0000
0010
0000
0000
0010
0000
0000
0100
0000
0001
0000
0000
0001
,
0000
0000
1000
0000
0100
0000
0000
0010
0000
0000
0001
0000
1000
0000
0000
0010
,
0000
0000
0100
0000
0101
0000
0000
0101
0000
0000
0010
1000
0100
0000
0000
1100
,
0000
0000
0100
1000
0001
0000
0000
0012
0000
0000
0000
0000
0000
0000
0000
0000
,
0003
0000
0000
0000
1000
0010
0000
1000
0100
0000
1000
0010
0000
0100
0001
0000
,
0010
0000
0100
0000
1000
0001
1000
0001
1000
0001
0100
0010
0100
0010
0100
0010
,
1000
0001
0000
0000
0010
1000
0000
0010
0100
0000
0010
1000
0000
0010
0100
0000
,
0010
0000
1000
0000
0010
0100
0000
0001
0000
1000
0000
0100
0000
0010
0000
0100
,
1000
0000
0001
0000
0100
0010
0000
0100
0001
0000
0100
0010
0000
0100
0001
0000
,
0100
0000
0010
0000
1000
0100
1000
0001
1000
0100
0010
0001
0010
0100
1000
0001
,
0100
0010
0000
0000
0001
0100
0000
1000
0100
0000
0001
0100
0000
1000
0100
0000
,
0001
0020
0000
0230
2300
3002
0203
0320
,
0030
0000
0000
0000
0001
1000
0000
0000
0000
0000
0001
1000
0000
0000
0000
0000
,
0001
1000
0000
0000
0001
1000
0000
0000
0000
0000
0001
1000
0000
0000
0000
0000
,
0001
1000
0000
0000
0001
1000
0000
0000
0000
0000
0001
1000
0000
0000
0000
0000
,
0001
1000
0000
0000
0000
0000
0001
1000
0000
0000
0000
0000
0001
1000
0000
0000
,
0100
0010
0100
0010
2002
0000
0000
0000
3003
0000
0220
0000
0000
0000
0000
0000
,
0000
0000
0000
0000
0000
0000
0000
0330
,
0000
0000
2020
0000
3030
0202
0000
0000
,
0000
0000
0000
0000
,
0303
0000
0000
0000
0001
0000
0000
0010
0000
0000
0100
0000
1000
0000
0000
0001
,
0000
0000
0100
0000
0000
0000
0000
0010
0000
0000
1000
0000
0000
0000
0000
0001
,
0000
0000
0010
0000
0000
0000
0100
1000
0100
1000
0100
1000
0100
1000
0100
1000
,
0001
0000
0100
1000
0100
1000
0001
0000
0100
1000
0100
1000
0002
0000
0000
0000
,
0000
0000
0203
0000
,
0000
0000
0000
0000
,
0000
0000
0000
0000
,
0000
0000
0000
0300
0000
2002
0000
3003
;

//---------------dance-single - ----------------
#NOTES:
     dance-single:
     :
     Challenge:
     15:
     0.760174,0.777978,0.533233,0.422143,0.988702,479.000000,431.000000,48.000000,38.000000,0.000000,0.000000,0.760174,0.777978,0.533233,0.422143,0.988702,479.000000,431.000000,48.000000,38.000000,0.000000,0.000000:
// measure 0
0000
0000
0000
0000
1000
0010
0000
0100
0001
0000
0010
0100
0000
1000
0001
0000
,  // measure 1
0100
0000
0000
0000
0000
0000
0001
0000
0000
0000
0000
0000
1000
0000
0000
0000
0000
0000
0010
0000
0100
0000
0010
0000
0100
0000
0000
0000
0000
0000
0001
0000
0000
0010
0000
0000
0000
0000
0000
0100
0000
0000
1000
0000
0000
0000
0000
0010
,  // measure 2
0100
0000
0000
0000
1001
0000
0000
0001
0000
1000
0010
0000
0110
0000
0000
1000
,  // measure 3
0000
0001
0010
0000
0110
0000
0000
0001
0000
0010
0100
0000
1001
0000
0000
1000
,  // measure 4
0000
0010
0100
0001
1000
0010
0000
0100
0010
0000
1000
0000
0000
0001
0010
0000
,  // measure 5
0100
0000
1000
0010
0000
0010
0100
0000
0001
0000
1000
0100
1000
0100
1000
0000
,  // measure 6
0001
0010
0001
0010
0001
0000
0000
0001
0000
0000
1000
0000
0010
0100
0010
1000
,  // measure 7
0000
0000
0100
0010
1001
0000
0000
0000
0101
0000
0000
0000
1010
0000
0100
0000
,  // measure 8
0001
0000
0000
0000
0010
0100
0000
1000
0100
0000
0001
0100
0000
1000
0010
0000
,  // measure 9
0100
0000
0001
0000
0010
0000
0100
1000
0000
0100
1000
0000
0010
0000
0100
0001
,  // measure 10
0000
0100
0001
0000
0010
1000
0000
0010
0001
0000
0100
1000
0000
0100
0001
0000
,  // measure 11
0010
0000
0100
0000
0001
0000
0100
0010
0000
0100
0010
0000
0001
0000
1000
0010
,  // measure 12
0000
1000
0010
0000
0100
0001
0000
0100
1000
0000
0001
0010
0000
1000
0100
0000
,  // measure 13
0010
0000
0001
0000
1000
0000
0001
1000
0000
0001
1000
0000
0010
0000
0100
0001
,  // measure 14
0000
0100
0001
0000
1000
0100
0000
0001
1000
0000
0010
0001
0000
1000
0100
0000
,  // measure 15
1000
0000
0001
0000
0100
0000
0001
0100
0000
0010
1000
0000
0100
0000
1000
0100
,  // measure 16
0000
0010
0001
0000
1000
1001
0000
0000
0000
0000
0001
1001
0000
0000
0000
0000
,  // measure 17
0001
0011
0000
0000
1000
1100
0000
0000
0000
0000
0100
0110
0000
0000
0000
0000
,  // measure 18
1000
1001
0000
0000
0001
0001
0000
0100
0100
0000
0010
0010
0000
1000
1000
0000
,  // measure 19
1000
0001
0100
0000
1010
0000
0101
0011
,  // measure 20
0000
2100
0000
0000
0000
0000
0000
0000
,  // measure 21
3001
0000
0100
0000
0010
0000
0000
1000
0000
0000
0001
0000
0010
0000
0000
0100
,  // measure 22
0000
0000
1000
0000
0001
0100
1000
0100
0002
0000
1000
0000
0100
0000
0000
0010
,  // measure 23
0103
0000
1000
0000
0001
0000
0000
0001
1000
0000
0100
0000
0010
0000
0001
0000
,  // measure 24
1000
0000
0010
0000
0100
0000
0000
0100
0000
0000
0010
0000
1000
0000
0000
1000
,  // measure 25
0000
0000
0001
0000
0010
0000
0000
0200
0000
0000
2300
0000
3002
0000
0000
0203
,  // measure 26
0000
0000
0310
0000
1010
0000
0000
1010
0000
0000
0100
0001
0010
0000
0000
0011
,  // measure 27
0000
0000
0010
0001
1000
0000
0000
2100
0000
0000
0001
0000
0000
0000
0010
0000
,  // measure 28
3100
0001
1000
0000
0001
0100
0000
0001
0010
0000
0001
0100
0000
0010
1000
0000
,  // measure 29
0100
0000
0010
0000
0001
0100
1000
0100
0001
0100
1000
0001
0010
1000
0010
0001
,  // measure 30
0010
0100
0000
0000
0001
0001
0000
0100
0100
0000
0010
0010
0000
1000
1000
0000
,  // measure 31
0100
0000
0001
0000
0200
0320
0030
0002
0003
2000
3000
0020
0030
0002
0003
0020
,  // measure 32
2030
3000
0002
0003
0010
0010
0000
0100
0100
0000
1000
1000
0000
0001
0001
0000
,  // measure 33
0010
0000
0000
0000
0000
0000
0100
0000
1000
0000
0001
0000
0010
0000
0000
0100
0000
0000
0010
0000
0000
0001
0000
0000
0010
0000
0000
1000
0000
0000
0010
0000
0000
0001
0000
0000
0100
0000
0000
1000
0000
0000
0100
0000
0000
0001
0000
0000
,  // measure 34
0100
0010
0000
0000
1000
1000
0000
0010
0010
0000
0100
0100
0000
0001
0001
0000
,  // measure 35
1000
0200
0000
0320
0032
2003
3020
0230
,  // measure 36
0300
0000
0000
0000
1000
1001
0000
0000
0000
0000
0001
1001
0000
0000
0000
0000
,  // measure 37
1000
1100
0000
0000
0001
0101
0000
0000
0000
0000
0100
0110
0000
0000
0000
0000
,  // measure 38
0001
0011
0000
0000
1000
1010
0000
0000
0000
0000
1000
1001
0000
0000
0000
0000
,  // measure 39
0001
1001
0000
0000
0000
0000
1001
1001
0000
0000
0000
0000
0110
0110
0000
0000
,  // measure 40
0010
0100
0010
0100
2002
0000
0000
0000
3003
0000
0220
0000
0000
0000
0330
0000
,  // measure 41
0001
0000
0000
0000
0000
0000
1000
0000
0000
0000
0000
0000
0100
0000
0000
0000
0000
0000
0000
0000
0000
0010
0000
0000
0001
0000
0000
0000
0000
0000
1000
0000
0000
0000
0010
0000
0000
0000
0100
0000
0000
0000
0001
0000
0000
0000
0000
0000
,  // measure 42
1000
0000
0010
1000
0202
0000
0000
0000
0303
0000
2020
0000
0000
0000
3030
0000
,  // measure 43
0001
0000
0000
0010
0000
0000
0001
0000
0000
0010
0000
0000
0001
0000
0000
0010
0000
0000
0001
0000
0000
0010
0000
0000
0001
0000
0000
0010
0000
0000
0001
0000
0000
0010
0000
0000
0001
0000
0000
0010
0000
0000
0001
0000
1000
0000
0100
0000
,  // measure 44
0010
0000
0000
0000
1100
0000
0000
0110
0000
0000
0011
0000
0001
0000
0000
1010
,  // measure 45
0000
0000
0110
0000
0000
0000
0000
0101
0000
0000
0110
0000
0000
0000
0000
1001
,  // measure 46
0000
0000
0110
0000
0000
0000
0010
0001
0010
0001
0010
0001
0010
0001
0010
0001
,  // measure 47
1000
0000
0010
0001
0010
0001
1000
0000
0010
0001
0010
0001
2000
0000
0000
0000
,  // measure 48
3100
0010
0002
0000
0000
0000
0000
0000
0000
0000
0000
0000
0023
0000
0000
0000
0000
0000
0000
0000
0000
0000
0000
0000
,  // measure 49
0030
0000
0000
0001
0000
0010
0000
0001
0000
0100
0000
0010
0000
1000
0000
0100
0000
0010
0000
0001
0000
1000
0000
0010
,  // measure 50
0000
0100
0000
0002
0000
0000
0000
0000
0000
0203
0000
0000
0000
0000
0000
0320
0000
0000
0000
0000
0000
0030
0000
0000
,  // measure 51
0000
1000
0001
0000
0000
0000
0000
0000
0000
0000
0000
0000
0000
0000
0000
2002
0000
0000
0000
0000
0000
3003
0000
0000
;

//---------------dance-single - ----------------
#NOTES:
     dance-single:
     :
     Medium:
     7:
     0.361836,0.489838,0.366597,0.333270,0.233289,228.000000,195.000000,33.000000,30.000000,0.000000,0.000000,0.361836,0.489838,0.366597,0.333270,0.233289,228.000000,195.000000,33.000000,30.000000,0.000000,0.000000:
0000
0000
0000
0000
,
0000
0000
0000
0000
,
0000
0000
0000
0000
1000
0000
0000
1000
0000
0000
0000
0000
0001
0000
0000
0001
,
0000
0000
0000
0000
0100
0000
0000
0100
0000
0000
0000
0000
0010
0000
0000
0010
,
0000
0000
0000
0000
1000
0000
0000
1000
0000
0000
0000
0000
0001
0000
0000
0001
,
0000
0000
0000
0000
0010
0000
0000
0010
0000
0000
0000
0000
0100
0000
0000
0100
,
0000
0000
0000
0000
1000
0000
0000
1000
0000
0000
0000
0000
0001
0000
0000
0001
,
0000
0000
0110
0000
0110
0000
1001
0010
,
0100
0000
0000
0000
0001
0000
0000
1000
0000
0000
0010
0000
0000
0000
0200
0000
,
0000
0002
0000
0000
0300
0000
0000
0003
,
0000
0000
0000
0000
1000
0000
0000
0100
0000
0000
0010
0000
0000
0000
0002
0000
,
0000
0200
0000
0000
0003
0000
0000
0300
,
0000
0000
0000
0000
0010
0000
0000
1000
0000
0000
0001
0000
0000
0000
0020
0000
,
0000
0200
0000
0000
0030
0000
0000
0300
,
0000
0000
0000
0000
1000
0000
0000
0100
0000
0000
0010
0000
0000
0000
0002
0000
,
0000
0200
0000
0000
0003
0000
0000
0300
,
0000
0000
1001
0000
0000
0101
0000
0000
,
1010
0000
0101
0000
0000
1001
0000
0000
,
0011
0000
0000
0000
1100
0000
0000
0010
0000
0000
0001
0000
0000
0000
0010
0000
,
0001
1000
0010
0000
0101
0000
1001
1001
,
0000
0012
0000
0000
0000
0000
0000
0000
,
1003
0000
0010
0000
0100
0000
0000
0001
0000
0000
1000
0000
0100
0000
0000
0010
,
0000
0001
1000
0100
2000
0000
0000
0000
,
0000
0000
3000
0000
0001
1000
0100
0010
,
0001
0000
0100
0000
0020
0000
0000
0000
0030
0000
0100
0000
0001
0000
0000
0001
,
0000
0000
1000
0000
0100
0000
0000
0010
0000
0000
0001
0000
1000
0000
0000
0010
,
0000
0000
0100
0000
0101
0000
0000
0101
0000
0000
0000
0000
1100
0000
0000
1100
,
0000
0000
0001
1000
0001
0000
0000
0002
0000
0000
0000
0000
0000
0000
0000
0000
,
0003
0000
0000
0000
1000
0000
0000
0100
0000
0000
0010
0000
0000
0000
0001
0000
,
0010
0100
1000
1000
1000
0100
0100
0100
,
1000
0001
0000
0000
0100
0000
0000
0010
0000
0000
0001
0000
0000
0000
0100
0000
,
0010
0000
1000
0000
0001
1000
0000
0001
0000
1000
0000
0001
0000
1000
0000
0001
,
1000
0000
0001
0000
1001
0000
0000
0100
0000
0000
0010
0000
0000
0000
0001
0000
,
0100
0010
1000
1000
1000
0010
0010
1000
,
0100
0010
0000
0000
0001
0000
0000
1000
0000
0000
0001
0000
0000
0000
0100
0000
,
0001
0020
0000
0230
2300
3002
0203
0320
,
0030
0000
1001
0000
0000
0110
0000
0000
,
0011
0000
1100
0000
0000
0110
0000
0000
,
1010
0000
0101
0000
0000
1001
0000
0000
,
1001
0000
0000
0000
0000
0000
0001
1000
0000
0000
0000
0000
0001
1000
0000
0000
,
0100
0100
2002
0000
3003
0220
0000
0000
,
0000
0000
0000
0000
0000
0000
0000
0330
,
0000
0000
2020
0000
3030
0202
0000
0000
,
0000
0000
0000
0000
,
0303
0000
0000
0000
0001
0000
0000
0010
0000
0000
0100
0000
1000
0000
0000
0001
,
0000
0000
0100
0000
0000
0000
0000
0010
0000
0000
1000
0000
0000
0000
0000
0001
,
0000
0010
0000
0100
0100
0100
0100
0100
,
0001
0100
0100
0001
0100
0100
0002
0000
,
0000
0000
0203
0000
,
0000
0000
0000
0000
,
0000
0000
0000
0000
,
0000
0000
0000
0300
0000
2002
0000
3003
;

//---------------dance-single - ----------------
#NOTES:
     dance-single:
     :
     Easy:
     6:
     0.330096,0.461024,0.322161,0.355488,0.199962,208.000000,179.000000,29.000000,32.000000,0.000000,0.000000,0.330096,0.461024,0.322161,0.355488,0.199962,208.000000,179.000000,29.000000,32.000000,0.000000,0.000000:
0000
0000
0000
0000
,
0000
0000
0000
0000
,
0000
0000
0000
0000
0001
0000
0000
0001
0000
0000
0000
0000
1000
0000
0000
1000
,
0000
0000
0000
0000
0010
0000
0000
0010
0000
0000
0000
0000
0100
0000
0000
0100
,
0000
0000
0000
0000
0001
0000
0000
0001
0000
0000
0000
0000
1000
0000
0000
1000
,
0000
0000
0000
0000
0100
0000
0000
0100
0000
0000
0000
0000
0010
0000
0000
0010
,
0000
0000
0000
0000
0001
0000
0000
0001
0000
0000
0000
0000
1000
0000
0000
1000
,
0000
0010
0010
1001
,
0110
0000
0000
0000
1000
0000
0000
0001
0000
0000
0100
0000
0000
0000
0020
0000
,
0000
2000
0000
0000
0030
0000
0000
3000
,
0000
0000
0000
0000
0001
0000
0000
0010
0000
0000
0100
0000
0000
0000
2000
0000
,
0000
0020
0000
0000
3000
0000
0000
0030
,
0000
0000
0000
0000
0100
0000
0000
0001
0000
0000
1000
0000
0000
0000
0200
0000
,
0000
0020
0000
0000
0300
0000
0000
0030
,
0000
0000
0000
0000
0001
0000
0000
0010
0000
0000
0100
0000
0000
0000
2000
0000
,
0000
0020
0000
0000
3000
0000
0000
0030
,
0000
0000
1001
0000
0000
1010
0000
0000
,
0101
0000
1010
0000
0000
1001
0000
0000
,
1100
0000
0000
0000
0011
0000
0000
0100
0000
0000
1000
0000
0000
0000
0002
0000
,
0000
2003
0000
3000
1001
0000
0001
1000
,
0000
2100
0000
0000
0000
0000
0000
0000
,
3001
0000
0100
0000
0001
0000
0000
0100
0000
0000
0010
0000
1000
0000
0000
0001
,
0000
1000
0001
1000
0002
0000
0000
0000
,
0000
0003
1000
0001
,
0010
0000
0000
0000
0200
0000
0000
0000
0300
0000
0000
0000
0010
0000
0000
0001
,
0000
0000
0001
0000
0010
0000
0000
0100
0000
0000
1000
0000
0001
0000
0000
0100
,
0000
0000
0010
0000
1001
0000
0000
1001
0000
0000
0000
0000
1001
0000
0000
1001
,
0000
1000
2000
0000
0000
0000
0000
0000
,
3000
0000
0000
0000
0001
0000
0000
0010
0000
0000
0100
0000
0000
0000
1000
0000
,
0000
0010
0100
0100
0100
0010
0010
0010
,
1000
0000
0000
0000
0010
0000
0000
0100
0000
0000
0001
0000
0000
0000
0010
0000
,
0100
0000
0010
0000
0100
0010
0000
0010
0000
0010
0000
0010
0000
0010
0000
0010
,
0100
0000
1000
0000
0001
0000
0000
0010
0000
0000
0100
0000
0000
0000
1000
0000
,
0010
0100
0001
0001
0001
0100
0100
0001
,
1000
0000
0000
0000
1000
0000
0000
0001
0000
0000
1000
0000
0000
0000
0001
0000
,
0000
0200
0000
0320
2030
3002
0023
0230
,
0300
0000
1001
0000
0000
0110
0000
0000
,
1100
0000
0011
0000
0000
0110
0000
0000
,
0101
0000
1010
0000
0000
1001
0000
0000
,
1001
0000
0000
1000
0000
0000
0001
0000
,
0010
0010
2002
0000
3003
0220
0000
0000
,
0000
0000
0000
0000
0000
0000
0000
0330
,
0000
0000
0202
0000
0303
2020
0000
0000
,
0000
0000
0000
0000
,
3030
0000
0000
0000
1000
0000
0000
0001
0000
0000
1000
0000
0000
0000
0000
0001
,
0000
0000
1000
0000
0000
0000
0000
0001
0000
0000
1000
0000
0000
0000
0000
0001
,
0000
1000
0000
0010
0010
0010
0010
0010
,
1000
0010
0010
1000
0010
0010
2000
0000
,
0000
0000
3020
0000
,
0000
0000
0000
0000
,
0000
0000
0000
0000
,
0000
0000
0000
0030
0000
2002
0000
3003
;
