#TITLE:Take Off;
#SUBTITLE:Ao no Exorcist Ending;
#ARTIST:2PM;
#TITLETRANSLIT:;
#SUBTITLETRANSLIT:;
#ARTISTTRANSLIT:;
#GENRE:;
#CREDIT:Magna Trick;
#BANNER:TOBN.jpg;
#BACKGROUND:TOBG.jpg;
#LYRICSPATH:;
#CDTITLE:Magna Trick title!.png;
#MUSIC:Take Off.mp3;
#OFFSET:-0.073482;
#SAMPLESTART:45.380001;
#SAMPLELENGTH:14.000000;
#SELECTABLE:YES;
#BPMS:0.000000=130.399994
;
#STOPS:148.000000=0.690000,
150.500000=0.460000,
153.500000=0.700000
;
#BGCHANGES:0.083=Take Off.avi=1.000=0=0=1=====,
188.500=TOBG.jpg=1.000=0=0=1=====,
99999=-nosongbg-=1.000=0=0=0 // don't automatically add -songbackground-
;
#KEYSOUNDS:;
#ATTACKS:;

//---------------dance-single - ----------------
#NOTES:
     dance-single:
     :
     Hard:
     11:
     0.492284,0.627899,0.165673,0.662691,0.187762,312.000000,297.000000,15.000000,60.000000,0.000000,0.000000,0.492284,0.627899,0.165673,0.662691,0.187762,312.000000,297.000000,15.000000,60.000000,0.000000,0.000000:
0000
0000
0000
0000
0000
0000
2000
0000
0000
0000
3020
0000
0000
0030
1001
0000
,
0000
0000
0200
0000
0000
0300
1001
0000
0000
0000
0020
0000
1030
0001
1000
0000
,
0010
2000
3000
0010
1000
0200
0000
0310
,
1000
0000
0200
0000
0000
0000
0310
0000
1000
0000
0100
0000
0010
0001
0010
0000
,
0001
0000
0100
0000
1000
0000
0100
0000
0001
0000
0200
0000
0000
0300
1001
0000
,
0000
0000
0020
0000
0000
0030
1001
0000
0000
0000
0200
0000
1000
0300
0001
0000
,
1000
0020
0000
0130
0001
1000
0100
1001
,
0000
0000
0020
0000
0000
0030
1001
0000
0000
0000
0200
0000
0000
0300
1001
0000
,
0001
0000
2000
0000
0000
0000
0020
0000
3000
0000
0130
0000
0001
0100
0001
0000
,
1000
0000
0100
0000
0010
0100
0010
0000
0100
0000
1000
0000
0001
1000
0001
0000
,
1000
0000
0010
0000
0100
0000
0001
0000
1000
0000
0100
0000
0010
0100
0010
0000
,
0100
0000
1000
0000
0001
1000
0001
0000
1000
0000
0010
0000
1000
0010
1000
0000
,
0001
0000
0100
0000
0010
0000
1000
0000
0100
0000
0010
0000
0100
0010
0100
0000
,
0010
0000
0001
0000
1000
0001
1000
0000
0010
0000
0100
0000
0010
0100
0010
0000
,
0100
0001
1000
0100
0010
0002
0000
1003
,
0100
0000
1000
0010
0200
0001
0300
0002
,
0000
0000
2003
0000
0100
0000
3200
0000
0000
0300
1002
0000
0000
0000
0000
0000
,
0000
0000
2003
0100
0000
0000
0000
0000
0000
0000
3020
0000
0000
0000
0000
0000
,
0000
0000
0230
0000
0000
0000
0000
0000
0000
0000
0302
1000
0000
0000
0000
0000
,
0000
2003
0000
0000
0000
3001
0010
1000
,
0010
0001
0100
1000
0100
0020
0000
0000
,
0030
2000
0000
0000
3001
0001
0010
0010
,
0100
0000
0100
0000
1000
0000
0001
0000
0100
0000
0010
0100
0010
0000
1000
0000
,
0100
0000
0010
0001
0010
0000
0001
0000
1000
0000
0100
1000
0100
0000
1000
0000
,
0001
0000
0010
0100
0010
0100
0010
0100
0010
0000
0002
0000
0000
0000
0203
0000
,
0000
2300
0000
3010
0001
1000
0000
0020
,
0000
0000
0030
0100
0001
0000
1000
0000
0100
0010
0100
0000
0010
0000
0001
0000
,
0100
0010
1000
0001
1000
0020
0000
0230
,
0000
0000
0301
1000
0000
0000
1001
0000
1000
0000
0002
0000
0000
0000
0203
0000
,
0000
0300
0010
0000
0000
0000
1000
0000
0100
0000
2000
0000
0000
0000
3002
0000
,
0000
0000
0023
0000
0000
0000
2030
0000
0000
3000
0001
0000
0100
0000
0010
0000
,
0100
1000
0100
0010
0100
1000
2000
0000
,
3000
0001
0200
0000
0300
0001
0100
1000
,
0010
0001
0100
1000
0010
0002
0000
2003
,
0000
0000
3100
0010
0000
0000
1001
0000
0001
0000
2000
0000
0000
0000
3100
0000
,
0100
1000
0001
0100
0200
0000
0300
0001
,
0000
0000
1000
0001
0000
0000
1001
0000
0001
0000
1000
0000
0000
0001
0000
0000
,
1001
0000
0001
0000
1000
0000
0000
0001
0000
0000
1001
0000
1000
0001
1000
0001
,
1000
0000
0000
0110
0000
0000
1001
0000
0001
0000
0001
0000
0000
0100
0000
0000
,
0010
0000
1000
0001
1000
0001
1000
0001
1000
0001
0200
0000
0000
0000
2300
0000
,
0000
3020
0000
0031
0100
2000
0000
3002
,
0000
0000
0000
0000
0003
0000
0100
0000
0010
0000
0200
0000
0000
0300
0001
0000
,
0010
0100
1000
1000
0001
0020
0000
0000
,
0000
0030
0100
0000
1000
0000
0001
0000
0100
0000
0020
0000
0000
0000
0230
0000
,
0000
0000
0000
0300
0001
1000
0000
2000
,
0000
0000
0000
0000
0000
3000
0000
0000
0001
0000
0020
0000
0000
0000
0230
0000
,
0000
0000
0000
0000
0000
0000
0000
0300
1000
0000
0002
0000
0000
0000
0203
0000
,
0000
0000
0000
0300
0000
0000
0000
0000
;

//---------------dance-single - ----------------
#NOTES:
     dance-single:
     :
     Challenge:
     15:
     0.747894,0.968011,0.121493,0.408659,0.960901,474.000000,463.000000,11.000000,37.000000,0.000000,0.000000,0.747894,0.968011,0.121493,0.408659,0.960901,474.000000,463.000000,11.000000,37.000000,0.000000,0.000000:
// measure 0
0000
0000
0000
0000
0000
0000
0002
0000
0000
0000
0103
0001
0100
0001
0100
0010
,  // measure 1
1000
0001
0000
0100
0010
0100
0001
1000
0100
0010
0000
0001
0010
0001
0010
0100
,  // measure 2
1000
0001
0000
1000
0100
1000
0100
0010
0001
0100
0000
0010
1000
0100
1000
0100
,  // measure 3
0010
0001
0000
1000
0001
1000
0010
0100
0001
1000
0000
0001
1000
0100
1000
0001
,  // measure 4
0010
0001
0000
1000
0010
0100
0010
0100
0001
1000
0000
0010
0100
0001
0100
0010
,  // measure 5
1000
0100
0000
0010
0001
0010
0001
0100
0010
1000
0000
0100
1000
0100
1000
0001
,  // measure 6
0100
0010
0000
1000
0100
1000
0001
1000
0010
0100
0000
0001
0100
0001
1000
0001
,  // measure 7
0010
0100
0000
0010
0100
0010
1000
0010
0001
0100
0000
0100
1000
0100
0001
0100
,  // measure 8
0010
1000
0200
0000
0310
0000
0001
1000
0001
1000
0010
0000
1000
0010
1000
0001
,  // measure 9
0100
0010
1000
0000
0100
0010
0100
0010
0001
1000
0001
0000
1000
0001
1000
0010
,  // measure 10
0100
0001
1000
0000
0010
0000
1000
0000
0001
0000
0010
0000
0100
0000
1000
0100
,  // measure 11
1000
0100
0010
0000
0001
0000
1000
0001
1000
0001
0100
0000
0010
0000
1000
0001
,  // measure 12
1000
0001
0010
0000
0100
0000
1000
0000
0010
0000
0100
0000
0010
0000
1000
0100
,  // measure 13
1000
0100
0010
0000
0001
0000
0100
0001
0100
0001
0010
0000
0100
0000
1000
0001
,  // measure 14
1000
0001
0010
0000
0001
0000
0010
0100
0010
0100
2000
0000
0000
0000
3001
0010
,  // measure 15
0001
0010
0100
0000
1000
0000
0001
0100
0001
0100
0010
0000
1000
0000
0100
0010
,  // measure 16
0100
0010
0002
0000
0010
0000
0013
0100
0010
0100
2001
0000
0000
0000
0000
0000
,  // measure 17
0000
0000
3002
0010
0000
0000
0000
0000
0000
0000
0203
0000
0000
0000
0000
0000
,  // measure 18
0000
0000
0320
0000
0000
0000
0000
0000
0000
0000
2030
0001
0000
0000
0000
0000
,  // measure 19
0000
3002
0000
0000
0000
1003
0100
0001
,  // measure 20
0100
1000
0010
0001
0010
0200
0000
0000
,  // measure 21
0300
0002
0000
0000
1003
1000
0100
0100
,  // measure 22
0010
0000
0010
0000
0001
0000
1000
0000
0010
0000
0100
0010
0100
0010
0100
0010
,  // measure 23
0100
0010
0100
0010
0100
0010
0100
0010
0100
0010
0100
0010
0100
0010
0100
0010
,  // measure 24
0100
0000
0000
0010
0000
0000
0100
0000
0001
0000
1000
0000
0100
0000
0010
0000
0001
0000
0100
0000
0010
0000
1000
0000
0100
0000
0010
0000
0001
0000
1000
0000
0000
0100
0000
0000
0010
0000
0000
0000
0000
0000
0001
0000
0000
0010
0000
0000
,  // measure 25
0100
0000
1000
0010
0100
0000
0001
0000
1000
0000
0002
0000
0000
0000
0203
0000
,  // measure 26
0000
0000
0310
1000
0001
0000
1001
0000
0010
0000
0100
0000
1000
0100
0000
1000
,  // measure 27
0001
0000
1000
0100
0000
1000
0010
0000
0100
0000
0001
0000
0010
0001
0000
1000
,  // measure 28
0001
0000
0100
0001
0000
1000
0001
0000
0001
0000
2000
0000
0000
0000
3020
0000
,  // measure 29
0000
0030
0200
0000
0000
0000
0302
0000
0013
0000
0002
0000
0000
0000
2003
0000
,  // measure 30
0100
0000
3200
0000
0000
0000
0302
0000
0000
0003
1000
0000
0010
0100
0000
0010
,  // measure 31
0001
0000
0010
0100
0000
1000
0010
0000
0100
0000
0001
0000
0002
0000
1000
0000
,  // measure 32
0003
0000
1000
0010
1000
0010
0100
0001
0100
0001
1000
0010
0100
0000
0001
0010
,  // measure 33
0100
0000
1000
0100
0010
0000
0001
0000
0100
0000
2000
0000
0000
0000
3002
0000
,  // measure 34
0000
0000
0013
0001
1000
0000
1001
0000
0001
0000
1000
0000
0010
0100
0000
0010
,  // measure 35
1000
0000
0010
0001
0000
0010
0100
0000
0010
0000
1000
0000
0100
0010
0000
0100
,  // measure 36
0001
0000
0100
1000
0000
0100
0010
0000
0001
0000
1100
0000
0000
0101
0000
0000
,  // measure 37
1001
0000
2000
3000
0101
0000
0000
1100
0000
0000
1001
0000
0001
1000
0001
1000
,  // measure 38
0001
0000
0000
0110
0000
0000
1001
0000
1000
0000
2000
0000
0000
3020
0000
0000
,  // measure 39
0230
0000
0301
1000
0001
1000
0001
1000
0001
1000
0010
0100
0001
0000
1000
0100
,  // measure 40
0010
0000
0001
0100
0010
0000
1000
0001
1000
0001
0100
0000
0010
0000
1000
0010
,  // measure 41
1000
0010
0100
0000
0001
0000
0010
0100
0010
0100
1000
0000
0100
0000
0010
0001
,  // measure 42
0010
0001
0100
0000
0010
0000
1000
0001
1000
0001
0200
0000
0310
0000
1000
0100
,  // measure 43
0010
0001
1000
0000
0001
0000
1000
0010
0100
0001
0200
0000
0000
0000
0320
0000
,  // measure 44
0000
0000
0000
0030
1000
0001
0000
0002
,  // measure 45
0000
0000
0000
0000
0000
0003
0000
0000
1000
0000
0200
0000
0000
0000
0320
0000
,  // measure 46
0000
0000
0000
0000
0000
0000
0000
0030
0001
0000
2000
0000
0000
0000
3020
0000
,  // measure 47
0000
0000
0000
0030
0000
0000
0000
0000
;

//---------------dance-single - ----------------
#NOTES:
     dance-single:
     :
     Medium:
     7:
     0.362902,0.523249,0.055224,0.784184,0.033135,230.000000,225.000000,5.000000,71.000000,0.000000,0.000000,0.362902,0.523249,0.055224,0.784184,0.033135,230.000000,225.000000,5.000000,71.000000,0.000000,0.000000:
0000
0000
0000
0000
,
0000
0000
0000
0000
0000
0000
0001
0001
,
1000
0002
0003
1000
0001
2000
0000
3001
,
1000
0002
0000
0003
0000
0000
1000
1000
,
0001
1000
0001
0010
0100
2000
0000
3001
,
0000
2000
0000
3001
0000
2000
0000
3001
,
0001
0200
0000
0320
0000
1030
0002
0000
,
0003
2000
0000
3001
0000
2000
0000
3001
,
1000
0002
0000
0200
0003
0320
0000
1030
,
0000
0020
0000
0130
0000
0020
0000
1030
,
0000
0001
0000
1000
0000
0002
0000
0013
,
0000
0002
0000
1003
0000
0002
0000
0103
,
0100
0010
0000
1000
0100
1000
0000
0001
,
0000
0010
0000
0001
1000
0001
0000
0100
,
0010
0000
0100
0010
0100
0020
0000
1030
,
0001
0000
0001
0100
0020
0000
0030
2000
,
0000
0000
3002
0000
0010
0000
0023
0000
0000
0030
2001
0000
0000
0000
0000
0000
,
0000
3002
0000
0000
0000
0203
0000
0000
,
0000
0320
0000
0000
0000
2030
0000
0000
,
0000
3002
0000
0000
0000
1003
0100
1000
,
0100
0010
0001
0010
0001
0200
0000
0000
,
0300
0002
0000
0000
1003
1000
0100
0100
,
0010
0010
0001
1000
0010
0200
0000
0000
,
0000
0302
0000
0000
0000
2003
0000
3200
,
0000
0320
0000
0032
0000
2003
0000
3020
,
0000
0032
0000
0103
1000
0001
0000
0200
,
0000
0300
1000
0001
0000
1000
0100
1000
,
0010
1000
0001
1000
0001
0200
0000
0320
,
0000
1030
0001
1000
0001
2000
0000
3020
,
0000
0030
0100
0000
0000
0000
0001
0000
0010
0000
0002
0000
0000
0000
2003
0000
,
0000
3200
0000
0320
0000
0031
0010
0001
,
0010
0001
0010
0100
0010
0001
0002
0000
,
0003
1000
0020
0000
0030
1000
0001
1000
,
0100
1000
0010
1000
0001
2000
0000
3002
,
0000
0013
0000
0001
1000
0002
0000
2003
,
0000
3001
1000
0010
0020
0000
0030
1000
,
0000
0000
0001
0000
1000
0000
0001
0000
1000
0000
0001
0000
0000
1000
0000
0000
,
1001
0000
1000
0000
0001
0000
0000
1000
0000
0000
1001
0000
0001
1000
0001
1000
,
0001
0000
0000
1001
0000
0000
1001
0000
0000
0000
1000
0000
0000
0010
0000
0000
,
0100
0001
0001
0001
0001
0020
0000
0032
,
0000
0203
0000
1300
0010
0002
0000
2003
,
0000
0000
0000
0000
3000
0000
0010
0000
0100
0000
0020
0000
0000
0030
1000
0000
,
0100
0010
0001
0001
2000
0000
0000
0000
,
3000
0001
1000
0001
1000
0200
0000
0320
,
0000
0000
0000
0030
0001
0001
0000
0002
,
0000
0000
0000
0000
0000
0003
0000
0000
1000
0000
0200
0000
0000
0000
0320
0000
,
0000
0000
0000
0000
0000
0000
0000
0030
0001
0000
2000
0000
0000
0000
3020
0000
,
0000
0000
0000
0030
0000
0000
0000
0000
;

//---------------dance-single - ----------------
#NOTES:
     dance-single:
     :
     Easy:
     4:
     0.225630,0.341009,0.121493,0.198807,0.000000,143.000000,132.000000,11.000000,18.000000,0.000000,0.000000,0.225630,0.341009,0.121493,0.198807,0.000000,143.000000,132.000000,11.000000,18.000000,0.000000,0.000000:
0000
0000
0000
0000
,
0000
0000
0000
0000
0000
0000
0000
1000
,
0000
0001
0000
0100
0000
0200
0000
0000
,
0000
0000
0000
0000
0000
0300
0000
0010
,
0000
1000
0000
0001
0000
0020
0000
0000
,
0000
0000
0000
0030
0000
0000
0000
0100
,
0000
1000
0000
0001
0000
2000
0000
0000
,
0000
0000
0000
3000
0000
0000
0000
0001
,
0000
0002
0000
0000
0003
1000
0000
0000
,
0000
0001
0000
0000
0000
0100
0000
0000
,
0000
0010
0000
0000
0000
1000
0000
0000
,
0000
0001
0000
0000
0000
0010
0000
0000
,
0000
0100
0000
1000
0000
0002
0000
0003
,
0000
0100
0000
0000
0000
0010
0000
0000
,
0000
1000
0000
0000
0000
0002
0000
0000
,
0003
1000
0000
0000
0000
0200
0000
0000
,
0300
0010
0000
0001
0000
1001
0000
0000
,
0000
1001
0000
0000
0000
0010
0000
0000
,
0000
0100
0000
0000
0000
1001
0000
0000
,
0000
1001
0000
0000
0000
0010
0000
0000
,
0000
0100
0000
0000
0000
1001
0000
0000
,
0000
1001
0000
0000
0000
0010
0000
0000
,
0000
0010
0000
0000
0000
1001
0000
0000
,
0000
1001
0000
0000
0000
0100
0000
1000
,
0000
0001
0000
0100
0000
0010
0000
0010
,
0000
0010
0000
0010
0000
1000
0000
0001
,
0000
1000
0001
1000
0000
0010
0000
0100
,
0000
0001
0000
1000
0000
0100
1000
0100
,
0000
0010
0000
0001
0000
2000
0000
0002
,
0000
0000
0000
3003
0000
0200
0000
0020
,
0000
0000
0000
0330
0000
1000
0000
0001
,
0000
1000
0000
0001
0000
0010
0000
0010
,
0000
0100
0000
1000
0000
0001
0000
0001
,
0000
0001
0000
0001
0000
1000
0000
0010
,
0000
0100
0010
0100
0000
0001
0000
1000
,
0000
0001
0000
0010
0000
0200
0000
0000
,
0300
1000
0000
0001
0000
1000
0000
0001
,
1001
0000
1000
0000
0001
1001
0000
0000
,
1000
0000
0001
1001
0000
1000
0000
0001
,
0000
1000
0001
1000
0000
0010
0000
0010
,
0000
0010
0000
0010
0000
1000
0000
0002
,
0000
0000
0000
1003
0000
0100
0000
0010
,
0000
0001
0000
0100
0000
0200
0000
0000
,
0300
0010
0000
1000
0000
0001
0000
0002
,
0000
0000
0000
0000
0003
1000
0000
2000
,
0000
0000
0000
0000
3000
0010
0000
0020
,
0000
0000
0000
0000
0030
0100
0000
0002
,
0000
0000
0003
0000
;
