#TITLE:Super Powers;
#SUBTITLE:One Piece Opening 21;
#ARTIST:V6;
#TITLETRANSLIT:;
#SUBTITLETRANSLIT:;
#ARTISTTRANSLIT:;
#GENRE:;
#CREDIT:Magna Trick;
#BANNER:SPBN.jpg;
#BACKGROUND:SPBG.jpg;
#LYRICSPATH:;
#CDTITLE:Magna Trick title!.png;
#MUSIC:Super Powers.mp3;
#OFFSET:0.017718;
#SAMPLESTART:106.000000;
#SAMPLELENGTH:14.000000;
#SELECTABLE:YES;
#BPMS:0.000000=176.000000
,76.500000=88.000000
,80.000000=176.000000
,110.000000=88.000000
,111.000000=176.000000
,136.000000=88.000000
,143.000000=176.000000
,205.000000=88.000000
,207.000000=176.000000
,239.000000=88.000000
,257.500000=131.970001
,268.000000=176.000000
,268.500000=88.000000
,269.000000=176.000000
,329.500000=88.000000
,332.500000=176.000000
,393.500000=87.980003
,395.750000=175.960007
;
#STOPS:
;
#BGCHANGES:0.063=Super Powers.avi=1.000=0=0=1=====,
395.500=SPBG.jpg=1.000=0=0=1=====,
99999=-nosongbg-=1.000=0=0=0 // don't automatically add -songbackground-
;
#KEYSOUNDS:;
#ATTACKS:;

//---------------dance-single - ----------------
#NOTES:
     dance-single:
     :
     Hard:
     12:
     0.597058,0.652826,0.508395,0.508395,0.135352,633.000000,556.000000,77.000000,77.000000,0.000000,3.000000,0.597058,0.652826,0.508395,0.508395,0.135352,633.000000,556.000000,77.000000,77.000000,0.000000,3.000000:
0000
0000
0000
0000
,
0000
0002
0000
0000
2003
0000
3010
0200
,
0000
0000
0320
0000
0000
1030
0001
1000
,
0000
2020
0000
3030
0202
0000
0303
0022
,
0000
0033
2200
0000
3300
1000
0100
0010
,
0000
0001
0000
1000
0001
0000
0100
0000
,
0010
0100
0000
0002
0000
2003
0000
3200
,
0000
0300
0022
0000
0000
0000
0033
0000
0202
0000
0000
0000
0303
0000
2020
0000
,
0000
3030
2200
0000
3300
1000
0100
0010
,
0000
0001
0000
0100
1000
0000
0001
0010
,
1000
0100
0000
0020
0000
0230
0000
2300
,
0000
3100
0000
0010
0100
0000
1000
0100
,
0000
0001
0100
0000
0010
0100
1000
0001
,
0000
1000
0000
0100
0010
0000
0001
1000
,
0100
0002
0000
0203
0000
2300
0000
3020
,
0000
0031
0000
0010
0100
0000
0010
1000
,
0000
0010
0001
0010
0100
0010
1000
0100
,
0000
0010
0000
0001
0010
0000
0001
0100
,
1000
0020
0000
2030
0000
3200
0000
0320
,
0000
0000
0032
0000
1003
0100
0001
0100
1000
0100
0020
0000
2030
0000
3001
1000
,
1001
0000
0001
0000
0100
0010
0100
0001
,
0100
0010
0100
0001
1000
0010
1000
0100
,
1100
0000
0100
0000
0010
0100
1000
0100
,
0010
0100
1000
0100
0010
0001
1000
0010
,
1010
0000
0101
0000
0001
0011
0000
1000
,
1100
0000
0010
0110
0000
1000
1001
0000
,
1001
0000
0001
1000
0010
0200
0000
0300
,
0001
0000
1000
0000
0010
0000
0200
0000
0000
0301
1000
0000
1001
0000
0000
0000
,
0010
1000
0100
1000
0000
0000
0010
0001
,
0100
0001
0000
0000
1001
0000
0110
0000
,
0001
1000
0010
1000
0100
0010
0001
0100
,
0001
0010
0001
1000
0010
0100
0001
1000
,
1100
0000
0001
0101
0000
1000
1010
0000
,
0001
0011
0000
1000
1001
0000
0010
0000
,
0220
0000
0030
0310
2000
0000
0000
3001
0020
0000
0000
0031
2000
0000
0000
3001
,
0200
0000
0000
0000
0000
0000
0000
0000
0000
0000
0000
0310
0010
0000
1000
0000
,
0001
0100
1010
0000
0001
0010
0100
0000
,
1100
0000
0001
1000
0010
0100
0001
1000
,
0010
0100
0101
0000
1000
0100
0010
0000
,
0011
0000
0010
0100
1000
0001
0010
0200
,
0000
0300
1000
0000
0010
0000
1000
0100
,
0000
0001
0100
0000
1000
0000
0010
0000
,
0002
0000
0000
0003
1000
0000
0100
0001
,
0000
0010
1010
0000
0011
0000
0101
0000
,
1100
0000
0001
0000
1000
0010
1000
0100
,
1000
0000
0001
0010
0001
0100
0001
1000
,
0010
0200
0000
0300
0001
0000
1000
0100
,
0010
0001
0100
0000
1000
0100
0000
1001
,
0000
0000
1000
0000
0010
0000
0001
0010
,
0000
1000
0100
0000
1000
0000
0010
0000
,
0200
0000
0000
0300
1001
0000
0010
1000
,
0000
0010
0011
0101
1100
2010
3010
0000
,
1000
0001
0000
1000
0100
0010
0001
2000
,
3000
0000
0000
0000
0001
0000
1000
0000
0010
0000
0000
0000
0100
0000
0000
0100
,
0001
0000
0000
0001
1000
0000
0100
0000
0010
0000
0000
0010
0001
0000
1000
0000
,
0100
0000
0000
0100
0010
0000
0001
0000
1000
0000
0000
0000
1001
0000
0000
0000
,
0001
1000
0000
0001
0100
0010
1000
0001
,
0000
0000
0000
0000
0100
0000
0001
0000
0010
0000
0000
0000
0001
0000
0000
0001
,
0010
0000
0000
0010
0100
0000
1000
0000
0010
0000
0000
0010
1000
0000
0100
0000
,
0010
0000
0000
0010
0001
0000
0000
0001
1000
0000
0000
0000
0101
0000
0001
0010
,
1000
0000
0000
0001
0100
0000
0000
1000
0010
0000
0000
0100
0001
0000
0001
0010
,
0100
0000
0000
1000
0001
0000
0000
0000
0100
0000
0000
0010
0200
0000
1000
0000
,
0000
0000
0000
0000
0000
0300
0002
0000
2003
0000
3200
0000
0320
0000
0001
0000
,
0200
2300
3002
0203
,
0000
0000
0000
0000
0000
0000
0000
0000
0000
0000
0000
0000
0330
0000
0000
0001
0000
0000
1000
0000
0000
0001
0000
0000
1000
0000
0000
0010
0000
0000
0120
0000
,
0000
0000
0000
0000
0000
0000
0000
0230
0000
0000
0000
0000
0000
0000
0000
0000
0320
0000
0000
0000
0000
0000
0030
0000
0000
0100
0000
0000
0001
0000
0000
1000
,
0000
0000
0100
0000
0000
0010
0000
0000
0001
0000
0000
0010
0000
0000
0200
0000
0000
0000
0000
0000
0000
0000
0000
2300
0000
0000
0000
0000
0000
0000
0000
0000
,
3002
0000
0000
0000
0000
0103
0010
1000
,
0001
0110
0000
0001
0000
1100
0001
0010
,
0000
0001
0100
1000
0100
0001
0010
1000
,
0010
0011
0000
1000
0010
0001
0000
1001
,
0000
0100
0001
0100
1000
0001
0010
2000
,
0000
3100
0000
0010
0100
1000
0001
0100
,
0010
0002
0000
1003
0000
0100
0000
0002
,
0000
0000
0003
0100
1000
0010
0100
0000
,
0010
1100
0000
1010
0000
0011
0000
0101
,
0000
0010
1000
0100
0010
0001
0100
0010
,
0000
0010
0100
1000
0001
0010
1000
0100
,
0020
0000
0030
0010
0100
1000
0001
0100
,
0010
1000
0000
0001
0100
0000
0001
0010
,
0000
0100
0000
0010
0001
1000
0100
0010
,
0001
2000
0000
3020
0000
2030
0000
3002
,
0000
0000
0203
0000
0000
0300
1001
0000
0000
0101
0000
1010
1100
0000
0010
0000
,
0110
1001
0000
0100
0000
1000
0100
0000
,
0010
0001
0000
1000
0001
0000
1000
0010
,
0100
0001
1000
0100
0000
0010
1000
0000
,
0010
0100
0000
0010
0001
0000
0100
1000
,
0100
0010
0100
0001
0000
0010
1000
0000
,
0010
0100
0000
0010
0001
0000
0100
1000
,
0100
0010
0100
0001
0000
0010
1000
0000
,
0010
0100
0010
0011
0000
0101
0000
1100
,
0000
1010
0000
0001
0000
1000
1100
0000
,
0001
0101
0000
1000
1010
0000
0001
0011
,
0000
0110
0000
1001
0000
0001
0101
0000
,
1000
1100
0000
0001
0011
0000
1000
1010
,
0000
0110
0000
1001
0000
0100
1000
0000
,
1000
0010
0000
0010
0100
0000
0100
0001
,
0010
0100
1000
0001
0000
0001
0010
0100
,
0010
0000
0100
1100
1010
0101
0022
0033
;

//---------------dance-single - ----------------
#NOTES:
     dance-single:
     :
     Challenge:
     14:
     0.722506,1.827912,0.732881,0.581023,0.349934,766.000000,655.000000,111.000000,88.000000,0.000000,3.000000,0.722506,1.827912,0.732881,0.581023,0.349934,766.000000,655.000000,111.000000,88.000000,0.000000,3.000000:
// measure 0
0000
0000
0000
0000
,  // measure 1
0000
2000
0000
0000
3002
0000
0103
0020
,  // measure 2
0000
0000
0230
0000
0000
0301
1000
0001
,  // measure 3
0000
0202
0000
0303
2020
0000
3030
2200
,  // measure 4
0000
3300
0022
0000
0033
0001
0010
0100
,  // measure 5
0000
1000
0000
1001
1000
0000
0010
0000
,  // measure 6
0100
0010
0000
2000
0000
3002
0000
0023
,  // measure 7
0000
0030
2200
0000
0000
0000
3300
0000
2020
0000
0000
0000
3030
0000
0202
0000
,  // measure 8
0000
0303
0022
0000
0033
0001
0010
0100
,  // measure 9
0000
1000
0000
1001
0001
0000
0001
0100
,  // measure 10
1000
0000
2200
0000
0000
3300
2020
0000
0000
3030
0202
0000
0000
0303
0022
0000
,  // measure 11
0000
0033
0100
0000
0000
0000
0010
0000
0110
0000
0000
0000
0001
0000
0011
0000
,  // measure 12
0000
1000
1010
0000
0100
0010
0001
1000
,  // measure 13
0000
0001
0000
1001
1000
0000
1000
0001
,  // measure 14
0010
0000
2200
0000
0000
3300
0022
0000
0000
0033
0202
0000
0000
0303
2020
0000
,  // measure 15
0000
3030
1000
0000
0000
0000
0100
0000
0110
0000
0000
0000
0100
0000
0101
0000
,  // measure 16
0000
0100
1100
1000
0001
0100
0001
0010
,  // measure 17
0000
0100
0000
1001
0001
0000
1000
0010
,  // measure 18
0001
0000
0202
0000
0000
0303
0022
0000
0000
0033
2020
0000
0000
3030
2200
0000
,  // measure 19
0000
3300
2000
0000
3001
0010
1000
0010
0001
0010
0200
0000
0302
0000
1003
0001
,  // measure 20
1001
0000
1000
0000
0010
0100
0010
1000
,  // measure 21
0010
0100
0010
1000
0001
0100
0001
0010
,  // measure 22
0011
0000
0010
0000
0100
0010
0001
0010
,  // measure 23
0100
0000
0010
0000
0001
0000
0010
0000
0100
0000
1000
0000
0001
0000
0100
0001
,  // measure 24
0100
0001
1000
0100
1001
0000
0000
0000
1000
0000
1100
0000
0000
0000
0001
0000
,  // measure 25
0011
0000
0100
0110
0000
0001
1001
0000
,  // measure 26
1001
0000
1000
0001
0100
0020
0000
0030
,  // measure 27
1000
0000
0001
0000
0100
0000
0020
0000
0000
1030
0001
0000
1001
0000
0000
0000
,  // measure 28
0100
0001
0010
0001
0000
0000
0100
1000
,  // measure 29
0010
0000
1000
0000
0000
0000
0000
0000
1000
0010
1000
0010
0100
0001
0010
0001
,  // measure 30
1000
0001
0100
0001
0010
0100
1000
0010
,  // measure 31
1000
0000
0100
0010
0100
0010
0001
1000
0001
1000
0010
0100
0001
0010
0100
0010
,  // measure 32
1001
0000
1000
1010
0000
0001
0101
0000
,  // measure 33
1000
1100
0000
0001
1001
0000
0100
0000
,  // measure 34
0010
1000
0010
1000
0010
1000
0010
1000
0001
0100
0001
0100
0001
0100
0001
0100
0010
1000
0010
0100
0010
1000
0010
0100
0001
0010
0001
1000
0001
0010
0001
1000
,  // measure 35
0100
0000
0000
0000
0000
0000
0001
0000
0000
0000
0000
0000
0100
0000
0000
0000
0000
0000
0010
0000
0000
0000
0000
0000
0100
0000
0000
0000
0000
0000
0001
0000
0000
0000
0000
0000
0100
0000
0000
0000
0000
0000
0010
0000
0000
0000
0000
0000
0100
0000
0000
0000
0000
0000
1000
0000
0000
0000
0000
0000
0010
0000
0000
0000
0000
0000
0100
0000
0000
0000
0000
0000
0001
0000
0000
0000
0000
0000
1000
0000
0000
0000
0000
0000
0100
0000
0000
0000
0000
0000
0010
0000
0000
0000
0000
0000
0001
0000
0000
0000
0000
0000
0000
0000
1000
0000
0000
0000
0000
0000
0000
0000
0001
0000
0000
0000
0000
0000
0000
0000
1000
0000
0000
0000
0000
0000
0000
0000
0000
0000
0000
0000
0100
0000
0000
0000
0000
0000
0000
0000
0000
0000
0000
0000
0010
0000
0000
0000
0000
0000
0000
0000
0000
0000
0000
0000
0000
0000
0000
0000
0000
0000
0000
0000
0000
0000
0000
0000
0001
0000
0000
0000
0000
0000
0000
0000
0000
0000
0000
0000
0000
0000
0000
0000
0000
0000
0000
0000
0000
0000
0000
0000
,  // measure 36
1000
0010
0101
0000
1000
0100
0010
0000
,  // measure 37
0011
0000
1000
0001
0100
0010
1000
0001
,  // measure 38
0100
0010
1010
0000
0001
0010
0100
0000
,  // measure 39
1100
0000
0100
0010
0001
1000
0100
0020
,  // measure 40
0000
0030
0001
0000
0110
0000
0001
0010
,  // measure 41
1000
0010
0001
0000
1001
0000
0100
0000
,  // measure 42
2001
0000
0001
3000
1000
0000
0010
1000
,  // measure 43
0000
0100
0101
0000
1100
0000
1010
0000
,  // measure 44
0011
0000
1000
0000
0001
0100
0001
0010
,  // measure 45
0001
0000
1000
0100
1000
0010
1000
0001
,  // measure 46
0100
0020
1000
0030
1000
0001
0001
0010
,  // measure 47
0100
1000
0010
0000
0001
0010
0000
1001
,  // measure 48
1000
0000
0001
0000
0100
0000
1000
0100
,  // measure 49
0001
0001
0010
0000
0002
0000
0203
0000
,  // measure 50
0320
0000
1000
0030
1001
0000
0100
0001
,  // measure 51
0100
1000
1100
1010
0011
0102
0103
0000
,  // measure 52
0001
1000
0000
0001
0010
0100
1000
0002
,  // measure 53
1003
0000
0000
0000
1000
0000
0001
0000
0100
0000
0000
0000
0010
0000
0000
0010
,  // measure 54
1000
0000
0000
1000
0001
0000
0010
0000
0100
0000
0000
0100
1000
0000
0001
0000
,  // measure 55
0010
0000
0000
0010
0100
0000
1000
0000
0001
0000
0000
0000
1001
0000
0000
0000
,  // measure 56
1000
0001
0000
1000
0010
0100
0001
1000
,  // measure 57
1000
0000
0000
0000
0010
0000
1000
0000
0100
0000
0000
0000
1000
0000
0000
1000
,  // measure 58
0100
0000
0000
0100
0010
0000
0001
0000
0100
0000
0000
0100
0001
0000
0010
0100
,  // measure 59
0010
0100
1000
0001
1000
0001
0100
0010
1000
0100
0010
0001
1000
0000
1000
0100
,  // measure 60
0001
0000
0000
1000
0010
0000
0000
0001
0100
0000
0000
0010
1000
0000
1000
0100
,  // measure 61
0010
0000
0000
0001
1000
0000
0000
0000
0010
0000
0000
0100
0020
0000
0001
0000
,  // measure 62
0000
0000
0000
0000
0000
0030
2000
0000
3002
0000
0023
0000
0230
0000
1000
0000
,  // measure 63
0020
0032
2003
3020
,  // measure 64
0000
0000
0000
0000
0000
0000
0000
0000
0000
0000
0000
0000
0330
0000
0000
1000
0000
0000
0001
0000
0000
1000
0000
0000
0001
0000
0000
0100
0000
0000
0210
0000
,  // measure 65
0000
0000
0000
0000
0000
0000
0000
0320
0000
0000
0000
0000
0000
0000
0000
0000
0230
0000
0000
0000
0000
0000
0300
0000
0000
0010
0000
0000
1000
0000
0000
0001
,  // measure 66
0000
0000
0010
0000
0000
0100
0000
0000
1000
0000
0000
0100
0000
0000
0020
0000
0000
0000
0000
0000
0000
0000
0000
0032
0000
0000
0000
0000
0000
0000
0000
0000
,  // measure 67
2003
0000
0000
0000
3010
0100
0001
1000
0010
0100
0001
1000
0010
0100
0001
1000
,  // measure 68
0010
0100
0001
0000
0000
0000
1000
0000
0001
0000
0011
0000
0010
0000
0100
0000
,  // measure 69
0000
1000
0010
0001
0010
1000
0100
0001
,  // measure 70
0100
1100
0000
0001
0100
1000
0000
1001
,  // measure 71
0000
0010
1000
0010
0001
1000
0100
0002
,  // measure 72
0000
0013
0000
0100
0010
0001
1000
0010
,  // measure 73
0100
2000
0000
3002
0000
0023
0000
2030
,  // measure 74
0000
0100
3000
0010
0001
0100
0010
1000
,  // measure 75
0100
0011
0000
0101
0000
1100
0000
1010
,  // measure 76
0000
0100
0001
0010
0100
1000
0010
0100
,  // measure 77
0001
0100
0010
0001
1000
0100
0001
0010
,  // measure 78
0200
1000
0300
0100
0100
0010
0010
0001
,  // measure 79
0100
0001
0000
1000
0010
0000
1000
1100
,  // measure 80
0000
0010
0000
0100
1000
0001
0010
0100
,  // measure 81
1000
0002
0000
0203
0000
0302
0000
2003
,  // measure 82
0000
0000
3020
0000
0000
0030
1001
0000
0000
1010
0000
0101
0011
0000
0100
0000
,  // measure 83
0110
1001
0000
0010
0000
0001
0011
0000
,  // measure 84
0100
1100
0000
0001
1001
0000
0001
0100
,  // measure 85
0010
1000
0001
0110
0000
0100
0101
0000
,  // measure 86
0100
0110
0000
0100
1100
0000
0010
0001
,  // measure 87
0010
0100
0010
1001
0000
0100
0101
0000
,  // measure 88
0100
0110
0000
0100
1100
0000
0010
0001
,  // measure 89
0010
0100
0010
1001
0000
0100
0101
0000
,  // measure 90
0010
0110
0100
1100
0000
1010
0000
0011
,  // measure 91
0000
0101
0000
1000
0000
0001
0011
0000
,  // measure 92
1000
1010
0000
0001
0101
0000
1000
1100
,  // measure 93
0000
0110
0000
1001
0000
1000
1010
0000
,  // measure 94
0001
0011
0000
1000
1100
0000
0001
0101
,  // measure 95
0000
0110
0000
1001
0000
0010
0001
0000
,  // measure 96
0001
0100
0000
0100
0010
0000
0010
1000
,  // measure 97
0100
0000
0010
0000
0001
0000
1000
0000
0000
0000
1000
0000
0100
0010
0001
1000
,  // measure 98
0010
0100
0001
0010
0100
1000
0011
0000
0101
0000
1010
0000
2200
0000
3300
0000
;

//---------------dance-single - ----------------
#NOTES:
     dance-single:
     :
     Medium:
     10:
     0.476326,0.652826,0.600831,0.191473,0.105641,505.000000,414.000000,91.000000,29.000000,0.000000,3.000000,0.476326,0.652826,0.600831,0.191473,0.105641,505.000000,414.000000,91.000000,29.000000,0.000000,3.000000:
0000
0000
0000
0000
,
0000
0000
0000
0000
,
0000
0000
0000
0000
,
0000
0001
0000
0000
1000
0000
0000
0010
,
0000
0000
0100
0000
0000
0001
0000
0010
,
0000
0100
0000
0000
1000
0000
0000
0100
,
0000
0000
0010
0000
0000
0001
0000
1000
,
0000
0010
0000
0000
0100
0000
0000
0001
,
0000
0000
1000
0000
0000
0100
0000
0010
,
0000
0001
0000
0000
1001
0000
0000
0110
,
0000
0000
1010
0000
0000
0101
0000
0011
,
0000
1100
0000
0000
1010
0000
0000
1100
,
0000
0000
0011
0000
0000
0101
0000
1010
,
0000
1100
0000
0000
1100
0000
0000
0011
,
0000
0000
0101
0000
0000
0101
0000
1010
,
0000
1100
0000
0000
0011
0000
0000
0101
,
0000
0000
1010
0000
0000
1100
0000
0110
,
0000
0011
0000
0000
0101
0000
0000
1010
,
0000
0000
1100
0000
0000
1100
0000
0110
,
0000
0000
0011
0000
0001
0010
0001
0010
0001
0010
0200
0000
1300
0000
0001
1000
,
0001
1000
0010
1000
,
0100
0000
0010
0000
0001
1000
0000
0001
,
1000
0010
0100
0001
,
1000
0000
0100
0000
0010
0000
0001
0010
,
0001
0000
1000
0000
0001
1000
0000
0001
,
1000
0000
0001
1000
0000
0001
1000
0000
,
1000
0010
0100
0001
,
1000
0000
0000
0000
0100
0000
0020
0000
0000
0031
1000
0000
1001
0000
0000
0000
,
0001
0000
1000
0001
0000
0000
1000
0000
,
0001
1000
0000
0000
2000
0000
0000
0000
,
0000
3000
0010
0000
0100
0000
0001
0000
,
1000
0100
0010
0001
,
1001
0000
0000
1001
0000
0000
1001
0000
,
0000
1001
0000
0000
1001
0000
0100
0000
,
1001
0000
0000
0001
2000
0000
0000
3001
0020
0000
0000
0031
2000
0000
0000
3001
,
0020
0000
0000
0000
0000
0000
0000
0000
0000
0000
0000
0130
1000
0000
0100
0000
,
1000
0100
1000
0000
0001
1000
0001
0000
,
1001
0000
0010
0000
1000
0010
1000
0010
,
1000
0000
0001
0000
0100
0000
0001
0100
,
0001
0000
0100
0000
0001
0010
0001
0010
,
0001
0000
1000
0000
0100
0000
0010
0100
,
0010
0100
0010
0000
0001
0000
1000
0000
,
0010
0000
0100
0000
0001
0000
1000
0001
,
1000
0001
1000
0000
0100
0000
0010
0000
,
0001
0000
1000
0000
0010
0100
0010
0000
,
1000
0000
0001
0000
1000
0100
1000
0100
,
1000
0100
1000
0000
0001
0000
0010
0001
,
0010
0001
0010
0000
0001
1000
0000
0001
,
1000
0000
0010
0000
0100
0000
0001
0100
,
0001
0100
0001
0000
0100
0000
0010
0000
,
0010
0000
0100
0000
0001
0000
1000
0001
,
0000
1000
1001
1001
0110
0110
1000
0000
,
0001
1000
0000
0001
1000
0000
0001
0010
,
0000
0100
1000
0001
,
0001
1000
1000
0010
,
0100
0001
1000
0100
,
0010
0100
0000
0010
0100
0000
0010
0010
,
0000
0001
1000
0001
,
0001
0000
1000
0000
1000
0000
0010
0100
,
0010
0000
0000
0000
0100
0000
0000
0000
0001
0000
0000
0000
1001
0000
0000
0100
,
0010
0000
0000
0010
1000
0000
0000
1000
0001
0000
0000
0001
1000
0000
0000
1000
,
0010
0000
0000
0010
0100
0000
0000
0000
0010
0000
0000
0100
0020
0000
0001
0000
,
0000
0000
0000
0000
0000
0030
2000
0000
3002
0000
0023
0000
0230
0000
1000
0000
,
0020
0032
2003
3020
,
0000
0000
0000
0000
0000
0000
0000
0000
0000
0000
0000
0000
0330
0000
0000
1000
0000
0000
0001
0000
0000
1000
0000
0000
0001
0000
0000
1000
0000
0000
0002
0000
,
0000
0000
0000
0000
0000
0000
0003
0020
0000
0000
0000
0000
0000
0000
0000
0000
0230
0000
0000
0000
0000
0000
0300
0000
0000
0010
0000
0000
0001
0000
0000
0010
,
0000
0000
0001
0000
0000
1000
0000
0000
0100
0000
0000
1000
0000
0000
0200
0000
0000
0000
0000
0000
0000
0000
0300
0020
0000
0000
0000
0000
0000
0000
0030
0000
,
0002
0000
0000
0000
0003
1000
0000
0001
,
0000
1000
0000
1000
0000
0010
0000
0100
,
0000
0001
0000
1000
0000
0100
0000
0010
,
0000
0001
0000
0001
0000
1000
0000
0010
,
0000
0010
0000
0100
0000
0001
1000
0001
,
0000
1000
0000
0100
0000
0010
0100
0000
,
0010
0100
0000
1000
0000
0001
0000
0200
,
0000
0000
0300
0010
0000
1000
0001
0000
,
1000
0001
0000
0010
0000
0100
0000
1000
,
0000
0001
0000
0010
0001
0000
0010
0001
,
0000
1000
0000
0010
0000
0100
0000
0002
,
0000
0003
0000
1000
0000
0100
1000
0100
,
0000
1000
0000
0001
0100
0000
0001
0100
,
0000
0010
0000
1000
0000
0001
1000
0001
,
1000
0001
0000
0001
0000
1000
0000
2000
,
0000
0000
0000
0000
3000
0000
1001
0000
0000
0010
0000
0001
1000
0000
0100
0000
,
0110
1001
0000
1100
0000
0000
1010
0000
,
0000
0011
0000
0000
0101
0000
0000
0101
,
0000
0011
0000
1100
0000
0000
1010
0000
,
0000
1100
0000
0000
0011
0000
0000
0101
,
0000
0110
0000
0101
0000
0000
1001
0000
,
0000
1100
0000
0000
0110
0000
0000
1100
,
0000
0110
0000
1100
0000
0000
1001
0000
,
0000
0110
0000
0000
0101
0000
0000
1010
,
0000
1100
0000
0011
0000
0000
0101
0000
,
0000
1010
0000
0000
1100
0000
0000
0110
,
0000
1100
0000
0110
0000
0000
0101
0000
,
0000
1010
0000
0000
1100
0000
0000
0110
,
0000
0101
0000
0110
0000
0000
1100
0000
,
0000
0011
0000
0000
0101
0000
0000
0011
,
0000
1010
0000
1100
0000
0000
0011
0000
,
0000
0101
0000
0002
0023
0230
2000
3300
;

//---------------dance-single - ----------------
#NOTES:
     dance-single:
     :
     Easy:
     7:
     0.313149,0.456978,0.112243,0.303717,0.006603,332.000000,315.000000,17.000000,46.000000,0.000000,3.000000,0.313149,0.456978,0.112243,0.303717,0.006603,332.000000,315.000000,17.000000,46.000000,0.000000,3.000000:
0000
0000
0000
0000
,
0000
0000
0000
0000
,
0000
0000
0000
0000
,
0000
0001
0000
0000
1000
0000
0000
0001
,
0000
0000
1000
0000
0000
0001
0000
1000
,
0000
0001
0000
0000
0100
0000
0000
0010
,
0000
0000
0100
0000
0000
0010
0000
0100
,
0000
0010
0000
0000
0100
0000
0000
0001
,
0000
0000
0100
0000
0000
0001
0000
0100
,
0000
0001
0000
0000
1000
0000
0000
0100
,
0000
0000
1000
0000
0000
0100
0000
1000
,
0000
0100
0000
0000
1000
0000
0000
0010
,
0000
0000
1000
0000
0000
0010
0000
1000
,
0000
0010
0000
0000
0001
0000
0000
0010
,
0000
0000
0001
0000
0000
0010
0000
0001
,
0000
0010
0000
0000
0001
0000
0000
1000
,
0000
0000
0010
0000
0000
0100
0000
0001
,
0000
1000
0000
0000
0100
0000
0000
0010
,
0000
0000
0001
0000
0000
1000
0000
0100
,
0000
0020
0000
0000
0030
0020
0031
0001
,
1000
0010
1000
0100
,
1000
0001
1000
0010
,
1000
0000
0001
0100
,
0001
0010
0001
0100
,
0001
0000
1001
0000
0000
1001
0000
0000
,
1001
0000
0000
1001
0000
0000
1001
0000
,
1001
0002
0000
0003
,
2000
0000
0000
0000
3000
0001
1000
0000
,
0001
0001
1000
1000
,
0010
0100
0020
0000
,
0000
0030
1000
0000
0100
0000
1000
0000
,
0001
0010
0001
1000
,
1001
0000
0000
1001
0000
0000
1001
0000
,
0000
1001
0000
0000
2002
0000
3003
0000
,
2001
0000
0000
0000
3002
0000
0000
0003
2000
0000
0000
0000
3002
0000
0000
0003
,
0200
0000
0000
0000
0000
0000
0000
0000
0000
0000
0000
0300
0000
0000
0000
0000
,
1000
0001
1000
0001
,
0010
0001
1000
0010
,
1000
0001
0100
0010
,
1000
0100
0010
0002
,
0000
0003
1000
0010
,
0100
0010
0010
0100
,
0020
0000
0000
0030
1000
0000
0100
0000
,
1000
0001
0001
1000
,
1000
0001
0100
0010
,
1000
0100
0010
0001
,
2000
0000
0000
3000
0010
0000
0100
0000
,
0010
0000
0200
0000
0300
0002
0000
2003
,
0000
3000
0100
0010
,
0001
0100
0100
0010
,
0010
0000
0000
0000
1000
0000
0000
0001
,
0000
0000
0002
0023
0230
2300
3001
0000
,
0000
1000
0000
0000
0010
0000
0100
0000
,
0000
0001
0001
1000
,
1000
0100
0100
0010
,
0010
0001
1000
0010
,
0000
0100
0000
0000
0001
0000
2000
0000
,
3000
0000
0000
0001
,
0001
1000
1000
0010
,
0100
0001
1000
2001
,
3020
0230
0302
2003
,
3200
0000
0320
0000
0032
0000
0203
1000
,
0000
0000
0000
0000
0000
0300
0002
0000
2003
0000
3200
0000
0320
0000
0001
0000
,
0200
2300
3002
0203
,
0000
0000
0000
0330
0000
0000
0000
0000
,
0000
0000
0000
0000
,
0000
0000
0000
0000
,
2000
0000
0000
0000
3000
0001
0000
1000
,
0000
0001
0000
0001
0000
0100
0000
0010
,
0000
1000
0000
0001
0000
0010
0000
0100
,
0000
1000
0000
1000
0000
0001
0000
0100
,
0000
0100
0000
0010
0000
1000
0001
1000
,
0000
0001
0000
1000
0000
0001
0000
0100
,
0000
0010
0000
0010
0000
0100
0000
0100
,
0000
0001
0000
1000
0000
0000
0001
0000
,
0000
1000
0000
0100
0000
0010
0000
0010
,
0000
0100
0000
1000
0000
0001
0000
0100
,
0000
0010
0000
1000
0000
0001
0000
2000
,
0000
3000
0000
0100
0000
0010
0000
0001
,
0000
0100
0000
0000
0010
0000
0010
0000
,
0000
0000
0000
1000
0000
0000
0001
0000
,
0000
1000
0000
0100
0000
0010
0000
0010
,
0000
0000
0000
0000
0000
0000
1001
0000
0000
0100
0000
1000
0001
0000
0010
0000
,
1001
1001
0000
0100
0000
0000
0010
0000
,
0000
0100
0000
0000
1000
0000
0000
0100
,
0000
1000
0000
1000
0000
0000
1000
0000
,
0000
1000
0000
0000
1000
0000
0000
1000
,
0000
0001
0000
0001
0000
0000
0001
0000
,
0000
0100
0000
0000
1000
0000
0000
1000
,
0000
0100
0000
0010
0000
0000
0010
0000
,
0000
0100
0000
0000
1000
0000
0000
0010
,
0000
0010
0000
0100
0000
0000
0001
0000
,
0000
0010
0000
0000
0100
0000
0000
0010
,
0000
0100
0000
0010
0000
0000
1000
0000
,
0000
1000
0000
0000
0100
0000
0000
0001
,
0000
0100
0000
1000
0000
0000
0100
0000
,
0000
1000
0000
0000
0100
0000
0000
0100
,
0000
1000
0000
1000
0000
0000
0001
0000
,
0000
1001
0000
2000
3200
0320
0002
0033
;
