#TITLE:Sueño Sin Fin;
#SUBTITLE:Inuyasha Opening 3 Latino;
#ARTIST:Maggie Vera;
#TITLETRANSLIT:;
#SUBTITLETRANSLIT:;
#ARTISTTRANSLIT:;
#GENRE:;
#CREDIT:;
#BANNER:SSFBN.jpg;
#BACKGROUND:SSFBG.jpg;
#LYRICSPATH:;
#CDTITLE:cdtitleitachi.png;
#MUSIC:Inuyasha Opening 3 'Owarinai Yume' Español Latino HD 1080.ogg;
#OFFSET:-0.116000;
#SAMPLESTART:47.954388;
#SAMPLELENGTH:23.921566;
#SELECTABLE:YES;
#BPMS:0.000000=153.000000
;
#STOPS:
;
#BGCHANGES:0.083=1.avi=1.000=0=0=1=====,
239.000=SSFBG.jpg=1.000=0=0=1=====,
99999=-nosongbg-=1.000=0=0=0 // don't automatically add -songbackground-
;
#KEYSOUNDS:;
#ATTACKS:;

//---------------dance-single - ----------------
#NOTES:
     dance-single:
     :
     Hard:
     12:
     0.542203,0.687272,0.580720,0.279990,0.057035,366.000000,310.000000,56.000000,27.000000,0.000000,0.000000,0.542203,0.687272,0.580720,0.279990,0.057035,366.000000,310.000000,56.000000,27.000000,0.000000,0.000000:
0000
0000
1000
0010
0101
0000
0010
0100
,
1001
0000
1000
0100
0110
0000
0001
1000
,
1010
0000
0000
0000
0001
0000
0100
0000
0001
0000
1000
0100
0010
0001
1000
0010
,
0100
0001
1000
0010
1000
0000
0100
0000
1000
0000
0010
0000
1000
0000
0001
0000
,
0000
1001
0000
0110
0000
0100
1000
0000
,
1100
0000
0010
0100
0001
1000
0000
0011
,
0000
1001
0000
1100
0000
0010
1000
0000
,
0101
0000
0100
0001
1000
0100
0000
0011
,
0000
1001
0000
1100
0000
0100
0001
0000
,
1001
0000
0100
0100
1000
0010
0100
0001
,
0000
1100
0000
0010
0000
0001
1000
0000
,
0110
0000
1000
0001
1000
0001
0100
0010
,
0000
1000
0000
0100
0000
1000
0010
0000
,
1001
0000
0010
0100
0001
1000
0100
0010
,
0000
0110
0000
0001
0000
1000
0010
0000
,
0110
0000
0001
1000
0100
1000
0010
0100
,
0000
0001
0000
1000
0000
0100
1000
0000
,
0010
0100
0001
0000
2100
0000
0010
3000
,
0102
0000
1000
0003
0201
0000
0010
0000
,
0301
0000
1000
0001
1000
0100
0000
1000
,
0010
0100
0000
0001
1000
0001
1000
0000
,
1001
2002
0000
3003
,
0000
0010
0000
0100
0001
0010
0100
0000
,
1100
0000
0220
0000
0000
0330
0000
0000
,
0000
0001
0000
1000
0010
1000
0001
0000
,
0100
2001
3010
0210
,
0001
0300
0120
0000
1000
0030
0210
0000
,
0001
0300
0001
1000
0010
1000
0000
0010
,
1000
0001
0100
0010
0100
0001
0000
1000
,
0100
0020
0000
0000
0001
0000
0000
0031
,
0000
0000
2000
0000
3000
0000
0000
0000
0001
0010
0100
1000
0001
0010
0100
1000
,
0001
0010
0100
1000
0001
0000
0000
0000
0010
0000
0100
0000
0000
0000
0001
0000
,
0000
2000
0000
3000
0100
0010
0000
0000
,
0001
2000
0000
0000
0010
0000
0001
0000
,
0100
0010
3001
0101
,
1010
0000
0101
0000
1000
0100
0000
1010
,
0000
0201
0000
0000
0000
0020
0000
0030
,
0300
0000
1001
0000
0100
1100
0000
1000
,
2200
0000
0000
0000
0000
0000
0000
3300
0000
0000
0000
0000
1001
0000
0000
0000
,
0110
0000
1001
0000
1000
0100
0000
0010
,
0000
1001
0000
0000
0010
0100
0000
0000
,
0001
2002
0000
0000
0000
0000
0000
0000
,
3003
0010
0100
0001
,
1000
0000
0100
0000
0010
0001
0000
1000
,
0020
0000
0030
0100
,
1010
0000
0101
0000
1000
0100
0000
0011
,
0000
0220
0000
0000
0330
0000
1001
0000
,
0010
0000
1010
0000
0010
0110
0000
1001
,
0000
1100
0000
0001
1000
0000
0010
0100
,
0001
1000
0100
0000
0010
1001
0000
0010
,
0000
0110
0000
0001
1000
0100
1100
0000
,
0010
0100
0002
0000
0003
1000
0020
0000
,
0030
1000
0010
0100
0001
1000
0010
1000
,
0001
0100
0010
1000
0001
0010
0100
1000
,
0010
1000
0001
1000
0100
0010
0001
1000
,
0010
0100
0001
1000
0100
1000
0010
1000
,
0001
0100
0010
1000
0001
1000
0100
0010
,
0100
1000
0010
0100
0010
1000
0100
0010
,
0001
1000
0010
0100
0001
0010
0100
0010
,
0001
0200
0000
0000
0000
0000
0000
0000
,
0000
0300
0000
0000
;

//---------------dance-single - ----------------
#NOTES:
     dance-single:
     :
     Challenge:
     14:
     0.702197,0.807175,0.487390,0.093330,0.285175,474.000000,427.000000,47.000000,9.000000,0.000000,0.000000,0.702197,0.807175,0.487390,0.093330,0.285175,474.000000,427.000000,47.000000,9.000000,0.000000,0.000000:
// measure 0
0000
0000
0010
1000
1010
0100
0001
0100
,  // measure 1
0101
0001
1000
0010
1010
0010
0100
0010
,  // measure 2
0110
0000
0010
0000
1000
0000
0010
1000
0010
0100
0001
0100
0001
1000
0010
0100
,  // measure 3
0001
1000
0100
0010
0001
0000
1000
0000
0010
0000
0100
0000
0001
0000
1000
0000
,  // measure 4
0000
1100
0000
0110
0000
0001
1000
0000
,  // measure 5
0100
0000
1000
0010
0100
0001
1000
0100
,  // measure 6
0000
1100
0000
0110
0000
0001
1001
0000
,  // measure 7
0011
0000
0001
1000
0010
0100
0001
0101
,  // measure 8
0000
0011
0000
0011
0000
1000
1001
0000
,  // measure 9
1100
0000
0010
0100
0001
1000
0100
1100
,  // measure 10
0000
0010
0000
0100
0000
0001
1000
0100
,  // measure 11
1000
0000
0010
0100
0010
0000
1000
0000
1000
0000
0001
0000
1000
0000
1000
0000
,  // measure 12
0010
0100
0001
1000
0100
1000
0010
0100
,  // measure 13
0001
0000
0001
1000
0010
0100
0001
1000
,  // measure 14
0100
1000
0010
0100
0001
1000
0100
1000
,  // measure 15
0001
0000
0001
0100
0010
1000
1000
0020
,  // measure 16
0000
0230
0000
0302
0000
1003
0100
0000
,  // measure 17
1000
0100
0010
0001
1000
0010
0100
0001
,  // measure 18
1000
0100
0010
0001
1000
0010
0100
0001
,  // measure 19
1000
0100
0010
0001
1000
0000
1000
0000
0010
0000
0100
0000
0000
0000
0001
0000
,  // measure 20
1000
1100
0000
0010
0100
0001
1001
0000
,  // measure 21
0110
0000
0010
0010
0100
1001
0000
1000
,  // measure 22
0100
1000
0000
0010
0100
0001
1000
0000
,  // measure 23
1100
0000
0010
0010
0100
1001
0000
0100
,  // measure 24
0100
1000
0000
1000
1000
0100
1001
0000
,  // measure 25
1010
1001
1001
0110
,  // measure 26
0110
0011
0011
1100
,  // measure 27
1100
0000
0001
0100
1000
0100
0000
0001
,  // measure 28
0100
1000
0100
0001
0100
1000
0000
1000
,  // measure 29
0100
0100
0001
0010
0100
1000
0010
0100
,  // measure 30
0001
0000
1001
0000
0000
0000
1000
0000
0010
1000
0001
1000
0010
0100
0001
1000
,  // measure 31
0010
0100
0001
1000
0001
0000
1000
0000
0001
1000
0001
0000
0100
0000
0010
0000
,  // measure 32
1000
0000
0100
0010
0001
0000
1000
0000
0010
0000
1000
0100
0010
0000
0001
0000
,  // measure 33
1000
0000
0001
0010
0200
0000
0000
0000
0010
0000
0000
0000
0001
0000
0000
0000
,  // measure 34
1000
0010
0301
0101
,  // measure 35
1001
0000
0000
0000
0100
0000
0001
0000
1000
0000
0010
0100
0010
0000
1000
0000
,  // measure 36
0001
0000
0010
0100
0010
0000
0001
0000
1000
0000
0010
0100
0010
0000
1000
0000
,  // measure 37
0001
1000
0100
0000
0010
0011
0000
0001
,  // measure 38
0011
0000
1000
0010
0100
0000
0001
0000
,  // measure 39
1000
0000
0001
1000
0001
0000
1000
0000
0001
0000
1000
0100
1000
0000
0001
0000
,  // measure 40
0100
0001
1000
0100
0010
0001
1000
0010
,  // measure 41
0100
0000
0001
0010
0001
0000
1000
0000
0100
1000
0100
0000
0010
0000
0001
0000
,  // measure 42
1000
0001
0010
0100
0010
0000
1000
0000
0001
0000
0100
0000
0010
0000
0000
0000
,  // measure 43
1001
0000
1010
0000
0001
0101
0000
1000
,  // measure 44
2200
0000
0000
3300
0000
0000
0010
0000
0100
0000
0000
0000
0001
0000
0000
0000
,  // measure 45
1000
0000
1100
0000
0010
0110
0000
0002
,  // measure 46
0000
0203
0000
0310
1000
0000
0001
0000
,  // measure 47
1000
0000
1100
0000
0001
0011
0000
1001
,  // measure 48
0000
0110
0000
0001
1000
0000
0100
1000
,  // measure 49
0010
0000
0100
0000
0001
0000
0100
0000
0001
1000
0001
0000
0010
0000
0100
0000
,  // measure 50
1000
0001
1000
0000
0100
0000
0010
0000
0001
1000
0001
0000
0100
0000
0010
0000
,  // measure 51
1000
0010
0100
0001
1000
0000
0000
0000
0000
0000
1000
0000
0001
0000
0000
0000
,  // measure 52
0000
0000
1000
0010
0000
0000
1000
0000
0000
0000
0001
0010
0000
0000
0001
0000
,  // measure 53
0000
0000
1000
0010
0000
0000
1000
0000
0000
0000
0001
0010
0000
0000
0001
0000
,  // measure 54
0000
0000
1000
0010
0000
0000
1000
0000
0000
0000
0001
0010
0000
0000
0001
0000
,  // measure 55
0000
0000
1000
0010
0000
0000
1000
0000
0000
0000
0001
0010
0000
0000
0001
1000
,  // measure 56
0001
1000
0001
0000
0010
0100
1000
0000
1000
0100
0010
0001
0010
0000
0100
0000
,  // measure 57
1000
0000
1000
0100
0010
0001
0010
0000
0100
1000
0001
0000
1000
0000
0010
0000
,  // measure 58
1000
0010
0100
0001
1000
0000
0010
0000
0100
0001
0010
0000
1000
0000
0010
1000
,  // measure 59
0010
1000
0020
0000
0000
0000
0000
0000
0000
0000
0000
0000
0000
0000
0030
0000
;

//---------------dance-single - ----------------
#NOTES:
     dance-single:
     :
     Medium:
     7:
     0.336284,0.404430,0.186660,0.269620,0.000000,227.000000,209.000000,18.000000,26.000000,0.000000,0.000000,0.336284,0.404430,0.186660,0.269620,0.000000,227.000000,209.000000,18.000000,26.000000,0.000000,0.000000:
0000
0000
0000
0000
,
0000
0000
0000
0000
,
0000
0000
0010
1000
0010
0100
0010
0100
,
0001
0100
0010
0000
0000
0000
0001
0010
,
0000
0001
0000
0010
0000
0001
0011
0000
,
0011
0000
0000
0000
0000
1000
0100
1000
,
0000
0100
0000
1000
0000
0100
1000
0000
,
1100
0000
0000
0000
0000
0000
0010
0100
,
0000
0110
0000
0110
0000
0010
0100
0000
,
0110
0000
0000
0000
0000
0001
0010
0001
,
0000
0011
0000
0011
0000
0010
0001
0000
,
0011
0000
0001
0000
1000
0000
0010
0100
,
0000
0001
0000
0001
0000
1000
0100
0000
,
1000
0000
0010
0100
0001
0000
1000
0100
,
0000
1000
0000
1000
0000
0010
1000
0000
,
0010
0000
0100
0001
0100
0010
1000
0100
,
0000
1000
0000
0010
0000
0100
0001
0000
,
1000
0100
2000
0000
0000
3000
0020
0000
,
0000
0030
0200
0000
0300
0000
0002
0000
,
0003
0000
1000
0001
1000
0001
0000
0000
,
0000
0100
0000
0010
0100
0010
0100
0000
,
0010
2020
0000
3030
,
0000
1000
0000
0001
1000
0010
0100
0000
,
0001
0000
1000
0100
1000
0100
0000
0000
,
0000
1000
0000
0010
0100
0010
0100
0000
,
0001
0000
2000
0000
0000
3000
0020
0000
,
0000
0030
0200
0000
0000
0300
0002
0000
,
0000
0003
2000
0000
0000
0000
0000
0000
,
0000
3000
0000
0000
0000
0000
0000
0001
,
0001
0002
0000
0000
0000
0003
0000
0000
,
0000
2002
0000
0003
3000
0000
1001
0000
,
0110
0000
0001
0000
1000
0100
0000
1000
,
0000
1000
0000
0000
0010
0100
0000
0000
,
0001
2002
0000
0000
0000
0000
0000
0000
,
3003
0100
1000
0010
,
0100
0000
0001
0000
1000
0100
0000
1000
,
0000
2000
0000
0000
3000
0020
0000
0000
,
0030
0000
0100
0000
0100
0100
0000
0010
,
0020
0000
0000
0030
0000
0000
1100
0000
,
0110
0000
0011
0000
0001
1000
0000
0010
,
0000
0100
0000
0000
0001
1000
0000
0000
,
0010
0200
0000
0000
0000
0000
0000
0300
,
0000
0001
1000
0010
,
0100
0000
0001
0000
1000
0100
0000
0010
,
0002
0000
0003
1000
,
0010
0000
0100
0000
0001
1000
0000
0100
,
0000
2000
0000
0000
3000
0000
0010
0000
,
0100
0000
0001
0000
1000
0100
0000
1000
,
0000
0020
0000
0000
0000
0000
0000
0030
,
0000
0000
1000
0000
0010
0100
0000
0001
,
0000
1000
0000
0100
1000
0100
2000
0000
,
0000
3000
1001
0000
0000
0010
0100
0000
,
0000
0020
0000
0000
0000
0000
0000
0000
,
0000
0000
0000
0000
,
0030
1000
0000
0010
0000
0100
0000
0001
,
0000
1000
0000
0010
0000
0100
0000
0001
,
0000
1000
0001
1000
0000
0010
0000
0100
,
0000
0010
0100
0001
0000
1000
0000
0100
,
0000
1000
0100
1000
0010
0100
0010
0100
,
0000
0020
0000
0000
0000
0000
0000
0000
,
0030
0000
0000
0000
;

//---------------dance-single - ----------------
#NOTES:
     dance-single:
     :
     Easy:
     3:
     0.161476,0.218224,0.031110,0.269620,0.000000,109.000000,106.000000,3.000000,26.000000,0.000000,0.000000,0.161476,0.218224,0.031110,0.269620,0.000000,109.000000,106.000000,3.000000,26.000000,0.000000,0.000000:
0000
0000
0000
0000
,
0000
0000
0000
0000
,
0000
0000
0000
0000
,
0000
1000
0000
1000
,
0000
2000
0000
0000
0000
0000
3000
0000
,
0000
0010
0000
0010
,
0000
0010
0000
0000
0000
0000
0010
0000
,
0010
0000
0000
0100
,
0000
0100
0000
0000
0000
0000
0100
0000
,
0100
0000
0000
0010
,
0000
0010
0000
0000
0000
0000
0010
0000
,
0010
0000
0000
1000
,
0000
1000
0000
0000
0000
0000
1000
0000
,
1000
0000
0000
0100
,
0000
0100
0000
0100
0000
0000
0100
0000
,
0000
0000
0000
0010
,
0000
0010
0000
0000
0010
0000
0010
0000
,
0010
0000
0002
0000
0000
0003
2000
0000
,
0000
3000
0020
0000
0030
0000
0200
0300
,
0000
0000
0001
0000
0000
0001
0000
0000
,
0000
1000
0000
0000
1000
0000
1000
0000
,
1000
0000
2000
0000
0000
3000
0000
0000
,
0000
0010
0000
0000
0000
0000
0100
0000
,
0010
0200
0300
0000
,
0000
0010
0000
0000
0010
0000
0010
0000
,
0000
0000
2000
0000
0000
3000
2000
0000
,
0000
3000
0002
0000
0003
0000
0002
0000
,
0003
2000
0000
0000
,
0000
0000
0000
0000
3000
0000
0000
0010
,
0010
0020
0000
0000
0000
0000
0000
0000
,
0000
0030
0000
0000
0000
0000
1000
0000
,
1000
0000
0010
0000
0000
0010
0000
0100
,
0000
0100
0000
0000
0000
0010
0000
0000
,
0010
0020
0000
0000
0000
0000
0000
0000
,
0000
0030
0000
0000
0000
0000
1000
0000
,
0100
0000
1000
0000
0000
1000
0000
1000
,
0000
2000
0000
3000
0000
2000
0000
3000
,
0000
0000
0010
0000
0000
0010
0000
0000
,
0020
0000
0000
0030
0000
0000
1000
0000
,
0100
0000
1000
0000
0000
1000
0000
0010
,
0000
0010
0000
0000
0000
0100
0000
0000
,
0000
0200
0000
0000
0000
0000
0000
0000
,
0300
0001
0000
1000
,
0000
0000
0001
0000
0000
0100
0000
0000
,
0200
0000
0300
0010
,
0010
0000
0010
0000
0000
0010
0000
0010
,
0000
0020
0000
0000
0030
0000
1000
0000
,
1000
0000
1000
0000
0000
1000
0000
1000
,
0000
2000
0000
0000
0000
0000
3000
0000
,
0000
0001
0000
0100
,
0000
0010
0000
2000
,
0000
3000
0000
0000
0000
0000
1001
0000
,
0000
2002
0000
0000
0000
0000
0000
0000
,
0000
0000
0000
0000
,
0000
0000
0000
0000
,
0000
0000
0000
0000
,
0000
0000
0000
0000
,
0000
0000
0000
0000
,
0000
0000
0000
3003
,
0000
2002
0000
0000
0000
0000
0003
0000
,
0000
3000
0000
0000
0000
0000
0000
0000
;
