#TITLE:Strength;
#SUBTITLE:Soul Eater Ending 4;
#ARTIST:Abringdon Boys School;
#TITLETRANSLIT:;
#SUBTITLETRANSLIT:;
#ARTISTTRANSLIT:;
#GENRE:;
#CREDIT:;
#BANNER:STBN.jpg;
#BACKGROUND:STBG.jpg;
#LYRICSPATH:;
#CDTITLE:cdtitleitachi.png;
#MUSIC:Soul Eater – Ending Theme 4 – Strength.mp3;
#OFFSET:-0.178000;
#SAMPLESTART:59.500000;
#SAMPLELENGTH:13.894741;
#SELECTABLE:YES;
#BPMS:0.000000=190.000000
,1.000000=95.000000
,7.000000=190.000000
,177.000000=95.000000
,178.000000=190.000000
;
#STOPS:
;
#BGCHANGES:0.000=1.avi=1.000=0=0=1=====,
273.500=STBG.jpg=1.000=0=0=1=====,
99999=-nosongbg-=1.000=0=0=0 // don't automatically add -songbackground-
;
#KEYSOUNDS:;
#ATTACKS:;

//---------------dance-single - ----------------
#NOTES:
     dance-single:
     :
     Challenge:
     14:
     0.789239,1.112834,0.917052,0.816400,0.139794,494.000000,412.000000,82.000000,73.000000,0.000000,0.000000,0.789239,1.112834,0.917052,0.816400,0.139794,494.000000,412.000000,82.000000,73.000000,0.000000,0.000000:
0000
0000
0000
0000
1100
0110
0000
0011
0022
0000
0000
0000
0000
0000
0033
0000
,
0000
0000
0000
0000
0011
0110
0000
1100
2200
0000
3300
0000
0001
0010
0100
1000
,
0001
1010
0100
1001
0010
0110
2000
3000
,
0000
0000
2002
3003
0000
0000
0000
0000
2020
0000
3030
0000
0022
0000
0033
0000
,
0002
0000
0000
0000
0000
0000
0000
0000
1003
0000
0000
0000
0000
0000
0000
0000
0010
0100
0000
0000
1000
0000
0000
0000
0001
0000
0000
0000
0000
0000
0000
0000
,
0000
2002
0000
3003
0220
0000
0000
0330
,
1010
0000
0000
0000
1000
0001
0010
0100
2000
0001
3010
0100
2000
0000
3010
0000
,
1001
0000
0100
0010
1000
0000
0100
0000
0010
0000
0010
0100
1000
0000
0010
0000
,
0100
0000
0001
1000
0100
0000
1000
0000
0010
0000
0100
0001
1000
0000
0010
0000
,
1000
0000
0010
0100
0001
0000
1000
0000
0010
0000
0001
0000
0010
0000
1000
0000
,
0010
0100
0001
0001
0001
0001
0002
0000
,
2003
3020
0030
2000
3020
2030
3020
0030
,
0200
0302
0003
0200
0302
0003
1000
1000
,
0100
1000
0010
1000
0000
0010
0100
0000
,
0001
0100
0000
0002
0000
0000
1003
0100
,
0010
0000
0010
0100
1000
0010
0100
0000
,
0010
0110
0000
2000
0000
3002
1000
1003
,
0100
0010
0010
0001
0100
0100
0010
1000
,
1000
0100
0010
0010
0001
0100
0100
0010
,
1000
1000
0001
0010
0010
0100
1000
1000
,
0001
0100
0100
0010
1000
1000
0100
0000
,
1000
0001
0100
0001
1000
0100
1000
0000
,
0010
0100
0000
0002
0000
0003
1000
0100
,
1000
0010
0100
0100
0001
1000
0100
0000
,
0010
0001
0000
1001
0000
0010
0100
0001
,
1000
1000
0100
0010
0010
0001
1000
1000
,
0001
0100
0100
0001
0010
0100
1000
0000
,
1000
0200
0000
1000
0000
0310
0000
0001
,
0010
0100
0010
0010
0001
0001
0002
0003
,
1000
0001
0000
0100
0000
0020
0000
0000
,
1030
0100
0000
1000
0010
2000
0000
3000
,
0001
0100
0000
1001
0000
2020
0000
3030
,
0000
0110
0000
0001
1000
0001
1000
0000
,
0100
1000
0000
0010
0100
0001
1000
0000
,
0100
1000
0000
0010
0100
0001
1000
0000
,
0100
1000
0000
0100
1000
0010
1000
0000
,
0001
0100
0000
0010
0100
0000
0001
0000
,
0001
1000
0000
1001
0000
2100
0000
0000
,
3100
1000
0000
0010
0100
0001
0001
0000
,
1000
0100
0000
0011
0000
1002
0000
0000
,
0000
1003
0000
0010
0100
0001
1000
0000
,
0100
1000
0000
0001
0010
0100
2000
0000
,
0001
3000
0001
0100
1000
0001
0010
0000
,
1000
0100
0000
0010
0001
0010
1100
1100
,
0110
0022
0000
0033
2001
0000
3020
0030
,
0201
0000
0302
0003
2020
3000
1030
0120
,
0030
0201
0300
0020
2030
3000
0000
2002
,
0000
3003
0202
0303
0002
0023
0030
1100
,
0000
0110
0000
1001
1100
1001
0000
1001
,
0011
1001
0000
1001
0110
1001
0000
0110
,
1001
0110
0000
0101
0010
1000
0010
0101
,
0001
1010
0010
0101
1000
0101
0010
1001
,
0100
0011
0001
1100
1010
0000
1010
0000
,
0101
0000
0101
0000
1100
0000
0100
1000
,
0000
1000
0000
0010
0200
0000
0000
0302
,
0000
0003
0001
0000
1000
1100
0000
1001
,
0000
1010
0000
0210
0000
0000
0001
0300
,
0001
1000
0100
0010
0001
0000
1000
0001
,
0000
1000
0001
0100
0020
0000
1030
0000
,
1000
0010
0100
0001
1000
0000
0001
0000
,
0100
0001
0010
0100
1000
0000
0001
0100
,
0000
0001
1000
0000
0101
0001
0100
0010
,
1000
0000
0100
0000
0010
0000
0010
0000
0001
0010
0001
0100
0010
0100
0001
0010
,
0001
0010
0100
1000
0100
1000
0010
0100
0011
0000
0110
0000
1100
0000
1001
0000
,
0000
0000
1000
0001
2001
0000
3000
0210
,
0000
0000
0001
0300
0210
0000
0000
0000
,
1300
0000
0000
0000
0000
0000
0000
0000
1000
0100
0000
0000
0010
0000
0000
0000
0102
0000
0000
0000
0000
0000
0000
0000
0003
0000
0000
0000
2010
0000
0000
0000
,
0000
3000
1002
0000
0003
0010
0210
0300
,
0010
0120
0000
0230
0000
0300
0000
0000
;

//---------------dance-single - ----------------
#NOTES:
     dance-single:
     :
     Hard:
     10:
     0.508053,0.799974,0.458526,0.917052,0.011184,318.000000,277.000000,41.000000,82.000000,0.000000,0.000000,0.508053,0.799974,0.458526,0.917052,0.011184,318.000000,277.000000,41.000000,82.000000,0.000000,0.000000:
0000
0000
0000
0000
1001
1001
0000
0000
2002
0000
0000
0000
0003
0000
3000
0000
,
0000
0000
0000
0000
0110
0110
0000
0000
0220
0000
0000
0000
0000
0000
0000
0000
,
0000
0000
0000
0330
0000
0000
2000
0000
,
0000
0020
3000
0000
0200
0030
0002
0300
,
0000
0000
0000
0003
2000
3200
0320
0030
,
0000
2002
3003
0000
0020
0000
0000
0000
,
0200
0030
0000
0302
0000
0003
1000
0100
,
0000
0100
1000
0010
0000
0010
1000
0100
,
0000
0100
1000
0001
0000
0001
1000
0100
,
0000
0100
0010
0001
0000
0001
0010
0100
,
0000
0100
1000
0100
0010
0100
1000
0000
,
0000
1000
0000
0010
0100
0000
0001
0000
,
0000
1000
0000
0000
0001
0000
1000
0001
,
0000
0000
0010
0100
0000
0001
1000
0000
,
0100
2000
0000
0010
0000
3000
0000
0000
,
0000
0000
0010
0100
0000
0001
1000
0000
,
0100
0010
0000
0001
0000
2000
0000
0000
,
0000
0000
0000
0000
0000
0000
0000
3000
,
0000
0000
0000
0010
0000
0100
0010
0000
,
1000
0001
0000
1000
0100
0000
0000
0000
,
0010
0000
0000
0001
0010
0000
1001
0000
,
0100
0000
1000
0100
1000
0010
0100
0000
,
0001
1000
0000
0200
0000
0000
0300
0000
,
0000
0000
0001
0010
0001
0100
0010
0000
,
1000
0100
0000
1001
0000
2002
0000
0000
,
0000
0000
0000
3003
,
0000
0000
0000
1000
0100
0001
0100
0000
,
1000
0010
0000
0100
0000
2000
0000
0000
,
3010
0100
0001
0001
1000
1000
1000
0000
,
0100
1000
0000
0010
0000
0100
0000
0000
,
0001
1000
0000
0100
1000
0010
0000
0000
,
0000
0100
0000
0001
0000
1000
0000
0000
,
0000
0100
0000
1000
0010
0000
0200
0000
,
0000
0300
0000
0000
0000
0000
0002
0000
,
0000
2003
0000
0000
3020
0000
0130
0000
,
0001
0020
0000
0000
0000
0000
0000
0030
,
0000
0001
1000
0010
,
0100
0001
0000
1000
0000
1100
0000
0000
,
0010
0100
0000
0000
0001
1000
0100
0000
,
0000
1100
0000
0110
0000
0011
0000
0000
,
0000
0001
0000
0100
0001
0000
2200
0000
,
0000
3300
0000
0000
0000
0000
0110
0000
,
0000
1001
0000
0100
,
1000
0010
0000
0100
0001
1000
0110
1100
,
0110
1100
0000
0000
2002
0000
3003
0000
,
1001
0000
0000
0000
1001
0000
0010
1000
,
0000
0010
0000
0200
0000
0300
0000
1001
,
0000
0000
1100
0000
0010
0100
0000
1001
,
0000
0110
0000
0000
0001
2000
3000
0010
,
0100
0002
0003
1000
0100
2000
3000
0010
,
0100
0002
0003
0000
1000
0200
1300
0020
,
0130
0002
1003
0200
1300
0020
1030
0002
,
0103
0020
1030
0002
2003
0000
0000
3000
,
0002
0000
0000
0003
0100
0000
0010
0100
,
0000
1001
0000
1100
0000
0000
0000
0002
,
0000
0000
0203
0000
0302
0000
0000
2003
,
3000
0020
0030
0200
0301
2000
3000
0002
,
0103
0002
0003
0200
0310
0000
1000
0002
,
0003
2000
3000
0020
0130
0020
0030
2000
,
3001
2000
3000
0200
0310
0200
0300
2000
,
3001
0200
0300
0020
1030
0002
0003
0200
,
0310
2000
3000
0002
0013
0002
0003
0200
,
0310
0200
0301
2000
3100
0020
0031
2000
,
3010
2000
3001
0100
0011
0110
0011
0110
,
0000
0000
0001
1000
2002
3003
0000
0110
,
0000
0101
0022
0000
,
0033
0000
0001
0010
0100
0000
0000
1000
,
0000
0110
0000
0101
,
0000
0101
0000
0000
0000
0000
0000
0000
;

//---------------dance-single - ----------------
#NOTES:
     dance-single:
     :
     Medium:
     6:
     0.317933,0.613977,0.246038,0.346690,0.005592,199.000000,177.000000,22.000000,31.000000,0.000000,0.000000,0.317933,0.613977,0.246038,0.346690,0.005592,199.000000,177.000000,22.000000,31.000000,0.000000,0.000000:
// measure 0
0000
1001
2002
3003
,  // measure 1
0000
0110
0220
0000
,  // measure 2
0000
0000
0330
1001
,  // measure 3
0000
0011
0000
0000
0110
0000
1100
0000
,  // measure 4
0000
0000
0100
0010
,  // measure 5
0000
0110
0000
0000
0110
0000
0000
0000
,  // measure 6
1100
0000
1001
0001
,  // measure 7
0001
1000
1000
0010
,  // measure 8
0010
0100
0100
0001
,  // measure 9
0001
1000
1000
0001
,  // measure 10
1000
0010
0100
0002
,  // measure 11
0000
0000
0000
0000
0000
0003
2000
0000
,  // measure 12
0000
0000
0000
3000
0000
0000
0010
0000
,  // measure 13
0000
0000
0100
0010
0000
0000
0010
0000
,  // measure 14
0010
0000
0000
0020
0000
0000
0030
0000
,  // measure 15
0000
1000
0000
0010
,  // measure 16
0000
0100
0000
0010
0000
0200
0000
0000
,  // measure 17
0000
0000
0000
0000
,  // measure 18
0300
0000
0000
0001
0000
1000
0001
0000
,  // measure 19
1000
0002
0000
0000
0000
0000
0003
0000
,  // measure 20
0000
0000
0000
0000
,  // measure 21
0000
0010
0000
0100
,  // measure 22
0010
0100
0000
0020
0000
0000
0030
0000
,  // measure 23
0000
1000
0000
0001
,  // measure 24
1000
0001
0000
1000
0000
2000
0000
0000
,  // measure 25
0000
0000
0000
0000
,  // measure 26
3000
0000
0000
0010
0010
0000
0100
0000
,  // measure 27
0001
0100
0000
0001
0000
2000
0000
0000
,  // measure 28
0000
3000
0000
0010
,  // measure 29
0000
0010
0000
0010
0000
0010
0000
0000
,  // measure 30
0000
1000
0000
0000
0000
0000
0001
0000
,  // measure 31
0000
1000
0000
0100
0000
0010
0000
0000
,  // measure 32
0000
0001
0000
1000
0000
0020
0000
0000
,  // measure 33
0000
0030
0000
0100
,  // measure 34
0000
0100
0000
0000
0100
0000
0100
0000
,  // measure 35
0000
0020
0000
0000
0000
0000
0000
0000
,  // measure 36
0000
0030
0000
0000
0000
0000
1000
0000
,  // measure 37
0000
0001
0000
1000
0000
0010
0000
0000
,  // measure 38
0100
0010
0000
1000
0000
0000
0001
0000
,  // measure 39
0000
1000
0000
0100
0000
0010
0000
0000
,  // measure 40
0000
0001
0000
1000
0100
0000
2000
3000
,  // measure 41
0000
0000
0000
0010
,  // measure 42
0000
0100
0000
0001
,  // measure 43
1000
0001
0000
0000
1000
0000
0010
1000
,  // measure 44
0010
1000
0000
0000
2002
0000
3003
0000
,  // measure 45
0010
0000
0000
0000
0100
0000
0001
0100
,  // measure 46
0000
0001
0000
2000
0000
3000
0000
0100
,  // measure 47
0000
0000
1000
0000
0010
0100
0000
0001
,  // measure 48
0000
1000
0000
0002
0000
0000
0000
0000
,  // measure 49
0003
0000
1000
0000
0100
0000
0000
1000
,  // measure 50
0000
0000
0010
0000
0200
0000
0000
0020
,  // measure 51
0000
0000
0000
0330
,  // measure 52
0000
1000
0010
0000
,  // measure 53
0100
0000
0000
0000
1001
0000
0100
1000
,  // measure 54
0000
0010
0000
0200
0000
0300
0000
0001
,  // measure 55
0000
0000
0000
0000
1001
0000
0000
0000
1001
0000
0000
1001
0000
0000
1001
0000
,  // measure 56
0000
0010
0000
0200
0000
0000
0000
0000
,  // measure 57
0000
0000
0300
0000
0001
0000
0000
1000
,  // measure 58
0000
0100
0000
0020
0000
0000
0000
0000
,  // measure 59
0000
0000
0000
0000
0000
0030
0000
0000
,  // measure 60
0000
0001
1000
0000
2002
0000
0000
3003
,  // measure 61
0000
0000
0000
0000
1000
0000
0100
0010
,  // measure 62
0000
0001
0000
1000
0001
1000
0010
0100
,  // measure 63
0001
1000
0001
1000
0001
1000
0001
1000
,  // measure 64
0000
1001
2002
0000
,  // measure 65
0000
3003
0220
0000
,  // measure 66
0330
0000
0001
0000
1000
0000
0000
0100
,  // measure 67
0000
0010
0000
0001
,  // measure 68
0000
1000
0000
0000
0020
0030
0000
0000
;

//---------------dance-single - ----------------
#NOTES:
     dance-single:
     :
     Easy:
     3:
     0.140593,0.229822,0.011184,0.324323,0.000000,88.000000,87.000000,1.000000,29.000000,0.000000,0.000000,0.140593,0.229822,0.011184,0.324323,0.000000,88.000000,87.000000,1.000000,29.000000,0.000000,0.000000:
0000
0000
2000
3000
,
0000
0000
0020
0000
,
0030
0000
0000
1000
,
0000
1000
0000
0000
1000
0000
2000
0000
,
0000
3000
0000
0010
,
0000
0010
0010
0000
,
0010
0000
0000
0010
0000
0000
0010
0000
,
0000
0010
0000
0010
,
0000
0010
0000
1000
,
0000
1000
0000
0001
,
0000
1000
0000
0020
,
0000
0000
0000
0000
,
0000
0000
0000
0030
0000
0000
1000
0000
,
0000
1000
0000
1000
,
0000
1000
0000
2000
0000
0000
3000
0000
,
0000
0010
0000
0010
,
0000
0010
0000
0010
0000
0020
0000
0000
,
0000
0000
0000
0030
,
0000
0000
0000
1000
,
0000
2000
0000
0000
0000
3000
0000
0000
,
0000
0000
0000
0000
,
0000
0001
0000
1000
,
0000
1000
0000
2000
0000
0000
3000
0000
,
0000
0010
0000
0100
,
0000
0100
0000
0100
0000
0200
0000
0000
,
0000
0000
0000
0000
0000
0300
0000
0000
,
0000
0000
0000
0010
,
0000
0000
0000
0010
0000
0020
0000
0000
,
0000
0030
0000
2000
,
0000
0000
0000
0000
,
0000
3000
0000
0020
,
0000
0000
0000
0000
,
0000
0000
0000
0030
0000
0000
0200
0000
,
0000
0000
0000
0000
,
0000
0000
0300
0020
,
0000
0000
0000
0000
0000
0000
0000
0030
,
0000
0000
0000
2000
,
0000
0000
0000
0000
,
3000
0000
0000
0020
,
0000
0000
0000
0000
,
0000
0030
0000
0200
,
0000
0000
0000
0000
,
0000
0300
0000
2002
,
0000
0000
0000
0000
,
3003
0000
1000
0000
,
1000
0000
0000
0000
1000
0000
0000
1000
,
0000
1000
0000
1000
0000
0000
0000
0000
,
0000
0000
0000
0000
0010
0000
0000
0010
,
0000
0010
0000
0020
0000
0000
0030
0000
,
0000
0000
0100
0000
,
0000
0000
0020
0000
,
0000
0000
0000
0030
,
0000
0000
1000
0000
,
1000
0000
0000
0000
0010
0000
0000
0010
,
0000
0010
0000
0010
0000
0000
0000
0000
,
0000
0000
0100
0000
0000
0000
0000
0100
,
0000
0100
0000
0200
0000
0000
0300
0000
,
0000
0000
0000
0000
0010
0000
0000
0010
,
0000
0010
0000
0020
0000
0000
0000
0000
,
0000
0000
0000
0000
0000
0030
0000
0000
,
0000
0000
0000
0000
2000
0000
0000
3000
,
0000
0000
0010
0000
,
0000
0010
0000
0020
0000
0000
0000
0000
,
0000
0000
0000
0030
,
0000
0000
2000
0000
,
0000
3000
0000
0000
0020
0000
0000
0000
,
0000
0030
0000
0000
0200
0000
0000
0000
,
0000
0300
0000
0000
0020
0000
0000
0000
,
0000
0030
1000
0000
;
