#TITLE:Sorairo Days;
#SUBTITLE:Tengen Toppa Gurren Lagann Opening;
#ARTIST:Shōko Nakagawa;
#TITLETRANSLIT:;
#SUBTITLETRANSLIT:;
#ARTISTTRANSLIT:;
#GENRE:;
#CREDIT:Magna Trick;
#BANNER:SDBN.jpg;
#BACKGROUND:SDBG.jpg;
#LYRICSPATH:;
#CDTITLE:Magna Trick title!.png;
#MUSIC:Sorairo Days.mp3;
#OFFSET:-0.068212;
#SAMPLESTART:49.000000;
#SAMPLELENGTH:14.000000;
#SELECTABLE:YES;
#BPMS:0.000000=174.039993
,38.500000=695.679993
,58.500000=173.919998
,155.000000=87.019997
,155.500000=174.039993
,261.000000=695.679993
,279.000000=1391.359985
,327.000000=173.919998
;
#STOPS:
;
#BGCHANGES:0.083=Sorairo Days.avi=1.000=0=0=1=====,
321.000=SDBG.jpg=1.000=0=0=1=====,
99999=-nosongbg-=1.000=0=0=0 // don't automatically add -songbackground-
;
#KEYSOUNDS:;
#ATTACKS:;

//---------------dance-single - ----------------
#NOTES:
     dance-single:
     :
     Hard:
     12:
     0.534037,0.783691,0.361767,0.350804,0.076738,341.000000,308.000000,33.000000,32.000000,0.000000,0.000000,0.534037,0.783691,0.361767,0.350804,0.076738,341.000000,308.000000,33.000000,32.000000,0.000000,0.000000:
0000
0000
0000
0001
0010
0001
0010
0001
,
0000
1000
0100
1000
0100
0000
1000
0010
,
1000
0010
0000
0100
0001
0100
0001
0100
,
0000
0001
0010
0001
0010
0000
0200
0000
,
2300
0000
0000
0000
3001
0000
0100
0000
0010
0000
0000
1000
0001
0000
0100
0000
,
0000
0010
1000
0100
0010
0000
0001
0010
,
0100
0000
1000
0000
0000
0000
0100
0000
0010
0000
0000
0001
1000
0000
0100
0000
,
0000
0010
0100
1000
0001
0000
0010
0100
,
0010
0000
0001
0100
1000
0100
0001
0100
,
0000
0010
1000
0010
0001
0020
0000
0000
,
0000
0000
0000
0000
,
0000
0000
0000
0000
,
0000
0000
0000
0000
,
0000
0000
0000
0000
,
0000
0000
0000
0000
0000
0000
0000
0000
0000
0000
0000
0000
0000
0000
0000
0000
0000
0000
1030
0001
0000
0000
0000
0000
,
0200
0000
0000
0000
0000
0300
0010
0000
2000
0000
0000
0000
0000
3000
0002
0000
,
0000
0023
0000
0130
2000
0000
0000
3000
,
0200
0000
0000
0310
0002
0000
0103
0010
,
0000
0100
0001
0000
2000
0000
0000
3000
,
0120
0000
0000
0130
0002
0000
0003
0020
,
0000
0230
0000
1300
0020
0000
0030
0010
,
0110
0000
0010
1010
0000
0010
0012
0000
,
0000
0000
0000
0000
0000
0000
0000
0003
,
1001
0000
0000
0000
0010
0000
0000
1000
0100
0000
0000
0000
0010
0000
0001
0000
,
0100
0000
0010
0000
1000
0000
0100
0000
0010
0000
0000
0000
0100
0000
0000
1000
,
0010
0000
0000
0000
0100
0000
0000
0001
0010
0000
0000
0000
0100
0000
1000
0000
,
0010
0000
0100
0000
0001
0000
0010
0000
0100
0000
0000
0000
1000
0000
0000
0100
,
0010
0000
0000
0000
0001
0000
0000
0010
0100
0000
1000
0000
0001
0000
0011
0000
,
0000
0101
0000
1001
1000
0000
1000
0010
,
0110
0000
0001
0011
0000
0100
1000
1020
,
0000
0000
0000
0000
0000
0000
0000
0030
0100
0010
0100
0010
0100
0010
0100
0010
,
1000
0000
0001
1000
0100
0000
1000
0001
,
0000
0000
0010
0000
0001
0000
1000
0000
0020
0000
0000
0000
0000
0030
0100
0000
,
0001
0000
1000
0100
0000
1100
0000
0011
,
0000
0120
0000
0000
1000
0000
0031
0001
,
1000
0000
0010
0100
0001
0000
1000
0010
,
0000
1000
0010
0100
0001
0000
0010
1000
,
0010
0100
0010
0100
0010
0100
0010
0100
,
0010
0001
1000
0010
0110
0110
0001
1000
,
0000
0010
0100
0000
0001
0000
2000
0000
,
0000
0000
0000
3000
0100
1000
0010
0100
,
0000
0001
0010
0000
0100
0000
2000
0000
,
0000
0000
0000
0000
0000
3000
0010
0000
1000
0000
0100
0000
0001
0000
1000
0000
,
0000
0010
0100
0000
0010
0001
1000
0010
,
0000
0001
1000
0000
0100
0010
1000
0100
,
0000
0010
0011
0000
0110
0000
2100
0000
,
0000
0000
0001
0000
3000
0000
0100
0000
0010
0000
1000
0010
1000
0000
0010
0000
,
0000
0010
0100
0000
1000
0000
0200
0000
,
0000
0000
0000
0000
0000
0000
0000
0300
1000
0000
0100
0000
0001
0000
0010
0000
,
0000
0010
0110
0000
1100
0000
1002
0000
,
0000
0000
0000
0000
0000
0003
0100
0000
0000
0000
0010
0000
0000
0000
1000
0000
,
0000
0001
1000
0000
0100
0000
0020
0000
,
0000
0130
0000
1000
0000
0001
0000
0011
,
0000
1000
1010
0000
1001
0000
0220
0000
,
0000
0000
0000
0330
0000
0010
0000
0100
,
0000
1000
0001
0000
0010
0000
0200
0000
,
0000
0000
0000
0000
0300
1001
0000
0101
,
0000
1000
1100
0000
0011
0000
0210
0000
,
0000
0000
0000
0320
0000
0000
0000
0130
,
1000
0000
0001
0000
0010
0100
0010
0000
0100
0000
0000
0000
1000
0000
0001
0000
,
0010
0100
0000
1000
0100
0010
0001
0000
,
0010
0100
0010
0001
1000
0000
0010
0100
,
0001
1000
0000
1010
0000
0101
0000
0001
,
0001
0010
0010
0010
0100
0000
0100
0100
,
0100
1000
0002
0000
0000
0000
0000
0000
,
0000
0000
0000
0000
,
0000
0000
0000
0000
,
0000
0000
0000
0000
,
0000
0000
0000
0000
,
0000
0000
0000
0000
,
0000
0000
0000
0000
,
0000
0000
0000
0000
,
0000
0000
0000
0000
,
0000
0000
0000
0000
,
0000
0000
0000
0000
,
0000
0003
0000
0000
;

//---------------dance-single - ----------------
#NOTES:
     dance-single:
     :
     Challenge:
     14:
     0.664022,1.018017,0.493318,0.438505,0.186365,424.000000,379.000000,45.000000,40.000000,0.000000,0.000000,0.664022,1.018017,0.493318,0.438505,0.186365,424.000000,379.000000,45.000000,40.000000,0.000000,0.000000:
// measure 0
0000
0000
0000
1000
0100
0001
0100
1000
,  // measure 1
0000
0001
0010
1000
0010
0000
0001
0100
,  // measure 2
1000
0100
0000
0001
0010
0001
1000
0010
,  // measure 3
0000
0000
1000
0000
0010
0000
0100
0000
0001
0000
0000
0000
0010
0001
0010
0000
,  // measure 4
0001
1000
0001
0000
1000
0000
0010
0000
0100
0000
0000
0001
1000
0000
0010
0000
,  // measure 5
0000
0100
0001
0010
1000
0000
0010
0001
,  // measure 6
0100
0000
1000
0000
0000
0000
0100
0000
0001
0000
0010
0100
0010
0000
1000
0000
,  // measure 7
0000
0001
0100
1000
0010
0000
1000
0100
,  // measure 8
0001
0000
1000
0010
0001
0010
1000
0010
,  // measure 9
0000
0100
0001
0100
1000
0200
0000
0000
,  // measure 10
0000
0000
0000
0000
,  // measure 11
0000
0000
0000
0000
,  // measure 12
0000
0000
0000
0000
,  // measure 13
0000
0000
0000
0000
,  // measure 14
0000
0000
0000
0000
0000
0000
0000
0000
0000
0000
0000
0000
0000
0000
0000
0000
0000
0000
0301
1000
0000
0000
0000
0000
,  // measure 15
0020
0000
0000
0000
0000
0030
0100
0000
0002
0000
0000
0000
0000
0003
2000
0000
,  // measure 16
0000
3200
0000
0310
0002
0000
0000
0003
,  // measure 17
0020
0000
0000
0130
2000
0000
3010
0100
,  // measure 18
0000
0010
1000
1000
0002
1000
1000
1003
,  // measure 19
0210
0000
0000
0310
2000
0000
3000
0200
,  // measure 20
0000
0320
0000
0031
0200
0000
0300
0100
,  // measure 21
0110
0000
0100
0101
0000
0100
2100
0000
,  // measure 22
0000
0000
0000
0000
0000
0000
0000
0000
3001
0000
0010
0000
0100
1000
0001
0010
,  // measure 23
1001
0000
0000
0000
0100
0000
0001
0010
0001
0000
0000
0000
1000
0000
1100
0000
,  // measure 24
0001
0000
0101
0000
1000
0000
0001
0000
0100
0000
0010
1000
0001
1000
0100
0010
,  // measure 25
0001
0000
0000
0000
0010
0000
0100
1000
0100
0000
0000
0000
0010
0000
0001
0000
,  // measure 26
0100
0000
0010
0000
1000
0000
0100
0010
0001
0000
1000
0000
0100
0010
0001
0000
,  // measure 27
1001
0000
0000
0000
1000
0000
0001
0100
0001
0000
1000
0000
0001
0000
0101
0000
,  // measure 28
1000
0000
1100
0000
0010
0000
0100
0000
1001
0000
0100
0000
0001
1000
0001
0000
,  // measure 29
0120
0000
1030
2100
0000
3001
0100
0201
,  // measure 30
0000
0000
0000
0000
0000
0000
0000
0300
0010
0100
0001
1000
0010
0100
0001
1000
,  // measure 31
0010
0000
1000
0001
0010
0000
0001
0101
,  // measure 32
0000
0000
0100
0000
0001
0000
1000
0000
0200
0000
0010
0000
0010
0300
0001
0000
,  // measure 33
0010
0000
0000
0000
0100
0000
1000
0000
0000
0000
0001
1000
0001
0000
0101
0000
,  // measure 34
1000
0000
1100
0000
0010
0000
0001
0000
1000
0000
0100
0010
0100
0000
1000
0000
,  // measure 35
0002
0000
0103
0010
2000
0000
3001
0101
,  // measure 36
0000
0000
0001
0000
0100
0000
0010
0000
1001
0000
0000
0000
0100
0000
0001
1000
,  // measure 37
0100
0010
0100
0010
0100
0010
0100
0010
,  // measure 38
0100
1000
0001
0100
0110
0110
2000
3002
,  // measure 39
0003
0000
0100
0000
0010
1000
0001
0000
1000
0000
0100
0000
0002
0000
0000
0000
,  // measure 40
0000
0000
0100
0000
0000
0000
0103
0000
0010
0000
0001
0000
0100
0010
1000
0000
,  // measure 41
0001
1000
0110
0010
1010
0000
1002
0000
,  // measure 42
0000
0000
0100
0000
0000
0003
0100
0000
0001
0000
0010
0000
1000
0000
0001
0000
,  // measure 43
0000
0100
0010
0000
0100
1000
0001
0100
,  // measure 44
0000
1000
0001
0000
0010
0100
0001
0010
,  // measure 45
0000
0100
1100
0000
0110
0000
0022
0000
,  // measure 46
0033
0000
1001
0000
0000
0000
0010
0000
0100
0000
0001
0100
1000
0000
0100
0000
,  // measure 47
0000
0100
0010
0000
0001
0000
0020
0000
,  // measure 48
0000
0000
0100
0000
0000
0000
0100
0030
0001
0000
0010
0000
1000
0000
0001
0000
,  // measure 49
0000
0000
0100
0000
1000
0010
0100
0000
0011
0000
0000
0000
2001
0000
0000
0000
,  // measure 50
0000
0000
0010
0000
0000
3000
0010
0000
1000
0000
0100
0000
0010
0000
0001
0000
,  // measure 51
0100
0000
1000
0000
0001
0010
1000
0000
0100
0000
0001
0000
0200
0000
0000
0000
,  // measure 52
0000
0320
0000
0032
0000
1003
0000
1100
,  // measure 53
0000
0001
0101
0000
1001
0000
0220
0000
,  // measure 54
0330
0000
1100
0000
0000
0000
0100
0000
0001
1000
0010
0100
0001
1000
0210
0000
,  // measure 55
0000
0001
0001
0300
0100
0000
0020
0000
,  // measure 56
0000
0000
0000
0000
0030
1001
0000
1010
,  // measure 57
0000
0001
0011
0000
1100
0000
0120
0000
,  // measure 58
0000
0000
0000
0230
0001
0001
0000
0310
,  // measure 59
0001
0000
1000
0000
0100
0010
0100
0000
0001
0000
0000
0000
0001
0000
0100
0000
,  // measure 60
1000
0010
0000
1000
0100
0001
0010
0000
,  // measure 61
0001
0000
0100
0000
1000
0010
0100
0000
0001
0000
0000
0000
0001
0000
0010
0000
,  // measure 62
1000
0001
0000
0101
0000
1010
0000
1001
,  // measure 63
1000
0000
0100
0000
0100
0000
0100
0000
0110
0000
0000
0000
0010
0001
0010
0000
,  // measure 64
0010
0001
2000
0000
0000
0000
0000
0000
,  // measure 65
0000
0000
0000
0000
,  // measure 66
0000
0000
0000
0000
,  // measure 67
0000
0000
0000
0000
,  // measure 68
0000
0000
0000
0000
,  // measure 69
0000
0000
0000
0000
,  // measure 70
0000
0000
0000
0000
,  // measure 71
0000
0000
0000
0000
,  // measure 72
0000
0000
0000
0000
,  // measure 73
0000
0000
0000
0000
,  // measure 74
0000
0000
0000
0000
,  // measure 75
0000
0000
0000
0000
,  // measure 76
0000
0000
0000
0000
,  // measure 77
0000
0000
0000
0000
,  // measure 78
0000
0000
0000
0000
,  // measure 79
0000
0000
0000
0000
,  // measure 80
0000
0002
0000
3003
;

//---------------dance-single - ----------------
#NOTES:
     dance-single:
     :
     Medium:
     7:
     0.368031,0.620759,0.109626,0.295991,0.000000,235.000000,225.000000,10.000000,27.000000,0.000000,0.000000,0.368031,0.620759,0.109626,0.295991,0.000000,235.000000,225.000000,10.000000,27.000000,0.000000,0.000000:
0000
0000
0000
1000
0100
1000
0100
1000
,
0000
0001
0010
0001
0010
0000
0001
1000
,
0001
1000
0000
0010
1000
0010
1000
0010
,
0000
0100
0001
0100
0001
0000
0200
0000
,
0320
0000
0030
1000
0010
1000
0010
1000
,
0000
0001
0010
0001
0010
0000
0100
0010
,
0100
0010
0000
0100
1000
0100
1000
0100
,
0000
0001
0100
0001
0100
0000
1001
0000
,
1001
0000
0010
1000
0010
1000
0010
1000
,
0000
0001
0100
0001
0100
0002
0000
0000
,
0000
0000
0000
0000
,
0000
0000
0000
0000
,
0000
0000
0000
0000
,
0000
0000
0000
0000
,
0000
0000
0000
0000
0000
0003
1001
0000
,
0002
0000
0000
0000
2003
0000
0000
3100
,
0000
0100
0000
0000
0020
0000
0000
0030
,
0001
0000
0000
0000
0100
0000
0000
0010
,
0000
0010
0000
0000
2000
0000
0000
3000
,
0001
0000
0000
0000
0010
0000
0000
0100
,
0000
0100
0000
0000
2000
0000
0000
3000
,
0002
0000
0000
0203
0000
0000
0320
0000
,
0000
0000
0000
0000
0000
0000
0000
0030
,
1000
0001
0100
0010
,
1000
0100
0010
0000
,
0001
0010
0100
1000
,
0001
0100
0020
0000
,
1030
0100
1000
0010
,
0100
0000
0100
0000
0020
0000
0000
0030
,
2000
0000
3000
0002
0000
0000
0023
0000
,
0000
0000
0000
0030
0100
0000
1000
0000
,
0001
0001
1000
1000
,
0100
0001
0100
0000
,
1000
0010
0001
0010
,
1000
1000
0001
1000
,
0100
0000
0010
0000
,
0001
1000
0010
0000
,
0100
0100
0100
0100
,
0100
0000
0100
0000
0110
0000
0100
0010
,
0000
1000
0000
0001
0000
1000
0000
0200
,
0000
0000
0000
0000
0300
0010
0000
0001
,
0000
1000
0000
0001
0100
0001
0100
0000
,
0000
0010
0000
1000
0000
0100
0000
0100
,
0000
0010
0000
0001
1000
0001
1000
0001
,
0000
0100
0000
0010
0100
0010
0100
0010
,
0000
0100
0001
0000
1000
0000
0200
0000
,
0000
0000
0000
0000
0300
0010
0000
0001
,
0000
1000
0001
0000
1000
0000
0020
0000
,
0000
0000
0000
0030
1000
0001
0100
0010
,
0000
1000
0100
0000
0010
0000
0200
0000
,
0000
0000
0300
1000
0000
0001
0000
0100
,
0000
0001
1000
0000
0001
0000
2000
0000
,
0000
3100
0000
1000
0000
0001
0000
0020
,
0000
0100
0100
0200
,
0300
0000
0030
0000
0000
1000
0000
0001
,
0000
0100
0010
0000
0100
0000
0002
0000
,
0000
0000
0000
0000
0003
1000
0000
0100
,
0000
1000
0001
0000
0010
0000
0200
0000
,
0000
0000
0300
2000
0000
0000
0000
3001
,
0000
0001
0000
1000
0000
1000
0000
0010
,
0000
0100
0000
0001
0000
1000
0000
0000
,
0000
0001
0000
1000
0000
0000
0000
1000
,
0000
0001
0000
0010
0000
0100
0000
1100
,
0000
1100
0000
0101
0000
0000
0000
1001
,
0000
0110
0210
0000
0000
0000
0000
0000
,
0000
0000
0000
0000
,
0000
0000
0000
0000
,
0000
0000
0000
0000
,
0000
0000
0000
0000
,
0000
0000
0000
0000
,
0000
0000
0000
0000
,
0000
0000
0000
0000
,
0000
0000
0000
0000
,
0000
0000
0000
0000
,
0000
0000
0000
0000
,
0000
0000
0300
0000
;

//---------------dance-single - ----------------
#NOTES:
     dance-single:
     :
     Easy:
     3:
     0.281896,0.415210,0.043851,0.208290,0.000000,180.000000,176.000000,4.000000,19.000000,0.000000,0.000000,0.281896,0.415210,0.043851,0.208290,0.000000,180.000000,176.000000,4.000000,19.000000,0.000000,0.000000:
0000
0000
0000
1000
0000
1000
0000
1000
,
0000
0000
0000
0001
0000
0000
0000
0001
,
0000
0001
0000
0100
0000
0100
0000
0100
,
0000
0000
0000
0010
0000
0000
0100
0000
,
0010
0000
1000
0001
,
1000
0001
1000
0010
,
0010
0000
0100
0001
,
0000
1000
0100
0010
,
0010
0100
1000
0001
,
0000
0000
1000
0000
0010
0200
0000
0000
,
0000
0000
0000
0000
,
0000
0000
0000
0000
,
0000
0000
0000
0000
,
0000
0000
0000
0000
,
0000
0000
0000
0000
0000
0000
0001
0300
,
1000
0000
0000
0000
0100
0000
0000
1000
,
0000
1000
0000
0000
0001
0000
0000
0000
,
0100
0000
0000
0000
0010
0000
0000
0100
,
0000
0100
0000
0000
0001
0000
0000
0000
,
1000
0000
0000
0000
0100
0000
0000
0010
,
0000
0010
0000
0000
0001
0000
0000
0000
,
1001
0000
0000
1001
0000
0000
1001
0000
,
0000
0000
0000
0000
,
0000
0010
0010
0000
1000
0000
1000
0000
,
0001
0000
0100
0000
0002
0000
0000
0003
,
1000
0000
0001
0000
,
0010
0000
0010
0000
0200
0000
0000
0300
,
1000
0000
0001
0000
,
0100
0000
0100
0000
0020
0000
0000
0030
,
1000
0000
0000
0001
0000
0000
0000
2000
,
0000
0000
0000
3000
0100
0000
0100
0000
,
0010
0001
1000
0000
,
0010
0100
0001
0000
,
1000
1000
0001
0010
,
0100
0100
0010
0001
,
0100
0000
0010
0000
,
0100
0001
1000
0000
,
0100
0100
0100
0100
,
0100
0000
0100
0000
1001
0000
0100
2000
,
0000
0000
3000
0001
0000
0100
0000
0020
,
0000
0000
0000
0000
0030
0100
0000
0002
,
0000
1003
0100
0020
,
0000
0000
0030
0001
0000
1000
0000
0020
,
0000
0130
0001
2000
,
0000
3100
0000
0010
0000
0001
0000
2000
,
0000
3000
0010
0000
0100
0000
0002
0000
,
0000
0000
0000
0000
0003
1000
0000
0001
,
0000
0010
0100
2000
,
0000
0000
0000
3000
0000
0001
0000
2000
,
0000
3010
0100
0002
,
0000
0000
0003
0100
0000
0010
0000
1000
,
0000
0100
0000
0010
0000
0001
0000
1000
,
0000
0010
0000
0100
0000
0001
0000
2000
,
0000
0001
0001
0002
,
0000
0000
0000
3003
0000
1000
0000
0010
,
0000
0100
0001
0010
,
0000
0000
0000
0000
0000
0010
0000
0100
,
0000
1000
0001
1000
,
0000
0000
0000
0001
0000
0000
0000
0100
,
0000
0100
0000
0010
0000
0000
0000
0100
,
0000
0100
0000
0010
0000
0010
0000
0000
,
0000
1000
0000
1000
0000
0000
0000
0001
,
0000
0001
0000
0100
0000
0100
0000
0010
,
0000
0100
0000
0001
0000
0000
0000
1000
,
0001
1000
0002
0000
0000
0000
0000
0000
,
0000
0000
0000
0000
,
0000
0000
0000
0000
,
0000
0000
0000
0000
,
0000
0000
0000
0000
,
0000
0000
0000
0000
,
0000
0000
0000
0000
,
0000
0000
0000
0000
,
0000
0000
0000
0000
,
0000
0000
0000
0000
,
0000
0000
0000
0000
,
0000
0000
0000
0003
;
