#TITLE:Sono Chi no Kioku [End of the World];
#SUBTITLE:Jojo's Bizarre Adventure Stardust Crusaders Opening 2;
#ARTIST:JoStars;
#TITLETRANSLIT:;
#SUBTITLETRANSLIT:;
#ARTISTTRANSLIT:;
#GENRE:;
#CREDIT:Magna Trick;
#BANNER:SCNKBN.png;
#BACKGROUND:SCNKB.png;
#LYRICSPATH:;
#CDTITLE:Magna Trick title!.png;
#MUSIC:Sono Chi no Kioku.mp3;
#OFFSET:-0.362608;
#SAMPLESTART:50.000000;
#SAMPLELENGTH:16.000000;
#SELECTABLE:YES;
#BPMS:0.000000=110.000000
,27.000000=220.000000
,129.000000=110.000000
,133.000000=165.000000
,145.000000=110.000000
,145.500000=220.000000
,226.500000=110.000000
,229.500000=220.000000
,268.500000=146.667007
,269.166656=330.000000
,271.666656=247.500000
,271.854156=165.000000
,272.729156=330.000000
,274.729156=110.000000
,275.395844=220.000000
,276.729156=440.000000
,285.270844=220.000000
;
#STOPS:222.500000=0.340000,
222.750000=0.340000,
223.000000=0.300000,
223.250000=0.060000,
223.500000=0.060000,
223.750000=2.300000,
224.000000=0.815000,
224.500000=0.955000,
225.000000=0.887000,
225.500000=0.886000,
226.000000=0.955000,
226.500000=1.500000,
264.000000=0.020000,
265.000000=0.020000,
266.000000=0.020000
;
#BGCHANGES:0.063=Sono Chi no Kioku.avi=1.000=0=0=1=====,
282.000=SCNKB.png=1.000=0=0=1=====,
99999=-nosongbg-=1.000=0=0=0 // don't automatically add -songbackground-
;
#KEYSOUNDS:;
#ATTACKS:;

//---------------dance-single - ----------------
#NOTES:
     dance-single:
     :
     Hard:
     13:
     0.483546,0.744361,0.259603,0.359450,0.204687,339.000000,313.000000,26.000000,36.000000,0.000000,3.000000,0.483546,0.744361,0.259603,0.359450,0.204687,339.000000,313.000000,26.000000,36.000000,0.000000,3.000000:
0000
0000
0000
0000
,
0000
0000
0000
0000
,
0000
0000
0000
0000
,
0000
0000
0000
0000
,
0000
0000
0000
0000
,
0000
0000
0000
0000
,
0000
0000
0000
0000
0000
0000
1000
0100
,
1000
0001
1000
0010
1000
0000
0001
0100
,
0001
1000
0001
0010
0001
0000
1000
0100
,
1000
0001
0100
0001
0010
0100
1000
0100
,
0000
0100
0000
0100
1000
0000
0001
1000
,
0000
1000
0001
0000
0001
0000
0010
0100
,
0000
0100
0010
0000
0100
0000
1000
0001
,
0000
0001
1000
0000
0001
1000
0100
0010
,
0100
0001
0100
0010
0100
0000
0010
0100
,
0000
0100
1000
0000
0100
0000
1100
0000
,
1100
0000
1100
0000
0000
0000
1000
0010
,
0000
0010
0100
0000
0001
0000
0101
0000
,
0101
0000
0101
0000
0001
0010
0100
0000
,
1000
0000
0001
0000
1000
0100
0010
0000
,
0001
0000
1000
0000
0100
1000
0010
0000
,
0010
0100
0000
0001
1000
0001
0100
0010
,
1000
0001
0000
1001
0000
0000
1000
0100
,
0000
0100
1000
0000
1000
0000
0001
0000
,
0001
0000
0001
0000
0001
0000
0100
0001
,
0000
0001
0100
0001
0000
0001
0100
0000
,
0100
0000
0100
0000
0100
0000
0010
0100
,
0000
0100
0010
0000
0100
0000
0010
0000
,
0010
0000
0000
1000
0000
0000
0001
0000
0000
0110
0000
1000
,
0000
0000
0001
0000
0000
0000
0100
0000
0000
0000
0010
0000
0000
0000
1000
0000
0000
0000
0010
0000
0000
0100
0000
0000
,
0001
1000
0010
0100
0001
1000
0110
0000
,
0010
1010
0010
0011
,
0001
0000
0000
0000
2002
0000
3003
0000
0001
0010
0100
1000
0000
1000
0100
0000
,
0220
0000
0000
0000
0000
0000
0000
0000
0000
0000
0000
0000
0000
0000
0000
0000
0000
0000
0000
0000
0000
0000
0000
0000
0000
0000
0000
0000
0330
0000
0000
0000
0000
0000
0000
0000
0000
0001
0000
0000
0000
0000
0000
1000
0000
0000
0000
0000
0000
0002
0000
0000
0000
0000
0000
0000
0000
0000
0000
0000
0000
0000
0000
0000
,
0000
0000
0000
0000
0000
0000
1000
0000
0000
0000
0000
0000
0000
0000
0000
0000
0000
0000
0000
0000
0000
0000
0000
0000
1003
0000
0000
0010
0000
0000
1000
0000
,
0000
0100
0000
0000
2000
0000
0000
0000
0000
0000
0000
0000
0000
3020
0000
0000
0000
0000
0000
0000
0000
0000
0230
0000
0000
0000
0000
0000
0000
0000
0000
0000
,
0000
0302
0000
0000
0000
0000
1003
0000
0000
0000
0001
0000
0010
0000
0100
0000
,
1000
0001
0010
0100
1000
0001
0010
0100
,
1000
0002
0000
0003
2000
0000
3010
0100
,
0001
1000
0010
0100
0001
1000
0000
1000
,
0000
0002
0000
0003
0000
0001
0010
0100
,
1000
0001
0010
0100
1000
1100
0000
0110
,
0000
0000
0000
0022
0000
0000
0000
0000
0000
0033
0000
0000
0000
0000
0000
1000
0000
0000
0000
0100
0000
0000
0000
1000
,
0000
0000
0000
0001
0000
0000
0000
0100
0000
0000
0000
0001
0000
0000
0000
0020
0000
0000
0000
0000
0000
0000
0000
0000
,
0000
0031
0000
1000
0000
0100
0000
1100
,
0000
1000
0000
1010
0000
0010
0000
0011
,
0000
0001
0000
1001
0000
0001
1000
0000
,
1000
0001
0000
1000
0000
0001
0010
0000
,
0010
0100
0000
1000
0000
0002
0000
0003
,
0020
0000
0000
0130
0000
1000
0000
0001
,
0000
0100
0000
0010
0000
0100
0000
0100
,
0020
0000
0000
0030
0000
1001
0000
1000
,
0000
0001
0000
0001
2002
0000
0000
0000
,
0000
0000
0000
0000
0000
0000
3003
1000
,
0000
0100
0000
0010
0000
0001
0000
0001
,
2000
0000
0000
0000
0000
0000
3000
0000
0000
0000
2002
3223
2332
3023
0230
2300
,
3001
0000
0100
0000
0010
0000
1000
0000
0001
0000
0100
0010
1000
0010
0000
1000
,
0000
0002
0000
0000
0003
0020
0000
0000
0000
0000
0000
0000
0230
0000
0000
0000
,
0000
0000
0000
0300
1000
0001
1000
0001
,
1000
0000
0001
0100
0001
0100
0001
0100
,
0001
0000
1000
0100
1000
0100
1000
0100
,
1000
0000
0010
0100
0010
0100
0010
0100
,
0010
0100
0010
0100
0010
0100
0010
1000
,
0001
0000
0100
0000
0010
0000
1000
0000
0001
0000
0100
0000
0001
0000
0000
0002
,
0000
0000
0000
0000
,
0000
0000
0000
0000
,
0000
0000
0000
0000
,
0003
0000
0000
0001
0000
0000
0000
0010
0000
0000
0000
0000
0000
0000
0000
0000
0100
0000
0000
0000
0000
0000
1000
0000
,
0000
0000
0000
0000
0000
0000
0000
0000
0000
0000
0000
0001
0000
0000
0000
0000
0000
0000
0000
0000
0000
0000
0000
0000
0000
0000
0000
0000
0000
0000
0000
0000
0000
0000
0000
0100
0000
0000
0000
0000
0000
0000
0000
0000
0000
0000
0000
0000
0000
0000
0000
0000
0000
0000
0000
0000
0000
0000
0000
0000
0000
0000
0000
0000
0000
0000
0000
0000
0000
0000
0000
0000
0000
0000
0000
0000
0000
0000
0000
0000
0000
0000
0000
0010
0000
0000
0000
0000
0000
0000
0000
0000
0000
0000
0000
0000
0000
0000
0000
0000
0000
0000
0000
0000
0000
0000
0000
0000
0000
0000
0000
0000
0000
0000
0000
0000
0000
0000
0000
0000
0000
0000
0000
0000
0000
0000
0000
0000
0000
0000
0000
1000
0000
0000
0000
0000
0000
0000
0000
0000
0000
0000
0000
0000
0000
0000
0000
0100
0000
0000
0000
0000
0000
0000
0000
0000
0000
0000
0000
0000
0000
0000
0000
0010
0000
0000
0000
0000
0000
0000
0000
0000
0000
0000
0000
0000
0000
0000
0000
0000
0000
0000
0000
0000
0000
0000
0000
0000
0000
0000
0000
0000
,
0000
0000
0000
0001
0000
0000
0000
0000
0000
0000
0000
0000
0000
0000
0000
0000
0000
0000
0000
0000
0000
0000
0000
0000
0000
0000
0000
0000
0000
0000
0000
0000
0000
0000
0000
2002
0000
0000
0000
0000
0000
0000
0000
0000
0000
0000
0000
0000
0000
0000
0000
0000
0000
0000
0000
0000
0000
0000
0000
0000
0000
0000
0000
0000
0000
0000
0000
0000
0000
0000
0000
0000
0000
0000
0000
0000
0000
0000
0000
0000
0000
0000
0000
0000
0000
0000
0000
0000
0000
0000
0000
0000
0000
0000
0000
0000
0000
0000
0000
0000
0000
0000
0000
0000
0000
0000
0000
0000
0000
0000
0000
0000
0000
0000
0000
0000
0000
0000
0000
0000
0000
0000
0000
0000
0000
0000
0000
0000
0000
0000
0000
0000
0000
0000
0000
0000
0000
0000
0000
0000
0000
0000
0000
0000
0000
0000
0000
0000
0000
0000
0000
0000
0000
0000
0000
0000
0000
0000
0000
0000
0000
0000
0000
0000
0000
0000
0000
0000
0000
0000
0000
0000
0000
0000
0000
0000
0000
0000
0000
0000
0000
0000
0000
0000
0000
0000
0000
0000
0000
0000
0000
0000
,
0000
0000
0000
0000
,
3003
0000
0000
0000
;

//---------------dance-single - ----------------
#NOTES:
     dance-single:
     :
     Challenge:
     15:
     0.567703,0.886144,0.359450,0.369435,0.269588,398.000000,362.000000,36.000000,37.000000,0.000000,3.000000,0.567703,0.886144,0.359450,0.369435,0.269588,398.000000,362.000000,36.000000,37.000000,0.000000,3.000000:
// measure 0
0000
0000
0000
0000
,  // measure 1
0000
0000
0000
0000
,  // measure 2
0000
0000
0000
0000
,  // measure 3
0000
0000
0000
0000
,  // measure 4
0000
0000
0000
0000
,  // measure 5
0000
0000
0000
0000
,  // measure 6
0000
0000
0000
0000
0000
0000
0001
0010
,  // measure 7
0001
0100
1000
0100
0001
0000
1000
0010
,  // measure 8
1000
0100
0001
0100
1000
0000
0001
0010
,  // measure 9
0001
0000
1000
0000
0010
0000
1000
0000
0100
0000
0010
0001
1000
0000
1010
0000
,  // measure 10
0000
0000
0101
0000
0000
0000
1001
0000
0000
0000
0001
0010
0100
0000
1000
0000
,  // measure 11
0001
0001
1000
0000
1001
0000
0100
0100
,  // measure 12
0010
0100
0100
0000
0110
0000
0001
0001
,  // measure 13
1000
0001
0001
0000
1001
0001
0010
0100
,  // measure 14
0010
1000
0001
0100
1000
1000
0100
0010
,  // measure 15
0000
0010
0001
0000
0010
0000
0011
0000
,  // measure 16
0011
0000
0011
0000
0000
0000
0001
0100
,  // measure 17
0000
0100
0010
0000
1000
0000
1010
0000
,  // measure 18
1010
0000
1010
0000
1000
0100
0010
0000
,  // measure 19
0001
1000
0000
1000
0001
0010
0100
0000
,  // measure 20
1000
0000
0001
1000
1000
0001
0100
1000
,  // measure 21
0100
0010
0001
1000
0001
0010
1000
0010
,  // measure 22
0100
0001
1000
0000
0000
0000
2002
0000
0000
0000
3003
0000
0001
0000
0010
0000
,  // measure 23
0000
0010
0001
0000
0001
0100
1000
0000
,  // measure 24
1000
0000
1000
0000
1000
0000
0100
1000
,  // measure 25
0000
1000
0100
0001
0010
0001
0100
0000
,  // measure 26
0010
0000
0010
0000
0010
0000
0100
0010
,  // measure 27
1000
0010
0100
0001
0010
0100
0001
0100
,  // measure 28
1000
0000
0000
0010
0000
0000
1000
0000
0000
0001
0000
0000
0100
0000
0000
0010
0000
0000
1001
0000
0000
0000
0010
0000
,  // measure 29
0000
0000
0100
0000
0000
0000
1001
0000
0000
0000
0100
0000
0000
0000
0010
0000
0000
0000
0100
0000
0000
1000
0000
0000
,  // measure 30
1000
0001
0100
0010
1000
0001
0110
0000
,  // measure 31
0100
0101
0100
1100
,  // measure 32
1000
0000
0000
0000
2002
0000
3003
0000
1000
0100
0010
0001
0000
0001
0010
0000
,  // measure 33
0220
0000
0000
0000
0000
0000
0000
0000
0000
0000
0000
0000
0000
0000
0000
0000
0000
0000
0000
0000
0000
0000
0000
0000
0000
0000
0000
0000
0330
0000
0000
0000
0000
0000
0000
0000
0000
1000
0000
0000
0000
0000
0000
0001
0000
0000
0000
0000
0000
2000
0000
0000
0000
0000
0000
0000
0000
0000
0000
0000
0000
0000
0000
0000
,  // measure 34
0000
0000
0000
0000
0000
0000
0001
0000
0000
0000
0000
0000
0000
0000
0000
0000
0000
0000
0000
0000
0000
0000
0000
0000
3001
0000
0000
0100
0000
0000
0001
0000
,  // measure 35
0000
0010
0000
0000
0002
0000
0000
0000
0000
0000
0000
0000
0000
0203
0000
0000
0000
0000
0000
0000
0000
0000
0320
0000
0000
0000
0000
0000
0000
0000
1030
0000
,  // measure 36
0100
2000
0000
0000
0000
0000
3001
0000
0000
0000
0100
0000
1000
0000
0100
0000
,  // measure 37
0001
0100
1000
0100
0001
0100
1000
0100
,  // measure 38
0001
2000
0000
3000
0002
0000
0013
1000
,  // measure 39
0010
0001
0010
1000
0010
0001
0000
0001
,  // measure 40
0000
2000
0000
3000
0000
0100
0001
0100
,  // measure 41
1000
0010
1000
0001
0010
0011
0000
0110
,  // measure 42
0000
0000
0000
2200
0000
0000
0000
0000
0000
3300
0000
0000
0000
0000
0000
0001
0000
0000
0000
0010
0000
0000
0000
0001
,  // measure 43
0000
0000
0000
1000
0000
0000
0000
0010
0000
0000
0000
1000
0000
0000
0000
0200
0000
0000
0000
0000
0000
0000
0000
0000
,  // measure 44
0000
1300
0000
0001
0000
0010
0001
0011
,  // measure 45
0000
0001
0100
0101
0000
0100
1000
1100
,  // measure 46
0000
0000
1000
0000
0001
0000
1001
0000
1000
0001
1000
0000
0001
0000
0000
0000
,  // measure 47
0001
0000
1000
0000
0001
1000
0001
0000
0000
0000
1000
0000
0100
0000
0000
0000
,  // measure 48
0100
0000
0010
0000
0000
0000
0001
1000
0001
0000
2000
0000
0000
0000
3000
0000
,  // measure 49
0200
0000
0000
0000
1300
0001
1000
0000
0000
0000
0001
0000
0000
0000
1000
0000
,  // measure 50
0000
0010
0000
0100
0000
0110
0000
0010
,  // measure 51
0220
0000
0000
0330
0000
1001
0000
0001
,  // measure 52
0000
1000
0000
1000
2001
0001
0000
0001
,  // measure 53
0000
0000
0001
0000
0000
0000
0001
0000
0000
0000
3001
1000
0001
1000
0001
0000
,  // measure 54
0000
0010
0000
0100
0000
1000
0000
1000
,  // measure 55
0002
0000
0000
0000
0000
0000
0003
0000
0000
0000
2002
3223
2332
3203
0320
0032
,  // measure 56
1003
0000
0010
0000
0100
0000
0001
0000
1000
0000
0010
0100
0001
0100
0000
0001
,  // measure 57
0000
0000
1000
0100
0001
0100
1000
0000
0000
0000
0200
0000
0000
0000
0000
0000
0000
0000
0000
0000
0000
0000
0000
0000
0320
0000
0000
0000
0000
0000
0000
0000
,  // measure 58
0000
0000
0000
0030
1000
1000
0001
0001
,  // measure 59
1000
0001
0100
0001
0100
0001
0100
0001
,  // measure 60
1000
0100
0001
0010
0001
0010
0001
0010
,  // measure 61
0001
1000
0100
0001
0010
1000
0100
0001
,  // measure 62
0010
1000
0100
0001
0010
1000
0110
0001
,  // measure 63
1000
0000
0010
0000
1000
0000
0100
0000
0001
0000
0100
0000
1000
0000
0000
2000
,  // measure 64
0000
0000
0000
0000
,  // measure 65
0000
0000
0000
0000
,  // measure 66
0000
0000
0000
0000
,  // measure 67
3000
0000
0000
1000
0000
0000
0000
0100
0000
0000
0000
0000
0000
0000
0000
0000
0010
0000
0000
0000
0000
0000
0001
0000
,  // measure 68
0000
0000
0000
0000
0000
0000
0000
0000
0000
0000
0000
1000
0000
0000
0000
0000
0000
0000
0000
0000
0000
0000
0000
0000
0000
0000
0000
0000
0000
0000
0000
0000
0000
0000
0000
0010
0000
0000
0000
0000
0000
0000
0000
0000
0000
0000
0000
0000
0000
0000
0000
0000
0000
0000
0000
0000
0000
0000
0000
0000
0000
0000
0000
0000
0000
0000
0000
0000
0000
0000
0000
0000
0000
0000
0000
0000
0000
0000
0000
0000
0000
0000
0000
0100
0000
0000
0000
0000
0000
0000
0000
0000
0000
0000
0000
0000
0000
0000
0000
0000
0000
0000
0000
0000
0000
0000
0000
0000
0000
0000
0000
0000
0000
0000
0000
0000
0000
0000
0000
0000
0000
0000
0000
0000
0000
0000
0000
0000
0000
0000
0000
0001
0000
0000
0000
0000
0000
0000
0000
0000
0000
0000
0000
0000
0000
0000
0000
0010
0000
0000
0000
0000
0000
0000
0000
0000
0000
0000
0000
0000
0000
0000
0000
0100
0000
0000
0000
0000
0000
0000
0000
0000
0000
0000
0000
0000
0000
0000
0000
0000
0000
0000
0000
0000
0000
0000
0000
0000
0000
0000
0000
0000
,  // measure 69
0000
0000
0000
1000
0000
0000
0000
0000
0000
0000
0000
0000
0000
0000
0000
0000
0000
0000
0000
0000
0000
0000
0000
0000
0000
0000
0000
0000
0000
0000
0000
0000
0000
0000
0000
2002
0000
0000
0000
0000
0000
0000
0000
0000
0000
0000
0000
0000
0000
0000
0000
0000
0000
0000
0000
0000
0000
0000
0000
0000
0000
0000
0000
0000
0000
0000
0000
0000
0000
0000
0000
0000
0000
0000
0000
0000
0000
0000
0000
0000
0000
0000
0000
0000
0000
0000
0000
0000
0000
0000
0000
0000
0000
0000
0000
0000
0000
0000
0000
0000
0000
0000
0000
0000
0000
0000
0000
0000
0000
0000
0000
0000
0000
0000
0000
0000
0000
0000
0000
0000
0000
0000
0000
0000
0000
0000
0000
0000
0000
0000
0000
0000
0000
0000
0000
0000
0000
0000
0000
0000
0000
0000
0000
0000
0000
0000
0000
0000
0000
0000
0000
0000
0000
0000
0000
0000
0000
0000
0000
0000
0000
0000
0000
0000
0000
0000
0000
0000
0000
0000
0000
0000
0000
0000
0000
0000
0000
0000
0000
0000
0000
0000
0000
0000
0000
0000
0000
0000
0000
0000
0000
0000
,  // measure 70
0000
0000
0000
0000
,  // measure 71
3003
0000
0000
0000
;

//---------------dance-single - ----------------
#NOTES:
     dance-single:
     :
     Medium:
     10:
     0.437901,0.744361,0.249618,0.359450,0.204687,307.000000,282.000000,25.000000,36.000000,0.000000,3.000000,0.437901,0.744361,0.249618,0.359450,0.204687,307.000000,282.000000,25.000000,36.000000,0.000000,3.000000:
0000
0000
0000
0000
,
0000
0000
0000
0000
,
0000
0000
0000
0000
,
0000
0000
0000
0000
,
0000
0000
0000
0000
,
0000
0000
0000
0000
,
0000
0000
0000
0000
0000
0000
0010
1000
,
0010
0000
0100
0001
0100
0000
0001
0010
,
0001
0000
1000
0100
1000
0000
0010
1000
,
0010
0000
0100
0001
0100
0000
0001
1000
,
0000
0001
0000
1000
0000
0000
0001
0000
,
0001
1000
1000
0010
,
0010
0100
0100
0001
,
1000
0000
0100
0000
0010
0000
0001
0010
,
0001
0000
0010
0100
0010
0000
0100
1000
,
0000
1000
0001
0000
1000
0000
1001
0000
,
1001
0000
1001
0000
0000
0000
0010
1000
,
0000
1000
0001
0000
1000
0000
1001
0000
,
1001
0000
1001
0000
0001
0010
0001
0000
,
1000
0000
0100
0000
1000
0100
1000
0000
,
0010
1000
0001
0100
,
0010
0010
0010
0010
,
0010
0000
1000
0001
1000
0000
0001
0000
,
0001
0001
0001
0001
,
0001
0001
0001
1000
,
1000
1000
1000
1000
,
1000
0000
1000
0000
1000
0000
0010
1000
,
0010
0000
0100
0001
0100
0000
0001
0010
,
0001
0000
0000
0000
0000
0000
1000
0000
0000
0100
0000
0000
1000
0000
0000
0000
0000
0000
0100
0000
0000
0000
0010
0000
,
0000
0001
0000
0100
0000
0010
0000
1000
0000
0002
0000
0000
,
1000
1000
0000
0000
1003
0000
1001
0000
,
0001
1001
1000
1001
,
0001
0000
0000
0000
2002
0000
3003
0000
0001
1000
0001
1000
0000
0001
1000
0000
,
2002
0000
0000
0000
0000
0000
0000
0000
0000
0000
0000
0000
0000
0000
0000
0000
0000
0000
0000
0000
0000
0000
0000
0000
0000
0000
0000
0000
3003
0000
0000
0000
0000
0000
0000
0000
0000
0001
0000
0000
0000
0000
0000
1000
0000
0000
0000
0000
0000
0002
0000
0000
0000
0000
0000
0000
0000
0000
0000
0000
0000
0000
0000
0000
,
0000
0000
0000
0000
0000
0000
1000
0000
0000
0000
0000
0000
0000
0000
0000
0000
0000
0000
0000
0000
0000
0000
0000
0000
1003
0000
0000
0100
0000
0000
1000
0000
,
0000
0100
0000
0000
2000
0000
0000
0000
0000
0000
0000
0000
0000
3020
0000
0000
0000
0000
0000
0000
0000
0000
0230
0000
0000
0000
0000
0000
0000
0000
0000
0000
,
0000
0302
0000
0000
0000
0000
1003
0000
0000
0000
0001
0000
0010
0000
0001
0000
,
0010
0001
0010
0001
0010
0001
0010
0001
,
0010
0002
0000
0003
2000
0000
3010
0100
,
0010
0100
0010
0100
0010
1000
0000
1000
,
0000
0002
0000
0003
0000
0001
1000
0010
,
0100
0001
0010
0100
0000
1100
0000
0110
,
0000
0000
0000
0022
0000
0000
0000
0000
0000
0033
0000
0000
0000
0000
0000
1000
0000
0000
0000
0001
0000
0000
0000
1000
,
0000
0000
0000
0010
0000
0000
0000
0100
0000
0000
0000
0010
0000
0000
0000
0200
0000
0000
0000
0000
0000
0000
0000
0000
,
0000
0301
0000
1000
0000
0001
0000
1001
,
0000
1000
0000
1001
0000
0001
0000
1001
,
0000
1000
0000
1001
0000
0001
1000
0000
,
1000
0001
0000
1000
0000
0001
1000
0000
,
1000
0001
0000
1000
0000
0002
0000
0003
,
0020
0000
0000
0130
0000
1000
0000
0001
,
0000
0100
0000
0010
0000
0100
0000
0100
,
0020
0000
0000
0030
0000
1001
0000
1000
,
0000
0001
0000
0001
2002
0000
0000
0000
,
0000
0000
0000
0000
0000
0000
3003
1000
,
0000
0100
0000
0010
0000
0001
0000
0001
,
2000
0000
0000
0000
0000
0000
3000
0000
0000
0000
2002
3213
2302
3023
0230
2300
,
3001
0000
0100
0000
0010
0000
1000
0000
0001
0000
0100
0001
1000
0001
0000
1000
,
0000
0002
0000
0000
0003
0020
0000
0000
0000
0000
0000
0000
0230
0000
0000
0000
,
0000
0000
0000
0300
1000
0001
1000
0001
,
1000
0001
0001
0001
,
0001
1000
1000
1000
,
1000
0010
0010
0010
,
0010
0010
0010
0110
,
0001
0000
0100
0000
0010
0000
1000
0000
0001
0000
0100
0000
0001
0000
0000
0002
,
0000
0000
0000
0000
,
0000
0000
0000
0000
,
0000
0000
0000
0000
,
0003
0000
0000
0001
0000
0000
0000
0010
0000
0000
0000
0000
0000
0000
0000
0000
0100
0000
0000
0000
0000
0000
1000
0000
,
0000
0000
0000
0000
0000
0000
0000
0000
0000
0000
0000
0001
0000
0000
0000
0000
0000
0000
0000
0000
0000
0000
0000
0000
0000
0000
0000
0000
0000
0000
0000
0000
0000
0000
0000
0100
0000
0000
0000
0000
0000
0000
0000
0000
0000
0000
0000
0000
0000
0000
0000
0000
0000
0000
0000
0000
0000
0000
0000
0000
0000
0000
0000
0000
0000
0000
0000
0000
0000
0000
0000
0000
0000
0000
0000
0000
0000
0000
0000
0000
0000
0000
0000
0010
0000
0000
0000
0000
0000
0000
0000
0000
0000
0000
0000
0000
0000
0000
0000
0000
0000
0000
0000
0000
0000
0000
0000
0000
0000
0000
0000
0000
0000
0000
0000
0000
0000
0000
0000
0000
0000
0000
0000
0000
0000
0000
0000
0000
0000
0000
0000
1000
0000
0000
0000
0000
0000
0000
0000
0000
0000
0000
0000
0000
0000
0000
0000
0100
0000
0000
0000
0000
0000
0000
0000
0000
0000
0000
0000
0000
0000
0000
0000
0010
0000
0000
0000
0000
0000
0000
0000
0000
0000
0000
0000
0000
0000
0000
0000
0000
0000
0000
0000
0000
0000
0000
0000
0000
0000
0000
0000
0000
,
0000
0000
0000
0001
0000
0000
0000
0000
0000
0000
0000
0000
0000
0000
0000
0000
0000
0000
0000
0000
0000
0000
0000
0000
0000
0000
0000
0000
0000
0000
0000
0000
0000
0000
0000
2002
0000
0000
0000
0000
0000
0000
0000
0000
0000
0000
0000
0000
0000
0000
0000
0000
0000
0000
0000
0000
0000
0000
0000
0000
0000
0000
0000
0000
0000
0000
0000
0000
0000
0000
0000
0000
0000
0000
0000
0000
0000
0000
0000
0000
0000
0000
0000
0000
0000
0000
0000
0000
0000
0000
0000
0000
0000
0000
0000
0000
0000
0000
0000
0000
0000
0000
0000
0000
0000
0000
0000
0000
0000
0000
0000
0000
0000
0000
0000
0000
0000
0000
0000
0000
0000
0000
0000
0000
0000
0000
0000
0000
0000
0000
0000
0000
0000
0000
0000
0000
0000
0000
0000
0000
0000
0000
0000
0000
0000
0000
0000
0000
0000
0000
0000
0000
0000
0000
0000
0000
0000
0000
0000
0000
0000
0000
0000
0000
0000
0000
0000
0000
0000
0000
0000
0000
0000
0000
0000
0000
0000
0000
0000
0000
0000
0000
0000
0000
0000
0000
0000
0000
0000
0000
0000
0000
,
0000
0000
0000
0000
,
3003
0000
0000
0000
;

//---------------dance-single - ----------------
#NOTES:
     dance-single:
     :
     Easy:
     6:
     0.322364,0.744361,0.179725,0.239633,0.169740,226.000000,208.000000,18.000000,24.000000,0.000000,0.000000,0.322364,0.744361,0.179725,0.239633,0.169740,226.000000,208.000000,18.000000,24.000000,0.000000,0.000000:
0000
0000
0000
0000
,
0000
0000
0000
0000
,
0000
0000
0000
0000
,
0000
0000
0000
0000
,
0000
0000
0000
0000
,
0000
0000
0000
0000
,
0000
0000
0000
1000
,
1000
0001
0001
1000
,
1000
0001
0001
1000
,
1000
0001
0001
1000
,
0000
0001
0000
1000
,
0000
0010
0000
0100
,
0000
0001
0000
0010
,
0000
0100
0000
1000
,
1000
0001
0001
0100
,
0000
0010
0000
1000
,
1000
0001
0000
1000
,
0000
0001
0000
1000
,
1000
0001
0000
0010
,
0100
0010
0100
0010
,
0001
0010
0001
1000
,
0100
1000
0100
1000
,
0100
1000
1000
0001
,
0000
1000
0000
0001
,
0001
0000
0000
0100
,
0000
0010
0000
0100
,
0000
0000
0000
1000
,
0000
0010
0000
1000
,
1000
0000
0000
0001
,
0000
1000
0000
0001
,
0000
0000
0000
0011
,
0000
1100
0000
1001
,
0000
0000
0000
0000
2002
0000
0000
3003
0100
0000
0100
0000
0100
0000
0100
0000
,
2002
0000
0000
0000
0000
0000
0000
0000
0000
0000
0000
0000
0000
0000
0000
0000
0000
0000
0000
0000
0000
0000
0000
0000
0000
0000
0000
0000
3003
0000
0000
0000
0000
0000
0000
0000
0000
0001
0000
0000
0000
0000
0000
1000
0000
0000
0000
0000
0000
0002
0000
0000
0000
0000
0000
0000
0000
0000
0000
0000
0000
0000
0000
0000
,
0000
0000
0000
0000
0000
0000
1000
0000
0000
0000
0000
0000
0000
0000
0000
0000
0000
0000
0000
0000
0000
0000
0000
0000
1003
0000
0000
0100
0000
0000
1000
0000
,
0000
0100
0000
0000
2000
0000
0000
0000
0000
0000
0000
0000
0000
3020
0000
0000
0000
0000
0000
0000
0000
0000
0230
0000
0000
0000
0000
0000
0000
0000
0000
0000
,
0000
0302
0000
0000
0000
0000
1003
0000
0000
0000
0001
0000
0000
0000
0001
0000
,
0000
0001
0000
0001
0000
1000
0000
1000
,
0000
0002
0000
0003
2000
0000
3010
0100
,
0000
0001
0000
0100
0000
0010
0000
0010
,
0000
2000
0000
3000
0000
0001
0000
0010
,
0000
0001
0000
0100
0000
1001
0000
0110
,
0000
0000
0000
2002
0000
0000
0000
0000
0000
3003
0000
0000
0000
0000
0000
1000
0000
0000
0000
0001
0000
0000
0000
1000
,
0000
0000
0000
0010
0000
0000
0000
0100
0000
0000
0000
0010
0000
0000
0000
0200
0000
0000
0000
0000
0000
0000
0000
0000
,
0000
0301
0000
1000
0000
0001
0000
1001
,
0000
1000
0000
1001
0000
0001
0000
1001
,
0000
1000
0000
1001
0000
0001
0000
0000
,
1000
0001
0000
1000
0000
0001
0000
0000
,
0001
1000
0000
0001
0000
1000
0000
0000
,
0100
0000
0000
0000
0000
0000
0000
0010
,
0000
0100
0000
0010
0000
0100
0000
1000
,
0001
0000
0000
0000
0000
0001
0000
0001
,
0000
1000
0000
0001
2002
0000
0000
0000
,
0000
0000
0000
0000
0000
0000
3003
1000
,
0000
0100
0000
0010
0000
0001
0000
0001
,
2000
0000
0000
0000
0000
0000
3000
0000
0000
0000
1001
1001
1001
0001
1000
0001
,
1000
0000
1000
0000
1000
0000
1000
0000
1000
0000
0100
1000
0001
1000
0000
0001
,
0000
0002
0000
0000
0003
0020
0000
0000
0000
0000
0000
0000
0230
0000
0000
0000
,
0000
0000
0000
0300
1000
0001
1000
0001
,
1000
0001
0001
0001
,
0001
1000
1000
1000
,
1000
0010
0010
0010
,
0010
0010
0010
0110
,
0001
0000
0000
0000
0010
0000
0000
0000
0001
0000
0000
0000
0010
0000
0000
0002
,
0000
0000
0000
0000
,
0000
0000
0000
0000
,
0000
0000
0000
0000
,
0003
0000
0000
0001
0000
0000
0000
1000
0000
0000
0000
0000
0000
0000
0000
0000
0001
0000
0000
0000
0000
0000
1000
0000
,
0000
0000
0000
0000
0000
0000
0000
0000
0000
0000
0000
0001
0000
0000
0000
0000
0000
0000
0000
0000
0000
0000
0000
0000
0000
0000
0000
0000
0000
0000
0000
0000
0000
0000
0000
0100
0000
0000
0000
0000
0000
0000
0000
0000
0000
0000
0000
0000
0000
0000
0000
0000
0000
0000
0000
0000
0000
0000
0000
0000
0000
0000
0000
0000
0000
0000
0000
0000
0000
0000
0000
0000
0000
0000
0000
0000
0000
0000
0000
0000
0000
0000
0000
0010
0000
0000
0000
0000
0000
0000
0000
0000
0000
0000
0000
0000
0000
0000
0000
0000
0000
0000
0000
0000
0000
0000
0000
0000
0000
0000
0000
0000
0000
0000
0000
0000
0000
0000
0000
0000
0000
0000
0000
0000
0000
0000
0000
0000
0000
0000
0000
1000
0000
0000
0000
0000
0000
0000
0000
0000
0000
0000
0000
0000
0000
0000
0000
0100
0000
0000
0000
0000
0000
0000
0000
0000
0000
0000
0000
0000
0000
0000
0000
0010
0000
0000
0000
0000
0000
0000
0000
0000
0000
0000
0000
0000
0000
0000
0000
0000
0000
0000
0000
0000
0000
0000
0000
0000
0000
0000
0000
0000
,
0000
0000
0000
0001
0000
0000
0000
0000
0000
0000
0000
0000
0000
0000
0000
0000
0000
0000
0000
0000
0000
0000
0000
0000
0000
0000
0000
0000
0000
0000
0000
0000
0000
0000
0000
2002
0000
0000
0000
0000
0000
0000
0000
0000
0000
0000
0000
0000
0000
0000
0000
0000
0000
0000
0000
0000
0000
0000
0000
0000
0000
0000
0000
0000
0000
0000
0000
0000
0000
0000
0000
0000
0000
0000
0000
0000
0000
0000
0000
0000
0000
0000
0000
0000
0000
0000
0000
0000
0000
0000
0000
0000
0000
0000
0000
0000
0000
0000
0000
0000
0000
0000
0000
0000
0000
0000
0000
0000
0000
0000
0000
0000
0000
0000
0000
0000
0000
0000
0000
0000
0000
0000
0000
0000
0000
0000
0000
0000
0000
0000
0000
0000
0000
0000
0000
0000
0000
0000
0000
0000
0000
0000
0000
0000
0000
0000
0000
0000
0000
0000
0000
0000
0000
0000
0000
0000
0000
0000
0000
0000
0000
0000
0000
0000
0000
0000
0000
0000
0000
0000
0000
0000
0000
0000
0000
0000
0000
0000
0000
0000
0000
0000
0000
0000
0000
0000
0000
0000
0000
0000
0000
0000
,
0000
0000
0000
0000
,
3003
0000
0000
0000
;
