#TITLE:Sono Chi No Sadame;
#SUBTITLE:Jojo's Bizarre Adventure Opening;
#ARTIST:BLUFF;
#TITLETRANSLIT:;
#SUBTITLETRANSLIT:;
#ARTISTTRANSLIT:;
#GENRE:;
#CREDIT:;
#BANNER:SCNSBN.jpg;
#BACKGROUND:SCNSBG.jpg;
#LYRICSPATH:;
#CDTITLE:Magna Trick title!.png;
#MUSIC:Sono Chi no Sadame.ogg;
#OFFSET:0.000000;
#SAMPLESTART:72.280006;
#SAMPLELENGTH:12.000000;
#SELECTABLE:YES;
#BPMS:0.000000=146.341003
,4.000000=145.897003
,20.000000=147.541000
,24.000000=144.000000
,25.500000=288.000000
,27.500000=144.000000
,28.000000=146.938995
,36.000000=146.001007
,113.000000=73.000999
,114.000000=146.001007
;
#STOPS:24.500000=0.420000,
112.500000=0.400000,
128.000000=0.410000
;
#BGCHANGES:0.083=Sono Chi No Sadame.avi=1.000=0=0=1=====,
211.000=SCNSBG.jpg=1.000=0=0=1=====,
99999=-nosongbg-=1.000=0=0=0 // don't automatically add -songbackground-
;
#KEYSOUNDS:;
#ATTACKS:;

//---------------dance-single - ----------------
#NOTES:
     dance-single:
     :
     Challenge:
     14:
     0.698437,0.906536,0.398204,0.851713,0.447979,442.000000,406.000000,36.000000,77.000000,0.000000,0.000000,0.698437,0.906536,0.398204,0.851713,0.447979,442.000000,406.000000,36.000000,77.000000,0.000000,0.000000:
// measure 0
0000
0000
0000
0000
,  // measure 1
1000
0100
0000
1000
0100
0000
1000
0000
0002
0000
0000
0000
0203
0000
0000
0000
,  // measure 2
0310
1000
0000
0010
1000
0000
0001
0000
0000
0000
2000
0000
0000
0000
0000
3000
,  // measure 3
0002
0100
0000
0013
1000
0001
0200
0320
,  // measure 4
2030
0000
0000
3200
0000
0000
0320
0000
0032
0000
0000
0003
1000
0000
1000
0000
,  // measure 5
0100
0000
0100
0000
0010
0001
0100
0000
0010
0000
0010
0000
1000
0100
0010
0000
,  // measure 6
0100
0000
2002
3003
0100
0000
0200
0000
0000
0000
0000
0000
0000
0000
0300
0000
,  // measure 7
0001
0000
0100
0000
0000
0000
0010
0000
1000
0000
0001
0000
1000
0000
0100
0010
,  // measure 8
0001
0000
0000
0000
0010
0000
0001
0000
1000
0000
0001
0000
0100
0000
0010
0100
,  // measure 9
0002
0000
0000
0000
1000
0000
0000
0000
1000
0000
1000
0000
0103
0000
0010
0001
,  // measure 10
0010
0000
0100
0000
1000
0000
0100
0000
1000
0000
0010
0000
0100
0000
0001
0100
,  // measure 11
0010
0000
1000
0000
0000
0000
1000
0000
0010
0000
0100
0000
1000
0000
0001
0010
,  // measure 12
1000
0000
0000
0000
0010
0000
1000
0000
0100
0000
0010
0000
0001
0000
0010
0001
,  // measure 13
2000
0000
0001
0000
0100
0100
3010
0000
,  // measure 14
0200
0001
0001
0010
0300
0010
1000
0001
,  // measure 15
2000
0000
0000
0000
3002
0000
0000
0000
0103
0000
0000
0010
0000
0000
0100
0001
,  // measure 16
1000
0000
0000
0010
0000
0000
0100
0000
0001
0000
0000
1000
0000
0000
1000
0000
,  // measure 17
0002
0000
0100
0000
0010
0010
0013
0000
,  // measure 18
1001
0000
0000
0000
0010
0000
1001
0000
0000
0000
0100
0000
1000
0000
0001
0100
,  // measure 19
1001
1001
0000
0220
0000
0000
0000
0330
,  // measure 20
1001
1001
1001
0110
0000
0000
0100
0010
,  // measure 21
0012
0000
0000
0000
2000
0003
0000
0000
3020
0000
0000
0000
0230
0000
0301
1000
,  // measure 22
0002
0000
0000
0000
0000
0003
1000
0000
0100
0000
1000
0000
0010
0000
0100
0001
,  // measure 23
0010
0000
0100
0000
0010
0000
0001
0000
1000
0000
0010
0000
0100
0001
1000
0010
,  // measure 24
0100
0000
0001
1000
0020
0000
0000
0000
0000
0000
0000
0030
1000
0000
0001
0000
,  // measure 25
0021
0000
0000
0000
0032
0000
0000
0000
2003
0000
0000
0000
3020
0000
0100
0031
,  // measure 26
0200
0000
0000
0000
0000
0300
1000
0100
0001
0000
0010
0000
1000
0000
0001
0000
,  // measure 27
0200
0000
0010
0000
0010
0000
0001
0000
0010
0000
0010
0000
0010
0000
0001
0300
,  // measure 28
1001
0000
1001
0000
0002
0023
0230
2300
3001
0000
1000
0000
0001
0100
0001
0000
,  // measure 29
1000
0010
1000
0000
0110
0000
1001
0000
0001
0010
0001
0000
1000
0100
1000
0000
,  // measure 30
0110
0000
1001
0000
0100
0000
1000
0000
0110
0000
1001
0000
0100
0010
0100
0000
,  // measure 31
0010
0000
0000
0100
0000
0000
0010
0000
0000
0000
0000
0000
1001
0000
0000
0000
0000
0000
0110
0000
0000
0000
0000
0000
1001
0000
0000
0000
0000
0000
1001
0000
0000
0000
0000
0000
0010
0000
0100
0000
0001
0000
1000
0000
0010
0000
0100
0000
,  // measure 32
0002
0003
0000
0000
0000
0000
1000
0000
0000
0100
0000
0000
1000
0000
0000
0000
0000
0000
0001
0000
0000
0000
0000
0000
0100
0000
0000
0000
0000
0000
0010
0000
0000
0000
0000
0000
1000
0000
0000
0000
0000
0000
0100
0000
0000
0000
0000
0000
,  // measure 33
0010
0000
0100
0010
0100
0000
0010
0000
0001
0000
1000
0000
0010
0000
0100
0000
,  // measure 34
0001
0000
1000
0000
0100
0000
0100
0000
0100
0000
0100
0000
0100
0010
0100
1000
,  // measure 35
0100
0010
0100
1000
0002
0000
0103
0000
0010
0000
1000
0000
0002
0000
0013
0000
,  // measure 36
0100
1000
0001
0001
0001
0001
0001
0001
,  // measure 37
0001
0000
0100
0010
0200
0000
0301
0000
1000
0000
0100
0000
0020
0000
0031
0000
,  // measure 38
0010
0000
0100
0000
1000
0000
1000
0000
1000
0000
1000
0000
0001
1000
0001
0000
,  // measure 39
1000
0000
0001
0100
0010
1000
0100
0000
0001
0000
0100
1000
0010
0100
0001
0000
,  // measure 40
1000
0000
0100
0010
0001
0000
2000
0000
0001
0000
3002
0000
0100
0000
0203
0000
,  // measure 41
0010
0000
0320
0000
1030
0100
1000
0000
0100
0000
0010
0001
0010
0001
1000
0000
,  // measure 42
0010
0000
0100
0001
1000
0010
1000
0001
0100
0001
1000
0010
2002
0000
0000
0000
,  // measure 43
3003
0000
2002
3003
2002
3003
0220
0330
,  // measure 44
0220
0330
2020
3030
0202
0303
2002
0000
,  // measure 45
3003
0000
0000
1000
0010
0001
1000
0100
0001
0020
0000
0000
,  // measure 46
0230
0000
0000
1300
0010
0001
1000
0100
0001
1000
0100
0010
,  // measure 47
1000
0000
0000
0000
0001
0000
0000
0000
0100
0000
0000
0000
1001
0000
0000
0000
0000
0000
0002
0000
0000
0000
0000
0000
0000
0000
0000
0003
0000
0000
1000
0000
0000
0100
0000
0000
1000
0000
0000
0000
0000
0000
0001
0000
0000
0000
0000
0000
,  // measure 48
0100
0010
0100
0000
0002
0000
0000
0023
0000
0000
0230
0000
2300
0000
0000
0000
,  // measure 49
0000
0000
3000
0000
2000
0000
3002
0000
0013
0100
0010
0000
0001
0000
0001
0000
,  // measure 50
0200
0310
0200
0300
0001
0100
0010
0000
1000
0100
0010
0000
0002
0100
2003
0000
,  // measure 51
3000
0000
0000
0000
1000
0100
0001
0000
1000
0010
0001
0000
0010
0100
0001
0000
,  // measure 52
0000
1001
0110
2002
0000
0000
0000
3003
;

//---------------dance-double - ----------------
#NOTES:
     dance-double:
     :
     Easy:
     4:
     0.192781,0.234498,0.077428,0.044245,0.000000,122.000000,115.000000,7.000000,4.000000,0.000000,0.000000,0.192781,0.234498,0.077428,0.044245,0.000000,122.000000,115.000000,7.000000,4.000000,0.000000,0.000000:
00000000
00000000
00000000
00000000
,
00000000
00000000
00000000
00000000
,
00000000
00000000
00000000
00000000
,
00001000
00000000
00000000
00010000
,
00000000
00000000
00100000
00000000
,
10000000
00000000
10000000
00000000
,
01000000
00000000
00000000
00000000
,
01000000
00000000
00100000
00100000
,
00010000
00000000
00001000
00000000
,
00000100
00000000
00000001
00000001
,
00000100
00000000
00000100
00000000
,
00000010
00000000
00001000
00001000
,
00000001
00000000
00001000
00000000
,
00000010
00000000
00000100
00000100
,
00001000
00000000
00000100
00000000
,
00001000
00000000
00001000
00000000
,
00001000
00001000
00010000
00100000
,
00100000
00000000
01000000
00000000
,
00010000
00000000
00000000
00000000
,
01000000
00000000
00000000
00000000
,
00010000
00010000
00010000
00000000
,
00100000
00000000
00010000
00000000
,
00001000
00000000
00000100
00000000
,
00000010
00000010
00000010
00000000
,
00002002
00000000
00003003
00000000
,
00000010
00000001
00000010
00000000
,
00000100
00001000
00000100
00000000
,
00001000
00001000
00001000
00000000
,
00011000
00000000
00000000
00000000
,
00011000
00000000
00000000
00010000
,
00000000
00000000
00100000
00000000
,
01000000
00000000
00000000
00010000
,
10000000
00000000
10010000
00000000
,
00010000
00010000
01000000
00000000
,
00100000
00100000
00010000
00000000
,
00001000
00000010
00000100
00000000
,
00000010
00000010
00001000
00000000
,
00010000
00010000
01000000
00000000
,
00010000
00010000
10000000
00000000
,
00010000
10000000
00010000
00000000
,
00010000
00010000
00010000
00000000
,
00001000
00000000
00000100
00000000
,
00000010
00000010
00000001
00000001
,
00001000
00001000
00000010
00000000
,
00000001
00000100
00001000
00010000
,
00001000
00001000
00001000
00000000
,
00000000
00000000
00022000
00000000
,
00000000
00000000
00033000
00000000
,
00011000
00000000
00000000
00010000
,
00000000
00000000
00001000
00000000
,
00010000
00000000
00000000
00001000
,
00000000
00000000
00010000
00000000
,
00001000
00001000
00001000
00000000
,
00011000
00000000
00000000
00000000
,
00000000
00000000
00000000
00000000
;

//---------------dance-double - ----------------
#NOTES:
     dance-double:
     :
     Medium:
     8:
     0.376081,0.440720,0.055306,0.077428,0.000000,238.000000,233.000000,5.000000,7.000000,0.000000,0.000000,0.376081,0.440720,0.055306,0.077428,0.000000,238.000000,233.000000,5.000000,7.000000,0.000000,0.000000:
00000000
00000000
00000000
00000000
,
00000000
00000000
00000000
00000000
,
00000000
00000000
00000000
00000000
,
00010000
00010000
00000000
00000000
00000000
00000000
00000100
00000100
,
00000000
00000000
00000000
00000000
00010000
00010000
00000000
00000000
,
00001000
00010000
00001000
00000000
00010000
00001000
00010000
00000000
,
00001000
00010000
00000000
00000000
00010000
00001000
00000000
00000000
,
00001000
00000000
00001000
00010000
00100000
00000000
00010000
00000000
,
00100000
00000000
01000000
00100000
00010000
00000000
00010000
00000000
,
00100000
00000000
01000000
00010000
00001000
00000000
00000100
00000000
,
00000010
00000000
00000100
00000010
00000001
00000000
00001001
00000000
,
00000010
00000000
00000010
00000010
00001000
00000000
00010000
00000000
,
00010000
00000000
00100000
00100000
01000000
00000000
00010000
00000000
,
10000000
00000000
00100000
00100000
01000000
00000000
00001000
00000000
,
00010000
00000000
00001000
00001000
00000100
00000000
00001001
00000000
,
00000001
00000000
00000100
00000000
00000100
00000001
00001000
00000000
,
00001000
00000000
00001000
00000000
00010000
00000000
00100000
01000000
,
00020000
00030000
00010000
00000100
,
00001000
00000000
00000001
00000100
00000000
00000010
00001000
00000000
,
00001000
00010000
00000000
00010000
00000000
00010000
00001000
00000000
,
00001000
00010000
00001000
00010000
00000000
00000000
00100000
00000000
,
01000000
00100000
00001000
01000000
,
00010000
00000000
00000000
00010000
00001000
00010000
00001000
00000100
,
00000010
00000000
00000001
00000000
00000010
00000000
00000000
00000001
,
00001000
00000000
00000020
00000000
00000030
00000000
00000001
00001000
,
00000001
00000100
00010000
00100000
,
01000000
00000000
00000000
00010000
01000000
00010000
01000000
00100000
,
00010000
00000000
00010000
00001000
,
00010000
00001000
00000000
00000000
00010000
00000000
00001000
00000000
,
00010000
00010000
00000000
00000000
00000000
00000000
00000100
00000100
,
00000000
00000000
00000000
00000000
00010000
00010000
00000000
00000000
,
00001000
00001000
00000000
00000000
00000000
00000000
00100000
00100000
,
00010000
10000000
00000000
00000000
10010000
00000000
00000000
00000000
,
00010000
00010000
10000000
00000000
00100000
00100000
00010000
00000000
,
00001000
00001000
00000100
00000000
00000010
00000001
00000010
00000000
,
00001000
00001000
00000001
00000000
00000001
00000001
00000100
00000001
,
00001000
00001000
00000001
00000000
00000010
00000010
00001000
00000000
,
00010000
00010000
01000000
00000000
00100000
10000000
00100000
00000000
,
00010000
00010000
10000000
00000000
00100000
00100000
01000000
00000000
,
00010000
00100000
00010000
01000000
00010000
10000000
00010000
00000000
,
10000000
01000000
00010000
00001000
00000100
00000000
00000000
00000000
,
00000010
00000000
00000010
00000000
00001000
00000000
00001000
00000010
,
00001000
00001000
00010000
00000000
01000000
01000000
00100000
00000000
,
10000000
10000000
00010000
00000000
00200000
00000000
00000000
00300000
,
00001000
00001000
00010000
00001000
,
00100000
00001000
00022000
00033000
,
00000010
00000010
00022000
00000000
,
00000000
00000000
00000000
00033000
,
00010000
00010000
00000000
00000000
00000000
00000000
00000100
00000100
,
00000000
00000000
00000000
00000000
00010000
00010000
00000000
00000000
,
00010000
00001000
00010000
00000000
00001000
00010000
00001000
00000000
,
00010000
00001000
00000100
00000010
00001000
00001000
00000000
00000000
,
00000010
00000010
00010000
00010000
00001000
00001000
00000000
00001000
,
00010000
00001000
00000000
00000000
00000000
00000000
00000000
00000000
,
00000000
00000000
00000000
00000000
;

//---------------dance-double - ----------------
#NOTES:
     dance-double:
     :
     Hard:
     12:
     0.532518,0.646390,0.331836,0.132735,0.132735,337.000000,307.000000,30.000000,12.000000,0.000000,0.000000,0.532518,0.646390,0.331836,0.132735,0.132735,337.000000,307.000000,30.000000,12.000000,0.000000,0.000000:
00000000
00000000
00000000
00000000
,
00000000
00000000
00000000
00000000
,
00000000
00000000
00000000
00000000
,
00011000
00011000
00000000
00000000
00000000
00000000
01010000
10100000
,
00000000
00000000
00000000
00000000
00101000
00110000
00000000
00000000
,
00010000
00000000
00010000
00000000
00001000
00010000
00001000
00000000
00010000
00000000
00010000
00000000
00001000
00010000
00001000
00000000
,
01000000
00001000
00000000
00000000
00010000
00020000
00000000
00030000
,
00000001
00001000
00000000
00000001
00000010
00001000
00010000
01000000
,
00100000
00000000
00010000
01000000
00100000
10000000
00010000
10000000
,
01000000
00010000
00001000
00000100
,
00000101
00000000
00000010
00000000
00001001
00000000
00000001
00000100
,
00001000
00010000
00000000
01000000
00100000
00010000
10000000
00100000
,
10000000
00000000
00100000
01000000
00010000
00001000
00000100
00000010
,
00000100
00000001
00001000
00010000
,
10100000
00000000
11000000
00000000
10000000
00100000
01000000
00001000
,
00010000
00000000
00000000
00000000
00011000
00000000
00000000
00000000
00001100
00000000
00000000
00000001
00000000
00000000
00000010
00000000
,
00001000
00000000
00000000
00010000
00000000
00000000
01000000
00000000
10000000
00000000
00000000
00100000
00000000
00000000
01000000
00000000
,
00020000
00000000
00000000
00030000
00010000
00000000
00100000
00000000
,
00010000
00000000
00001000
00100000
00000000
00100000
00001000
00000000
,
00010000
00000000
00000100
00000000
00000000
00000000
00000100
00000000
00000000
00000000
00001000
00000000
00000010
00001000
00000010
00000000
,
00001000
00000000
00000001
00000000
00001000
00000000
00000001
00000000
00000000
00000000
00001000
00000000
00000100
00001000
00000100
00000000
,
00001000
00000010
00001010
00010000
,
00110000
00000000
00000000
01000000
00010000
01000000
00010000
10000000
,
00100000
00000000
10000000
00000000
01000000
00000000
10000000
00000000
00010000
00000000
00000000
00000000
00000000
00100000
00010000
00100000
,
00002000
00000000
00200000
00000000
00000000
00303000
00001000
00100000
,
00000100
00010000
00001000
00110000
,
10100000
00000000
00000000
00100000
00010000
00001000
00000100
00000010
,
00001000
00000001
00000100
00000001
00000010
00000001
00001000
00000000
,
00001000
00000200
00000000
00000300
00000010
00000010
00001000
00000100
,
00000010
00000000
00000010
00000000
00000001
00001000
00000001
00000000
00001000
00000001
00001000
00000000
00000010
00000000
00000010
00000000
,
00001000
00000100
00001000
00000000
00000100
00010000
00000100
00000000
00010000
00000000
00010000
00000000
00000000
00000000
00000000
00000000
,
00100000
00000000
00100000
00000000
01000000
00001000
01000000
00000000
00100000
01000000
00010000
00000000
00100000
00000000
00100000
00000000
,
01000000
10000000
00000000
20000000
00020000
00000000
00000000
30030000
,
10000000
01000000
10000000
01000000
00100000
00010000
00100000
00010000
,
00100000
00001000
00100000
00001000
00010000
00000100
00010000
00000100
,
00000010
00000001
00000010
00000001
00000010
00000100
00000010
00000100
,
00000001
00001000
00000001
00001000
00000010
00001000
00000010
00001000
,
00010000
01000000
00010000
01000000
00100000
01000000
00100000
01000000
,
00010000
00001000
00000100
00010000
00001000
00000100
00000010
00001000
,
00000001
00000100
00001000
00010000
00100000
01000000
01000000
01000000
,
10000000
00000000
00010000
00000000
00100000
00000000
00010000
00000000
10000000
00000000
00000000
00000000
00000000
00000000
00100000
00001000
,
00100000
00000000
00001000
00000000
00001000
00010000
00000100
00001000
,
00000001
00000001
00001000
00001000
01000000
01000000
10000000
10000000
,
00010000
00010000
00100000
00100000
00002000
00000000
00000000
00003000
,
00001100
00101000
01100000
01010000
,
11000000
00000000
00110000
00000000
00202000
00000000
00000000
00303000
,
00001000
00001000
00022000
00000000
,
00000000
00000000
00000000
00000000
00000000
00000000
00000000
00033000
,
00011000
00011000
00000000
00000000
00000000
00000000
01010000
10100000
,
00000000
00000000
00000000
00000000
00101000
00110000
00000000
00000000
,
00100000
00000000
00100000
00000000
00001000
00100000
00001000
00000000
00100000
00000000
00100000
00000000
00001000
01000000
00001000
00000000
,
01000000
00010000
01000000
00000000
00100000
10000000
00100000
00000000
01000000
00010000
01000000
00000000
00000000
00000000
00000000
00000000
,
00001000
00100000
00001000
00000000
00100000
00001000
00100000
00000000
00010000
10000000
00010000
00000000
00000000
00000000
01000000
00000000
,
00010000
00001000
00000000
00000000
00000000
00000000
00000000
00000000
,
00000000
00000000
00000000
00000000
;

//---------------dance-single - ----------------
#NOTES:
     dance-single:
     :
     Hard:
     13:
     0.628909,0.731077,0.309714,1.028693,0.337367,398.000000,370.000000,28.000000,93.000000,0.000000,0.000000,0.628909,0.731077,0.309714,1.028693,0.337367,398.000000,370.000000,28.000000,93.000000,0.000000,0.000000:
0000
0000
0000
0000
,
0001
0010
0000
0001
0010
0000
0001
0000
2000
0000
0000
0000
3020
0000
0000
0000
,
0130
0001
0000
0100
0001
0000
1000
0000
0000
0000
1002
0000
0000
0000
0000
0000
,
2000
0000
0000
3003
0000
0000
0020
0230
,
0302
0000
0000
0023
0000
0000
0230
0000
2300
0000
0000
3000
0000
0000
0000
0000
,
0001
0000
0001
0000
0100
1000
0100
0000
0001
0000
0001
0000
0100
1000
0100
0000
,
0010
0000
2002
3003
0010
0000
0020
0000
0000
0000
0000
0000
0000
0000
0030
0000
,
1000
0000
0001
0000
0000
0000
0100
0000
0001
0000
1000
0000
0001
0000
0010
0100
,
0010
0000
0100
1000
0010
1000
0001
0100
,
0020
0000
0000
0000
0001
0000
0000
0000
1000
0000
0030
0000
0001
0000
0010
1000
,
0010
0000
1000
0000
0001
0000
0010
0000
0001
0000
0100
0000
0010
0000
1000
0010
,
1000
0001
0000
0001
0100
0010
0001
1000
,
0200
0300
0100
0001
0010
0100
1000
0001
,
0002
0000
1000
0000
0010
0010
0103
0000
,
0020
1000
0000
0100
0030
1000
0001
1000
,
0002
0000
0000
0000
2003
0000
0000
0000
3020
0000
0000
0230
0000
0000
0320
0000
,
2030
0000
3000
0200
0000
0000
0320
0000
0032
0000
0000
2003
0000
0000
3002
0000
,
2003
0010
0100
3001
,
1001
0000
1000
1001
0000
0001
1000
0100
,
1001
1001
0000
0220
0000
0000
0000
0330
,
1001
1001
1001
0110
0000
0000
0010
0100
,
2100
0000
0000
0000
0002
3000
0000
0000
0203
0000
0000
0000
0320
0000
0000
0000
,
2030
0000
0000
0000
0000
3000
0001
0000
0010
0000
0001
0000
0100
0000
0010
0000
,
0100
0000
0100
0000
0001
0000
0001
0000
2000
0000
0000
0000
3000
0000
0001
0100
,
0010
0000
0000
0000
0200
0000
0000
0000
0000
0000
0000
0300
0001
0000
0010
0000
,
0210
0000
0000
0000
2300
0000
0000
0000
3002
0000
0000
0000
0203
0000
0000
0300
,
0020
0000
0000
0000
0000
0030
1000
0000
1000
0000
0100
0000
0001
0000
1000
0000
,
0020
0000
0100
0000
0100
0000
0000
0000
0100
0000
0100
0000
0000
0000
0100
0030
,
1001
0000
1001
0000
2000
3200
0320
0032
1003
0000
0001
0000
1000
0010
1000
0000
,
0001
0100
0001
0000
2000
0000
3002
0000
1003
0100
1000
0000
0001
0010
0001
0000
,
2000
0000
3002
0000
0013
0000
0001
0000
2000
0000
3002
0000
0013
0100
0010
0000
,
0100
0010
0100
0000
2000
0000
3002
0003
1001
0000
1001
0000
0100
0010
0100
0010
,
2000
3000
0000
0000
0000
0000
0001
0000
0000
0010
0000
0000
0001
0000
0000
0000
0000
0000
1000
0000
0000
0000
0000
0000
0010
0000
0000
0000
0000
0000
0100
0000
0000
0000
0000
0000
0001
0000
0000
0000
0000
0000
0010
0000
0000
0000
0000
0000
,
0100
0000
0010
0100
0010
0000
0100
0000
1000
0000
0001
0000
0100
0000
0010
0000
,
1000
0000
0001
0000
0010
0000
0100
0000
0010
0000
0100
0000
0010
0100
0010
0000
,
0100
0010
0100
0000
2000
0000
3010
0000
0100
0000
0001
0000
2000
0000
3100
0000
,
0010
0001
1000
0100
1000
0100
1000
0100
,
1000
0000
0010
0100
0020
0000
1030
0000
0001
0000
0010
0000
0200
0000
1300
0000
,
0100
0000
0010
0000
0001
0000
0010
0000
0001
0000
0010
0000
0001
0100
0001
0000
,
1000
0000
1000
0010
1000
0000
0001
0000
1000
0000
0010
0000
0100
0001
0100
0000
,
0001
0000
1000
0000
0100
0010
0200
0000
1000
0000
2300
0000
0010
0000
3020
0000
,
0100
0000
0230
0000
0301
0010
0001
0000
0010
0000
0100
0000
1000
0001
1000
0000
,
0100
0000
0010
0000
0001
0010
0100
1000
0100
1000
0001
0100
2002
0000
0000
0000
,
3003
0000
2002
3003
2002
3003
0220
0330
,
0220
0330
0202
0303
2020
3030
2002
0000
,
3003
0000
0000
0001
0100
0001
0100
0010
1000
0200
0000
0000
,
0320
0000
0000
0031
0100
0001
0100
0010
1000
0010
1000
0100
,
0010
0000
0000
0000
0100
0000
0000
0000
0010
0000
0000
0000
0001
0000
0000
0000
0000
0000
2000
0000
0000
0000
0000
0000
0000
0000
0000
3000
0000
0000
0100
0000
0000
0010
0000
0000
0100
0000
0000
0000
0000
0000
0010
0000
0000
0000
0000
0000
,
2000
0000
3002
0000
0203
0000
0000
2300
0000
0000
3020
0000
0032
0000
0000
0000
,
0000
0000
0003
0000
1000
0000
1000
0000
0100
0001
0100
0000
1000
0000
1000
0000
,
0100
0001
0100
0000
0010
0100
0010
0000
0100
0010
0100
0000
0001
1000
0002
0000
,
0003
0000
0000
0000
1000
0001
1000
0000
0001
1000
0001
0000
0100
0010
0100
0000
,
0000
1001
0110
2002
0000
0000
0000
3003
;

//---------------dance-single - ----------------
#NOTES:
     dance-single:
     :
     Medium:
     11:
     0.532518,0.672591,0.232285,0.840652,0.127204,337.000000,316.000000,21.000000,76.000000,0.000000,0.000000,0.532518,0.672591,0.232285,0.840652,0.127204,337.000000,316.000000,21.000000,76.000000,0.000000,0.000000:
0000
0000
0000
0000
,
1000
0000
0100
1000
0002
0000
0203
0000
,
0310
0000
1000
0001
0000
2001
0000
0000
,
0002
0000
0000
3003
0000
0000
0200
0320
,
2030
0000
0000
3200
0000
0000
0320
0000
0032
0000
0000
0003
0000
0000
0000
0000
,
1000
0000
1000
0000
0001
1000
0001
0000
1000
0000
1000
0000
0001
1000
0001
0000
,
1000
0000
0002
0003
0100
0000
0200
0000
0000
0000
0000
0000
0000
0000
0300
0000
,
0001
1000
0000
0001
1000
0001
1000
0001
,
0100
0000
0010
0100
0010
0100
0010
0100
,
0002
1000
0100
1003
,
0001
0000
0100
0000
0010
0000
0100
0010
,
0100
0010
0000
1000
0010
1000
0010
1000
,
0001
0000
0001
1000
0001
1000
0001
1000
,
0200
1000
0010
0301
,
0100
1000
0100
1000
0000
0220
0000
0330
,
0002
0000
0000
0000
2003
0000
0000
0000
3010
0000
0000
0100
0000
0000
0001
0000
,
1000
0000
0000
0010
0000
0000
1000
0000
0001
0000
0000
0100
0000
0000
0001
0000
,
0002
0000
1000
0000
1000
0000
1000
0003
,
1001
0000
0000
0110
0000
0000
0000
0000
,
0101
0101
0000
2200
0000
3300
0000
0000
,
0011
0011
0011
1001
0000
0000
0100
1000
,
0020
0230
0302
2003
,
3002
0000
0000
1003
0100
1000
0001
0100
,
0001
1000
0010
1000
0002
0000
0000
0013
,
0002
0000
2003
0000
0000
0000
3001
0100
,
0002
2003
3200
0320
,
0032
0000
0000
1003
0010
1000
0100
1000
,
0020
0000
0000
0000
0000
0000
0000
0030
,
1000
0000
1000
0000
0002
0023
0230
2300
3001
0000
1000
0000
0001
1000
0001
0000
,
1000
0001
1000
0000
0002
0000
2003
0000
3001
1000
0001
0000
1000
0001
1000
0000
,
0002
0000
2003
0000
3001
0000
1000
0000
0002
0000
2003
0000
3001
1000
0001
0000
,
1000
0001
1000
0000
0002
0000
2003
3000
0001
0000
0001
0000
2000
0000
0000
0000
,
3002
0003
0000
0000
0000
0000
1000
0000
0000
0000
0000
0000
0100
0000
0000
0000
0000
0000
1000
0000
0000
0000
0000
0000
0100
0000
0000
0000
0000
0000
1000
0000
0000
0000
0000
0000
0001
0000
0000
0000
0000
0000
0010
0000
0000
0000
0000
0000
,
0001
0010
0001
1000
0001
1000
0010
0100
,
0010
0100
0001
1000
0001
1000
0100
1000
,
0100
1000
0001
1000
0001
1000
0010
0100
,
0010
0100
0001
0100
0001
0100
0001
0100
,
0001
0100
0010
1000
0010
1000
0100
1000
,
0100
1000
0001
0010
0001
0010
0100
0010
,
0100
0010
0100
1000
0100
1000
0001
1000
,
0001
1000
0001
0100
0001
0100
0010
0100
,
0010
0100
0010
1000
0010
1000
0001
1000
,
0001
1000
0001
1000
0001
1000
2002
0000
,
3003
0000
2002
3003
2002
3003
0220
0330
,
0220
0330
2020
3030
0202
0303
2002
0000
,
3003
0000
0000
0000
1000
0001
0000
0000
1000
0001
0000
0000
0020
0000
0000
0000
,
0230
0000
0000
0000
1300
0001
0000
0000
1000
0001
0000
0000
1000
0001
0000
0000
,
1000
0001
0000
0000
1000
0000
0002
0000
0000
0003
0010
0000
0010
0000
0100
0000
,
1000
0000
2000
0000
3020
0000
0000
0230
0000
0000
0302
0000
2003
0000
0000
0000
,
0000
0000
3000
0000
0001
0000
0001
0000
1000
0001
1000
0000
0001
0000
0001
0000
,
1000
0001
1000
0000
0100
0000
0100
0000
0010
0000
0010
0000
0001
0000
0002
0000
,
0003
0000
0001
0001
1000
1000
0010
0010
,
0000
0100
1001
2002
0000
0000
0000
3003
;

//---------------dance-single - ----------------
#NOTES:
     dance-single:
     :
     Easy:
     6:
     0.312874,0.438646,0.132735,0.176979,0.000000,198.000000,186.000000,12.000000,16.000000,0.000000,0.000000,0.312874,0.438646,0.132735,0.176979,0.000000,198.000000,186.000000,12.000000,16.000000,0.000000,0.000000:
0000
0000
0000
0000
,
1000
0001
1001
1001
,
0001
0000
1000
0000
0000
1001
0000
0000
,
0220
0000
0000
0000
0000
0000
0000
0330
,
0001
0000
1000
0000
,
0100
0100
0010
0010
,
0220
0330
0000
0000
0000
0000
0000
0000
,
1000
1000
0000
0000
0001
0000
1000
0000
,
0020
0000
0000
0030
0100
0000
0001
0000
,
2000
0000
0000
0000
,
0000
0000
0000
3000
0000
0000
0001
0000
,
0001
0000
0010
0100
,
1000
0000
0001
0100
,
0020
0000
0000
0000
0000
0000
0000
0030
,
0200
0000
0000
0000
0000
0300
0001
0000
,
1000
0001
1000
0100
,
0010
0001
1000
0010
,
0200
0000
0000
0000
0000
0000
0000
0300
,
0011
0000
0000
1100
0000
0000
0000
0000
,
0100
0010
0000
1001
0000
0000
0000
0000
,
1000
1000
1000
1000
0000
0000
0001
1000
,
0001
0100
0001
1000
,
0200
0000
0000
0300
0010
0000
0001
0000
,
1000
0010
0200
0300
,
0001
0000
0200
0000
0000
0300
0010
0000
,
1000
0001
0010
0100
,
2000
0000
0000
3000
0001
0000
1000
0000
,
0010
0100
0010
0000
0100
0010
0100
0000
,
0001
1000
0000
0000
1000
0000
0001
0000
,
1000
0000
0001
0010
,
0001
0000
1000
0100
,
1000
0000
0001
0000
0100
0100
0000
0000
,
1001
0100
0001
1000
,
0100
0010
0001
1000
,
0010
0100
0100
0100
,
0100
0000
0001
1000
0001
0000
1000
0000
,
0100
0000
0010
0100
0010
0000
0001
0000
,
1000
0000
0010
1000
0010
0000
0100
0001
,
0100
0000
0001
1000
0001
0000
1000
0000
,
0100
0000
0010
0100
0010
0000
0001
0000
,
1000
0010
0010
0100
,
0100
0000
0001
1000
0001
0000
1000
0001
,
1000
0000
0001
1000
0001
0000
1001
0000
,
0000
1000
1000
0001
,
0001
1000
0001
2000
,
0000
0001
0001
0010
,
0010
0100
0100
0001
,
0001
3000
1001
0000
0000
0000
0000
0000
,
0010
0100
0010
0000
0100
0000
0010
0000
,
0000
1000
1000
0001
,
0001
0000
0100
0100
0010
0010
0100
0100
,
0000
0000
0001
0001
1000
1000
0001
0001
,
0000
1000
0001
2002
0000
0000
0000
3003
;
