#TITLE:Skyreach;
#SUBTITLE:Akame Ga Kill Opening;
#ARTIST:PelleK;
#TITLETRANSLIT:;
#SUBTITLETRANSLIT:;
#ARTISTTRANSLIT:;
#GENRE:;
#CREDIT:Magna Trick;
#BANNER:SRBN.jpg;
#BACKGROUND:SRBG.jpg;
#LYRICSPATH:;
#CDTITLE:Magna Trick title!.png;
#MUSIC:Skyreach.mp3;
#OFFSET:0.020000;
#SAMPLESTART:46.000000;
#SAMPLELENGTH:14.000000;
#SELECTABLE:YES;
#BPMS:0.000000=183.979996
;
#STOPS:
;
#BGCHANGES:0.083=Skyreach.avi=1.000=0=0=1=====,
274.000=SRBG.jpg=1.000=0=0=1=====,
99999=-nosongbg-=1.000=0=0=0 // don't automatically add -songbackground-
;
#KEYSOUNDS:;
#ATTACKS:;

//---------------dance-single - ----------------
#NOTES:
     dance-single:
     :
     Hard:
     13:
     0.630464,0.649756,0.239633,0.199694,0.029954,442.000000,418.000000,24.000000,20.000000,0.000000,0.000000,0.630464,0.649756,0.239633,0.199694,0.029954,442.000000,418.000000,24.000000,20.000000,0.000000,0.000000:
0000
0000
0000
0000
0000
0000
1001
1001
,
1000
0100
0001
0100
1000
0100
0001
0100
,
1000
0010
0001
0010
1000
0100
0010
0001
,
0010
1000
0010
0001
0010
1000
0010
0001
,
0100
1000
0100
0001
0020
0000
0031
0010
,
1000
0010
0001
0100
1000
0100
0001
1000
,
0100
0010
1000
0001
0100
0010
0011
0000
,
1000
1010
0000
1000
0001
1001
0000
0100
,
0120
0000
0000
0000
,
0000
0000
0000
0000
0130
0010
0100
0000
0010
0000
0000
0000
1001
0000
1001
0000
,
0001
0001
0001
0001
,
0001
0000
0001
0000
0001
0000
1001
1001
,
1000
0000
1000
0000
1000
1000
0100
1000
,
0001
0101
0000
0101
0000
0000
1001
0001
,
1000
0000
1000
0000
1000
0000
1001
1000
,
0001
0000
0001
0000
0001
0000
1001
0001
,
2000
0000
0001
0000
3001
0002
0003
0002
,
0003
0000
1100
0000
0000
0000
1100
0000
0100
0000
0010
0001
0010
0000
0001
0000
,
0100
1000
0100
0001
0010
0100
0010
0001
,
1000
0010
0001
0010
1000
0100
0010
1000
,
0010
0100
1000
0010
0100
0001
0100
1000
,
0100
0010
0100
0001
0100
0020
0000
1030
,
0010
0001
0010
0100
0010
2000
0000
3100
,
0010
0001
1000
0010
0100
0001
1000
0010
,
1000
0000
0002
0000
0000
2003
0000
3001
,
0100
0010
0100
0001
0100
0010
0000
1000
,
0100
0010
0001
0010
0100
1000
0000
1000
,
0010
0100
0001
0000
0100
1000
0000
0100
,
0010
0100
0001
1000
0000
0100
0000
0010
,
1000
0000
0010
0100
1000
0000
0020
0000
,
0000
0230
0000
0301
,
1000
0000
0100
0000
0010
0001
1000
0100
,
0000
1000
0001
0000
1000
0010
0000
0100
,
0001
0000
0100
0010
0100
1001
0000
1000
,
0100
1000
0001
0100
0010
2000
0000
3100
,
1000
0010
0100
0001
0010
0001
0100
0010
,
1000
0100
1000
0010
0100
0001
1000
0010
,
0100
0001
1000
0100
0010
2000
0000
0000
,
0000
3000
1000
0010
0100
0001
0100
1000
,
0100
0001
1000
0010
0001
0001
1000
0010
,
0100
0001
2000
0000
3100
0000
0010
0000
,
0001
0000
0100
0010
0100
0002
0000
0000
,
1003
0000
0100
1000
0010
0100
0000
0001
,
0100
0000
1000
0000
0100
0010
0000
1000
,
0100
0020
0000
0130
0100
1000
0001
0000
,
0100
0010
0000
0100
1000
0200
0000
0300
,
0100
0000
0001
0010
0001
0100
0000
0001
,
0010
0000
0001
0000
1000
0010
1000
0100
,
1000
0010
0100
0000
0001
0000
1000
0000
,
1000
0000
0001
1000
0010
0200
0000
0000
,
0000
0000
0000
0000
0000
0300
1001
0000
,
0010
1000
0100
1000
0010
0100
0001
0010
,
0001
1000
0010
1000
0001
0010
0001
0100
,
1000
0100
0001
0010
1000
0010
0001
0000
,
1000
0000
0000
0001
0000
0010
0000
0100
0000
1000
0000
0000
,
0010
0100
0000
1000
0100
0010
0000
0100
,
0001
0000
0010
0001
0100
0020
0000
0000
,
0000
0000
1030
1000
0001
0001
0110
0110
,
0000
0000
1001
1001
0000
0110
0000
1000
,
0100
0001
0010
1000
0010
0001
0100
1000
,
0100
0001
1000
0001
1000
0001
0010
0001
,
0100
1000
0100
0001
0010
1000
0010
0001
,
0100
0010
1000
0001
1000
0001
1000
0010
,
0001
0010
1000
0100
0001
0100
1000
0010
,
0001
0010
1000
0100
0010
0001
0010
0000
,
0100
1000
0000
0001
0100
1000
0000
0100
,
0001
0000
0000
0000
0010
0100
0010
0000
0100
0010
0100
0000
1000
0000
1000
0000
,
0001
0010
1000
0100
0010
2000
0000
0000
,
0000
0000
3000
0000
;

//---------------dance-single - ----------------
#NOTES:
     dance-single:
     :
     Challenge:
     15:
     0.785940,0.785111,0.758839,0.249618,0.169740,551.000000,475.000000,76.000000,25.000000,0.000000,0.000000,0.785940,0.785111,0.758839,0.249618,0.169740,551.000000,475.000000,76.000000,25.000000,0.000000,0.000000:
// measure 0
0000
0000
0000
0000
0000
0000
1001
1001
,  // measure 1
0001
0010
1000
0010
0001
0010
1000
0010
,  // measure 2
0001
0110
1000
0110
0001
0010
1001
1001
,  // measure 3
0100
0001
0100
1000
0100
0001
0100
1000
,  // measure 4
0001
0000
0110
0000
1000
0000
0110
0000
0002
0000
0000
0003
1001
0000
1001
0000
,  // measure 5
1000
0100
1000
0010
0001
0010
1000
0001
,  // measure 6
1000
0000
0110
0000
0001
0000
1000
0000
1000
0000
0100
0010
1001
0000
0000
0000
,  // measure 7
0001
0101
0000
0001
1000
1001
0000
1001
,  // measure 8
0210
0000
0000
0000
,  // measure 9
0000
0000
0000
0000
0310
1000
0100
0000
0010
0000
0000
0000
1001
0000
1001
0000
,  // measure 10
1000
1000
1000
1000
,  // measure 11
1000
0000
1000
0000
1000
0000
1001
1001
,  // measure 12
0001
0000
0001
0000
0001
0001
0010
0001
,  // measure 13
1000
1010
0010
1010
0000
0000
1001
1001
,  // measure 14
0001
0000
0001
0000
0001
0000
1001
1001
,  // measure 15
1000
0000
1000
0000
1000
0000
1001
1001
,  // measure 16
0001
0100
1000
0001
0010
2000
3000
2000
,  // measure 17
3000
0000
0011
0000
0000
0000
0011
0000
0010
0000
0100
1000
0100
0000
1000
0000
,  // measure 18
0110
0001
0010
1000
0101
0010
0100
1000
,  // measure 19
0011
0100
1000
0100
1001
0010
0100
0001
,  // measure 20
1100
0010
0001
0100
0011
1000
0010
0001
,  // measure 21
1010
0100
0010
1000
1100
0100
0010
0001
,  // measure 22
0110
1000
0100
0010
1100
0001
1000
0010
,  // measure 23
0101
1000
0001
0100
1010
0001
1000
1000
,  // measure 24
1000
0000
2000
0000
0000
3002
0000
1003
,  // measure 25
0010
0100
0001
0010
0001
0021
0000
0031
,  // measure 26
0010
0100
1000
0100
0010
0021
0000
0031
,  // measure 27
0100
0010
2000
0000
3010
0011
0000
0010
,  // measure 28
0100
0010
0100
0010
1000
0000
0001
0000
0000
0000
1001
0000
0000
0000
0100
0000
,  // measure 29
0010
0100
0010
0100
0001
0000
0001
0000
1000
0000
0000
0000
0200
0000
0000
0000
,  // measure 30
1000
0000
0320
0001
0001
0000
0230
0300
,  // measure 31
0200
0000
0300
0100
0010
0000
0010
0000
0100
0000
0100
0000
1001
0000
1001
0000
,  // measure 32
0000
0001
0101
0000
1000
1100
0000
0010
,  // measure 33
0110
0000
0000
0100
0010
0000
0100
0000
0010
0000
1001
0000
0000
0000
0001
0000
,  // measure 34
0010
0001
2000
0001
3001
1001
0000
0010
,  // measure 35
0001
0100
0010
1000
0100
1000
0010
0100
,  // measure 36
0001
0010
0001
0100
0010
1000
0001
0100
,  // measure 37
0010
1000
0001
0010
0100
0002
0000
0000
,  // measure 38
0000
0003
0001
0001
0001
1000
0010
0001
,  // measure 39
0010
1000
0001
0100
1000
1000
0001
0100
,  // measure 40
0010
1000
0002
0000
0013
0000
0110
0000
,  // measure 41
1000
0000
0000
0000
0010
0100
0001
0000
0100
0000
2100
0000
0000
0000
0000
0000
,  // measure 42
3010
0000
0000
0000
0010
1000
0100
0010
0001
0100
1001
0000
0000
0000
1000
0000
,  // measure 43
0010
0100
0010
0001
0010
0100
0010
1000
,  // measure 44
0010
0200
0000
0310
0010
0001
1000
0100
,  // measure 45
0010
0100
0010
0010
0001
2001
0000
3100
,  // measure 46
0010
0100
0010
0000
1000
0000
0100
0000
0010
0000
1001
0000
0000
0000
1000
0000
,  // measure 47
0100
0010
0100
0001
0100
0100
1000
0010
,  // measure 48
1000
0100
0020
0000
0031
0000
0001
1000
,  // measure 49
0001
1000
0001
0001
0100
0020
0000
0000
,  // measure 50
1000
0000
0030
0000
1000
0010
1000
0001
1000
0010
1000
0001
1001
0000
0000
0000
,  // measure 51
0100
0100
0100
0001
0100
0010
0010
0100
,  // measure 52
0100
0001
0001
0100
1000
1000
1010
0001
,  // measure 53
0010
1000
0100
0001
0010
0210
0000
0000
,  // measure 54
0301
0000
0000
1100
0000
0110
0000
0011
0000
1001
0000
0000
,  // measure 55
0100
0000
0010
0000
0000
0000
0001
0000
0010
0000
1100
0000
0000
0000
0010
1000
,  // measure 56
0001
0000
1000
1000
0010
0200
0000
0000
,  // measure 57
0001
0000
0001
0000
0301
0010
0001
0000
1000
0000
1000
0000
0110
0000
0110
0000
,  // measure 58
0000
0000
1001
1001
0000
0110
0000
0001
,  // measure 59
0010
1000
0100
0001
0100
1000
0010
0001
,  // measure 60
0010
0000
1000
0001
1000
0000
0001
1000
0001
0000
1000
0000
0100
0000
1000
0000
,  // measure 61
0010
0001
0010
1000
0100
0001
0100
1000
,  // measure 62
0010
0000
0100
0001
0100
0000
0001
0100
0001
0000
1000
0000
0001
0000
0100
0000
,  // measure 63
1000
0100
0001
0010
1000
0010
0001
0100
,  // measure 64
1000
0000
0100
0000
0001
0010
0100
1000
0100
1000
0100
1000
1001
0000
0000
0000
,  // measure 65
0010
0011
0000
1000
0010
1010
0000
1001
,  // measure 66
1001
0000
0000
0000
0100
0010
0100
0000
0010
0100
0010
0000
0001
0000
0001
0000
,  // measure 67
1000
0000
0100
0000
0001
0000
0010
0000
0100
1000
0002
0000
0000
0000
0000
0000
,  // measure 68
0000
0000
1003
0001
2000
0000
3000
0000
0000
0000
0000
0000
0000
0000
0000
0000
;

//---------------dance-single - ----------------
#NOTES:
     dance-single:
     :
     Medium:
     7:
     0.397963,0.477894,0.219664,0.199694,0.009985,279.000000,257.000000,22.000000,20.000000,0.000000,0.000000,0.397963,0.477894,0.219664,0.199694,0.009985,279.000000,257.000000,22.000000,20.000000,0.000000,0.000000:
0000
0000
0000
0000
0000
0000
0001
1000
,
0000
0000
0000
0000
,
0000
1001
0000
1001
0000
0000
0001
1000
,
0000
0000
0000
0000
,
0000
1001
0000
1001
0000
0000
1000
0001
,
0000
0000
0000
0000
,
0000
1001
0000
1001
0000
0000
1010
0000
,
0000
0011
0000
0000
0000
0110
0000
0010
,
0002
0000
0000
0000
,
0000
0003
1000
0000
1000
0000
0110
0010
,
0100
0001
0100
0010
,
0100
0000
0001
0000
0100
0000
0110
0010
,
0100
0001
0100
0010
,
0100
0110
0000
0110
0000
0000
0010
0100
,
0010
0000
0100
0000
0010
0000
0110
0010
,
0100
0000
0010
0000
0100
0000
0110
0100
,
0010
0000
0100
0000
0002
0000
0000
1003
,
0000
0000
0010
1000
0010
0000
1001
0000
,
0100
0010
1000
0001
,
0100
0010
1000
0100
,
0010
0001
1000
0100
,
0010
0001
1000
0010
,
0100
0001
1000
0100
,
0010
0000
0001
0000
1000
0000
0001
1000
,
0001
0000
2000
0000
3000
0010
0000
0100
,
0001
0100
0010
1000
,
0100
1000
0001
0010
,
0100
1000
0001
0110
,
0010
1000
0001
1000
,
0200
0000
0000
0300
0010
0000
0002
0000
,
0000
0000
2003
0000
0000
3000
0010
0000
,
0100
0000
0001
0000
1000
0100
1000
0100
,
0000
0010
0001
0000
0010
0100
0000
0010
,
1000
0000
0010
0000
0100
2000
0000
3001
,
0100
0000
0010
0000
1000
0002
0000
0000
,
1003
0100
1000
0001
,
0010
0001
1000
0010
,
0100
0001
0000
1000
0000
0200
0000
0000
,
0000
0300
0010
0001
0000
2000
0000
3000
,
0010
0000
0100
0000
0001
1000
0000
0100
,
0000
0020
0000
0000
0000
0030
0001
0000
,
0001
0000
1000
0001
1000
0002
0000
0000
,
0000
0003
0100
0010
0100
0020
0000
0000
,
1030
0000
0001
0000
1000
0100
0000
0010
,
0000
0001
0000
1000
0010
1000
0010
0000
,
0100
0001
0000
1000
0000
0200
0000
0000
,
0000
0300
1000
0100
1000
0200
0000
0000
,
0310
0000
1000
0000
0010
0100
0000
1000
,
0000
0002
0000
0000
0000
0000
0103
0000
,
0100
0000
0010
0100
0010
0200
0000
0000
,
0000
0000
0000
0000
0000
0300
0001
0000
,
0001
1000
0010
0100
,
0001
1000
0100
0110
,
0100
1000
0001
0100
,
0010
0000
0000
1000
0000
0001
0000
1000
0000
0001
0000
0000
,
1000
0100
0000
1000
0001
1000
0000
0001
,
0100
0000
0001
1000
0001
2000
0000
0000
,
0000
0000
0000
0000
0000
3000
0100
0100
,
0000
0000
0010
0010
0000
1001
0000
0000
,
0001
1000
0010
0100
,
0001
1000
1000
0100
,
0010
0001
0100
0010
,
1000
0001
0001
1000
,
0100
0010
0001
1000
,
0010
0100
0100
1001
,
0000
1001
0000
0000
0000
0110
0000
0010
,
0200
0000
0000
0000
0000
0000
0300
0010
,
1000
0010
1000
0010
1000
0002
0000
0000
,
0000
0000
0000
0003
0000
0000
0000
0000
;

//---------------dance-single - ----------------
#NOTES:
     dance-single:
     :
     Easy:
     6:
     0.319511,0.375488,0.000000,0.179725,0.000000,224.000000,224.000000,0.000000,18.000000,0.000000,0.000000,0.319511,0.375488,0.000000,0.179725,0.000000,224.000000,224.000000,0.000000,18.000000,0.000000,0.000000:
0000
0000
0000
0001
,
0001
1000
0001
1000
,
0001
1000
1000
0001
,
1000
0001
1000
0001
,
1000
1000
1000
0001
,
1000
0001
1000
0001
,
1000
0001
0001
1000
,
0000
0010
0000
0000
0000
0100
0000
0002
,
0000
0000
0000
0000
,
0000
0003
1000
0000
1000
0000
0010
0000
,
0000
0000
0000
0000
,
0000
0000
0000
0000
0000
0000
0100
0100
,
0000
0000
0000
0000
,
0000
0001
0000
0001
0000
0000
1000
1000
,
0000
0000
0000
0100
,
0000
0000
0000
0010
,
0000
0000
0000
0000
0000
0000
0000
0001
,
0000
1000
0010
0100
,
0001
1000
0100
0010
,
0001
1000
0010
0100
,
0001
0100
0001
1000
,
0100
1000
0001
2000
,
0000
3000
0010
0000
0100
0000
0001
0000
,
1000
0100
0010
0001
,
0001
0000
2000
0000
3000
0010
0000
0000
,
0100
0001
1000
0100
,
0100
0010
0010
0100
,
1000
0000
0002
0000
0000
0003
0100
0000
,
0010
0000
2000
0000
0000
3000
0001
0000
,
0200
0000
0000
0300
0010
0000
2000
0000
,
0000
3002
0000
0013
,
0100
0000
1000
0000
0001
0000
0100
0010
,
0000
0100
0010
0000
0100
0010
0000
0100
,
0010
0000
0200
0000
0300
0020
0000
0000
,
0000
0000
0000
0030
0000
1000
0000
0000
,
0001
1000
0001
1000
,
0010
0100
0001
1000
,
0100
0010
0001
2000
,
0000
3000
0010
0000
0100
0000
0010
0000
,
1000
0100
0010
0001
,
1000
0000
0002
0000
0000
0003
0100
0000
,
0100
0010
0200
0000
,
0000
0300
0001
0000
0100
0000
0010
0000
,
1000
0001
0010
0100
,
1000
0001
0100
0010
,
1000
0010
0100
0002
,
0000
0003
1000
0000
0100
0000
1000
0000
,
0001
0010
0001
1000
,
0010
0000
0200
0000
0000
0300
0010
0000
,
0010
1000
0001
0200
,
0000
0010
0310
1000
,
0001
1000
0100
1000
,
0001
0010
0100
1000
,
1000
0001
0001
0100
,
0010
0100
0010
0010
,
0100
0001
1000
0100
,
0010
0001
0001
1000
,
1000
0000
1000
0000
1000
0000
0010
0010
,
0000
0000
0100
0100
0000
0001
0000
0000
,
1000
0100
1000
0001
,
0100
0001
0001
1000
,
0100
0010
0001
1000
,
0010
1000
1000
0001
,
0100
0010
1000
0100
,
0010
0001
1000
0001
,
0000
1000
0000
0000
0000
0001
0000
1000
,
0002
0000
0000
0000
0000
0000
0003
1000
,
0010
0000
1000
0100
0000
2000
0000
0000
,
0000
0000
0000
3000
0000
0000
0000
0000
;
