#TITLE:SIGN;
#SUBTITLE:Naruto Shippuden Opening 6;
#ARTIST:FLOW;
#TITLETRANSLIT:;
#SUBTITLETRANSLIT:;
#ARTISTTRANSLIT:;
#GENRE:;
#CREDIT:;
#BANNER:SBN.jpg;
#BACKGROUND:SBG.jpg;
#LYRICSPATH:;
#CDTITLE:cdtitleitachi.png;
#MUSIC:Naruto Shippuden Opening 6 Sign HD.ogg;
#OFFSET:-0.093000;
#SAMPLESTART:57.662930;
#SAMPLELENGTH:20.193928;
#SELECTABLE:YES;
#BPMS:0.000000=148.000000
,28.000000=177.899994
;
#STOPS:
;
#BGCHANGES:0.083=Naruto Shippuden Opening 6 Sign HD.mpg=1.000=0=0=1=====,
253.500=SBG.jpg=1.000=0=0=1=====,
99999=-nosongbg-=1.000=0=0=0 // don't automatically add -songbackground-
;
#KEYSOUNDS:;
#ATTACKS:;

//---------------dance-single - ----------------
#NOTES:
     dance-single:
     :
     Challenge:
     14:
     0.533434,0.855556,0.664043,0.307962,0.129921,388.000000,319.000000,69.000000,32.000000,0.000000,0.000000,0.533434,0.855556,0.664043,0.307962,0.129921,388.000000,319.000000,69.000000,32.000000,0.000000,0.000000:
// measure 0
0000
0000
0000
0000
2000
3000
0000
0000
0020
0030
0000
0000
0200
0300
0000
0000
,  // measure 1
0002
2003
3020
0230
,  // measure 2
0000
0300
0001
1000
,  // measure 3
0200
0000
0300
0000
2000
3000
0000
0000
0010
0000
0000
0000
0200
0000
0000
0000
,  // measure 4
0000
0000
0300
0000
0001
1000
0000
0020
,  // measure 5
0000
0030
0100
0000
0001
0000
1000
0000
,  // measure 6
1001
0000
1100
0011
,  // measure 7
1100
0000
0000
0000
,  // measure 8
0001
1000
0010
0000
1000
0000
0010
0100
0001
0000
0100
0000
0010
0100
0010
0000
,  // measure 9
1000
0001
1000
0001
1000
0001
1000
0001
1000
0001
1000
0001
1000
0001
1000
0001
,  // measure 10
1000
0001
1100
0001
,  // measure 11
0101
1000
0101
1000
,  // measure 12
0110
0010
0010
1001
,  // measure 13
0110
0000
0010
0100
0010
0000
1000
0000
0001
1000
0001
1000
0001
0010
0100
0000
,  // measure 14
1000
0001
1000
0000
0010
0000
0110
0000
,  // measure 15
0001
0000
1000
0000
0001
0000
1000
0000
0100
0010
0001
0000
0100
0000
0010
1000
,  // measure 16
0100
0000
0101
0000
0001
0100
0001
0200
,  // measure 17
0000
0000
0300
0000
0001
1000
0000
2002
,  // measure 18
3003
0000
0010
0000
0100
0000
0001
0100
,  // measure 19
0000
0010
0100
0000
0001
0000
0100
0010
,  // measure 20
0000
1000
0100
0000
1000
0000
0002
2000
,  // measure 21
0000
0003
3000
0000
0010
0100
0000
0101
,  // measure 22
0000
0000
1001
0000
1100
0000
0010
1000
,  // measure 23
0000
0000
0001
0000
0100
0000
0010
0100
,  // measure 24
0000
1002
0100
1000
,  // measure 25
0100
0000
1003
0000
1100
1100
0000
1000
,  // measure 26
0000
0010
0100
0001
0001
0000
1000
0010
,  // measure 27
0000
1000
0010
0010
0100
0000
0001
0100
,  // measure 28
0000
0010
1000
0001
0000
1000
0100
1000
,  // measure 29
0000
0010
0100
0000
0001
0101
0000
1001
,  // measure 30
0000
0000
0001
1000
0000
1010
0000
0101
,  // measure 31
0000
0000
1001
0000
0010
0000
2000
3002
,  // measure 32
0000
0000
0003
2000
3200
0300
0000
2002
,  // measure 33
0000
0000
0000
0003
3000
0000
1000
0100
,  // measure 34
1000
0100
0000
1100
0000
0010
0100
0010
,  // measure 35
0100
0010
0000
0110
0000
0001
0100
0001
,  // measure 36
0100
0001
0000
0101
0000
0001
1000
0001
,  // measure 37
1000
0001
0000
1001
0000
0000
0001
0000
,  // measure 38
1000
0000
0010
1000
0000
0001
1000
0001
,  // measure 39
1001
0110
0101
0110
,  // measure 40
1000
0001
1000
0001
1000
0000
0001
1000
0001
1000
0001
0000
1000
0001
1000
0001
,  // measure 41
1000
1001
0110
1001
,  // measure 42
1010
0000
1000
0000
0010
0100
0101
0000
,  // measure 43
0100
0000
0100
0001
0100
0000
1010
0000
,  // measure 44
0101
0110
0101
1010
,  // measure 45
0001
0000
1001
0000
0100
1000
0000
2002
,  // measure 46
3003
0000
0110
0000
0001
0000
0100
0010
,  // measure 47
0000
1000
0001
0010
1000
0010
0000
0110
,  // measure 48
0000
0100
0001
0000
0100
0010
0100
0000
,  // measure 49
0001
1001
0011
1001
,  // measure 50
2200
3300
0010
0000
1001
0000
0110
0000
,  // measure 51
0001
1001
0110
1001
,  // measure 52
1100
1010
1001
0220
,  // measure 53
0000
0000
0300
0030
1000
0001
0000
1001
,  // measure 54
0000
0010
1000
0000
0001
0100
0010
0100
,  // measure 55
0000
0001
0000
0100
0001
0000
0100
0010
,  // measure 56
0000
0200
0000
0000
0000
0000
0000
0300
,  // measure 57
0002
0000
0000
0000
1003
0100
0000
1000
,  // measure 58
0000
0001
1000
0001
1000
0010
1000
0001
,  // measure 59
0010
0100
1000
0010
0100
0001
1000
0001
0100
0000
0000
0000
0001
0000
0000
0000
,  // measure 60
0101
0101
1001
1001
,  // measure 61
1100
1100
1010
1010
,  // measure 62
0001
0010
1000
0100
0001
0010
1000
0200
,  // measure 63
0000
0000
0300
0000
;

//---------------dance-single - ----------------
#NOTES:
     dance-single:
     :
     Medium:
     4:
     0.199350,0.335450,0.048119,0.192476,0.000000,145.000000,140.000000,5.000000,20.000000,0.000000,0.000000,0.199350,0.335450,0.048119,0.192476,0.000000,145.000000,140.000000,5.000000,20.000000,0.000000,0.000000:
0000
0000
0000
0000
,
2000
0000
0000
0000
0000
0000
0000
3000
,
0000
0000
0010
0000
,
0020
0000
0000
0000
,
0000
0030
0000
0000
0100
0000
0000
0000
,
0100
0000
0100
0000
,
0100
0000
0100
0100
,
0200
0000
0000
0000
,
0000
0300
0000
0000
,
0000
0000
0000
0000
,
0010
0000
0100
0000
,
0010
0000
1000
0000
,
0010
0000
0100
0000
,
0001
0000
1000
0000
,
0001
0001
1000
1000
,
0001
0001
0100
0100
,
0010
0000
0010
0000
1000
0000
0000
2000
,
0000
0000
3000
0000
,
0010
0000
0000
0000
0010
0000
0000
0010
,
0000
0000
0010
0000
0000
0000
0000
0010
,
0000
0000
0100
0000
0100
0000
0000
0100
,
0000
0000
0000
0000
0010
0000
0000
1000
,
0000
0000
0000
0000
1000
0000
0000
1000
,
0000
0000
0000
0000
0010
0000
0000
0010
,
0000
0020
0000
0000
,
0030
0000
0000
0000
0100
0000
0000
0100
,
0000
0000
0100
0000
0100
0000
0000
0100
,
0000
0000
0100
0000
0010
0000
0000
1000
,
0000
0000
0000
0001
0000
0100
0000
0200
,
0000
0300
0000
0000
0010
0000
0000
0010
,
0000
0000
0000
0000
0000
0000
0000
2000
,
0000
3000
0000
0000
0000
0000
0000
0000
,
0020
0000
0000
0030
0000
0000
0000
2002
,
0000
0000
0000
3003
0000
0000
0000
0000
,
1000
0000
1000
0000
,
0010
0000
0010
0000
,
0100
0000
0100
0000
,
0010
0000
0010
0000
,
1000
1000
1000
0000
,
0010
0010
0010
0000
,
1000
0000
0000
0010
0000
0000
0100
0000
,
1001
0000
0000
0000
,
1010
0010
0100
0001
,
1000
0010
0100
0001
,
1001
0010
0100
0001
,
1000
0100
1000
0010
,
1000
0000
0000
0000
1000
0000
0000
1000
,
0000
0000
0010
0000
0100
0000
0000
0100
,
0000
0200
0000
0000
,
0300
0010
0010
1000
,
0001
0100
0010
0200
,
0000
0300
0010
0000
1000
0000
0001
0000
,
1000
0100
1000
0200
,
0000
0000
0300
0000
1000
0000
0000
0010
,
0000
0000
0010
0000
0100
0000
0000
0100
,
0000
0000
0100
0000
0001
0000
0000
0001
,
0000
0000
0002
0000
0000
0003
0000
0000
,
1000
0000
0000
0000
0010
0000
0000
0100
,
0000
0000
0001
0000
1000
0000
0000
1001
,
0000
0010
0100
0000
,
0200
0000
0000
0300
0020
0000
0000
0030
,
2000
0000
0000
0000
3002
0000
0000
0003
,
2000
0000
0000
3000
0100
0000
0000
2000
,
0000
0000
0000
3000
0000
0000
0000
0000
;

//---------------dance-single - ----------------
#NOTES:
     dance-single:
     :
     Hard:
     10:
     0.409699,0.486965,0.461943,0.490814,0.000000,298.000000,250.000000,48.000000,51.000000,0.000000,0.000000,0.409699,0.486965,0.461943,0.490814,0.000000,298.000000,250.000000,48.000000,51.000000,0.000000,0.000000:
0000
0000
0002
0003
2000
3000
0002
0003
,
2000
3020
0230
0302
,
0000
0003
0000
0000
2000
0000
3020
0000
,
0230
0320
0230
0302
,
0000
0000
0003
0000
1000
1000
0000
2000
,
0000
3000
0100
0000
1000
0000
0010
0000
,
0200
0300
0001
1000
,
0210
0000
0000
0000
0000
0300
0000
0000
,
0100
0010
1000
0000
0010
0100
0001
0000
,
1000
0001
0010
0010
1000
0010
0010
0000
,
2002
3003
0220
0330
,
0202
0303
2020
3030
,
2200
3300
0220
0330
,
2002
3003
2200
3300
,
0100
1000
0010
0100
,
0001
0001
0100
0010
,
0100
0000
0001
0000
1000
0100
1000
0200
,
0000
0000
0300
0000
1000
1000
0000
0010
,
0000
0000
0100
0000
0001
0000
1000
0100
,
0000
1000
0010
0000
0100
0000
0001
1000
,
0000
0100
1000
0000
0010
0000
0100
0010
,
0000
0000
0000
0000
1000
0100
0000
1100
,
0000
0000
0010
0000
0100
0000
0001
0101
,
0000
0000
0001
0000
1000
0000
0100
1000
,
0000
2200
0000
0000
,
0000
3300
0000
0000
1001
1001
0000
0010
,
0000
0100
0000
0001
1000
0000
0100
1000
,
0000
0010
0100
0000
0001
0000
1000
0100
,
0000
1000
0100
1000
0000
0010
1000
0010
,
0000
0000
0000
0000
0100
0010
0000
0110
,
0000
0000
0001
0010
0000
0110
0000
1100
,
0000
0000
0001
0000
0010
0000
0001
0010
,
0000
0000
0000
0011
0011
0000
0000
2002
,
0000
0000
0000
3003
0000
0000
1000
1000
,
0010
0100
0000
0100
0000
0001
1000
0100
,
0010
0010
0000
0100
0000
0001
1000
0100
,
0010
0010
0000
0100
0000
0001
0100
0010
,
0010
0001
0000
1001
0000
0000
1000
0000
,
0100
0000
1000
0100
1000
0010
0100
0010
,
1000
1001
0110
1001
,
1000
0100
1000
0010
0100
0010
0100
0001
,
0010
0001
0011
0110
,
1100
1010
1100
0020
,
0000
0030
0100
0000
0001
0000
1000
0000
,
1100
1010
0110
0202
,
0000
0000
0303
0000
0001
0010
0000
0001
,
0000
0000
1000
0000
0100
0000
1000
0010
,
0000
0100
0001
1000
0100
0010
0000
0001
,
0000
1000
0020
0000
0000
0000
0000
0030
,
0000
1100
0110
0011
,
1001
0110
1001
2100
,
3000
1100
0110
0011
,
0110
1100
1010
0220
,
0000
0000
0330
0000
1000
0100
0000
1000
,
0000
0010
1000
0100
1000
0010
1000
0100
,
0000
1000
0000
0001
0100
0000
0010
0100
,
0000
0001
0020
0000
0000
0000
0030
0000
,
0001
0000
1000
0000
0100
1000
0000
0010
,
0000
0100
0001
1000
0100
0010
0001
1000
,
0000
0010
0000
0100
0001
0000
1000
0000
,
0200
0000
2300
0000
,
3020
0000
0000
0000
0230
0000
0000
0300
,
0001
0000
0010
0000
0100
1000
0010
0202
,
0000
0303
0000
0000
;

//---------------dance-single - ----------------
#NOTES:
     dance-single:
     :
     Easy:
     1:
     0.098988,0.243963,0.057743,0.144357,0.000000,72.000000,66.000000,6.000000,15.000000,0.000000,0.000000,0.098988,0.243963,0.057743,0.144357,0.000000,72.000000,66.000000,6.000000,15.000000,0.000000,0.000000:
0000
0000
0000
0000
,
0000
0000
0000
0000
,
0000
0000
0000
0000
,
0000
0000
0000
0000
,
0000
0000
0000
0000
,
0000
0000
0000
0000
,
0000
0000
0000
0000
,
0000
0000
0000
0000
,
0000
0000
0000
0000
,
0000
0000
0000
0000
,
0000
2000
0000
0000
0000
0000
0000
0000
,
0000
3000
0000
0000
0000
0000
0000
0000
,
0020
0000
0000
0000
,
0000
0000
0000
0030
0000
0000
0000
0000
,
0200
0000
0000
0000
,
0000
0000
0000
0300
0000
0000
0000
0000
,
0020
0000
0000
0000
0000
0000
0000
0030
,
0000
0000
0000
0000
,
1000
0000
0000
0000
,
1000
0000
0000
0000
,
0010
0000
0000
0000
0000
0000
0000
0010
,
0000
0000
0000
0000
0010
0000
0000
0010
,
0000
0000
0000
0000
0000
0000
0000
0100
,
0000
0000
0000
0000
0000
0000
0000
2002
,
0000
0000
0000
0000
0000
0000
0000
3003
,
0000
0000
0000
0000
,
1000
0000
0000
0000
,
0000
0000
0000
0000
,
0001
0000
0000
0000
,
0000
0000
0000
0000
0100
0000
0000
0100
,
0000
0000
0000
0000
0000
0100
0000
0100
,
0000
0000
0000
0000
0000
0000
0000
0010
,
0000
0000
0000
0000
0010
0000
0000
0020
,
0000
0000
0000
0030
0000
0000
0000
0000
,
1001
0000
0000
0000
,
1001
0000
0000
0000
,
1001
0000
0000
0000
,
1001
0000
0000
0000
,
0001
0000
0000
0000
,
1000
0000
0010
0000
,
0100
0000
0000
0100
0000
0000
0100
0000
,
0100
0000
0000
0000
,
0010
0010
0010
0010
,
0000
0000
0000
0000
,
0100
0100
0100
0100
,
0000
0000
0000
0000
0000
0000
0000
0010
,
0000
0000
0000
0000
0000
0000
0000
0010
,
0000
0000
0000
0000
0000
0000
0000
0020
,
0000
0000
0000
0000
0000
0030
0000
0000
,
0000
0100
0100
0100
,
0100
0100
0100
0100
,
0000
0010
0010
0010
,
0010
0010
0010
0020
,
0000
0030
0000
0000
0000
0000
0000
1000
,
0000
0000
0000
0000
0000
0000
0000
1000
,
0000
0000
0000
0000
0000
0000
0000
2000
,
0000
0000
3000
0000
,
0000
0000
0000
0000
0000
0000
0000
0010
,
0000
0000
0000
0000
0000
0000
0000
0010
,
0000
0000
0000
0000
,
0020
0000
0000
0030
,
0200
0000
0300
0000
,
0002
0000
0000
0003
0000
0000
2002
0000
,
0000
0000
0000
3003
0000
0000
0000
0000
;
