#TITLE:Si tu lo deseas [Butterfly];
#SUBTITLE:Digimon Opening Latino;
#ARTIST:César Franco;
#TITLETRANSLIT:;
#SUBTITLETRANSLIT:;
#ARTISTTRANSLIT:;
#GENRE:;
#CREDIT:Magna Trick;
#BANNER:STLDBN.png;
#BACKGROUND:STLDB.png;
#LYRICSPATH:;
#CDTITLE:Magna Trick title!.png;
#MUSIC:Si tu lo deseas.mp3;
#OFFSET:-0.039094;
#SAMPLESTART:50.000000;
#SAMPLELENGTH:15.000000;
#SELECTABLE:YES;
#BPMS:0.000000=165.000000
,150.500000=82.500000
,152.000000=165.000000
;
#STOPS:
;
#BGCHANGES:0.083=Si tu lo deseas.avi=1.000=0=0=1=====,
255.000=STLDB.png=1.000=0=0=1=====,
99999=-nosongbg-=1.000=0=0=0 // don't automatically add -songbackground-
;
#KEYSOUNDS:;
#ATTACKS:;

//---------------dance-single - ----------------
#NOTES:
     dance-single:
     :
     Hard:
     13:
     0.652214,1.091781,0.280794,0.259994,0.207995,439.000000,412.000000,27.000000,25.000000,0.000000,0.000000,0.652214,1.091781,0.280794,0.259994,0.207995,439.000000,412.000000,27.000000,25.000000,0.000000,0.000000:
0000
0000
0000
0000
,
0001
1000
0001
0000
1000
0001
1000
0000
,
0001
0000
0010
0100
0000
1000
0001
0000
,
0100
0010
1000
0000
0010
0100
0001
1000
,
0010
0000
0100
0000
0001
1000
0010
0100
0001
1000
0010
0000
0000
0000
1000
0000
,
0001
0000
0100
0010
0000
2000
0000
0000
,
3002
0000
0000
0000
0003
0010
0000
0100
,
1000
0000
0001
0100
0000
0020
0000
0000
,
2030
0000
0000
3002
0003
1001
0000
0100
,
1000
0000
0001
0100
0000
0020
0000
0000
,
2030
0000
0000
0000
3000
0001
0000
0010
,
0100
0000
1000
0001
0000
0100
0100
0100
,
0010
0000
0010
0000
0010
0000
1000
0010
1000
0010
1000
0000
0100
0000
1000
0000
,
0010
0100
0000
0100
0010
0000
2000
0000
,
0000
0000
3000
0001
0010
0000
0010
0001
,
0100
0010
0000
0010
0100
0000
0200
0000
,
0300
0000
1000
0100
0001
0020
0000
0000
,
0030
0000
0010
0001
0100
0000
0100
1000
,
0001
0000
0001
0020
0000
2030
0000
3001
,
1000
0001
0010
0100
1000
0000
1000
0010
,
0100
0001
1000
0010
0000
0010
0010
1000
,
1000
0001
0000
0001
0010
0000
0010
0011
,
0000
0100
1100
0000
0001
0000
0100
0010
,
0100
0001
0000
0001
0010
0000
0010
1010
,
0000
0001
0101
1000
0001
1000
0002
0000
,
0003
0000
1000
0100
0002
0003
0001
1000
,
0020
0030
0010
0011
0000
1001
0000
0001
,
0001
1000
1000
0010
0100
0000
0010
0010
,
0100
0100
0010
0100
1000
0100
0100
0001
,
0001
0010
0010
0100
1000
0001
0001
0100
,
0010
0010
1000
0001
0001
0010
0100
1000
,
0001
0100
0010
1000
1000
0001
0010
0100
,
0100
0010
0001
0100
0010
1000
1000
0001
,
0001
0100
0100
0010
0010
1000
1000
1000
,
0001
0001
0001
0010
0100
1001
0001
0100
,
0101
0001
1000
0100
1100
1000
0001
0010
,
0011
0000
1000
0000
0010
0000
1000
0000
0001
0000
1001
0000
0010
0100
0010
0000
,
1000
0000
0000
0000
0001
0000
1000
0000
0001
0000
0000
0000
1000
0000
0001
0000
0100
0000
0010
0000
1001
0000
0010
0100
0010
0000
1000
0001
1000
0000
0010
0000
,
1001
0000
0001
0000
0010
0100
0000
0100
,
1000
0000
1000
0000
0010
0100
0000
0100
,
0001
0001
0100
0000
0001
1000
0000
1000
,
0010
0010
1000
0200
0000
2300
0000
3002
,
0000
0103
0010
0000
0010
0100
0000
0100
,
0001
0011
0000
0100
1000
1010
0000
0100
,
0010
0000
0010
0100
1000
0100
0001
0010
,
0100
0000
1000
0000
0001
0000
0100
0000
0010
0000
1000
0000
0100
0000
1000
0100
,
1000
0001
0100
0001
0010
0000
0000
0000
0010
0000
0100
0000
0000
0000
0100
0000
,
0010
0000
0100
0000
1000
0001
0000
0001
,
0010
0100
1000
0000
1000
0010
0000
0010
,
0100
0001
0101
0001
0000
1000
0010
1000
,
0100
1100
0100
0000
1000
0001
0000
0001
,
1000
1001
0000
1000
0001
1001
0000
0010
,
0010
0000
0100
0000
1000
0100
1000
0100
1000
0100
1000
0100
1000
0100
1000
0100
,
1000
0100
1000
0100
0010
0001
0010
0001
0010
0001
0010
0001
0010
0001
0010
0001
,
1000
0001
0100
0010
2000
0000
0000
0000
3001
0000
1000
0001
1000
0000
0001
0000
,
0020
0000
0230
0000
1300
0001
0000
0001
,
0100
0000
0000
0000
0110
0000
0000
0000
0010
0000
1000
0010
1000
0000
0001
0000
,
0100
0000
0020
0000
1030
0100
0000
0100
,
0010
0000
0000
0000
0011
0000
0000
0000
0001
0000
0010
0100
0010
0000
0100
0000
,
1000
0000
0002
0000
0103
0010
0000
0010
,
0100
0000
0000
0000
0001
1000
0001
1000
0001
0000
0000
0000
1000
0001
1000
0001
,
1000
0010
1001
0000
0000
1001
0000
0000
,
0220
0000
0000
0000
,
0000
0330
0101
0001
1000
1010
0000
0000
;

//---------------dance-single - ----------------
#NOTES:
     dance-single:
     :
     Challenge:
     15:
     0.863181,1.091781,0.592787,0.197596,0.379591,581.000000,524.000000,57.000000,19.000000,0.000000,0.000000,0.863181,1.091781,0.592787,0.197596,0.379591,581.000000,524.000000,57.000000,19.000000,0.000000,0.000000:
// measure 0
0000
0000
0000
0000
,  // measure 1
0100
1000
0100
0000
0010
0001
0010
0000
,  // measure 2
1000
0001
0000
0000
0000
0000
0001
0000
0000
0001
0000
0000
1000
0000
0000
1001
0000
0000
0001
0000
0000
0000
0000
0000
,  // measure 3
0010
0100
1000
1001
0100
0010
0010
0010
,  // measure 4
0010
0000
0000
0000
0000
0000
0010
0000
0000
0000
0000
0000
0001
0000
0000
0010
0000
0000
0100
0000
0000
0001
0000
0000
0100
0000
0000
1000
0000
0000
0010
0000
0000
0000
0000
0000
0000
0000
0000
0000
1000
0000
0010
0000
0000
0000
0000
0000
,  // measure 5
0010
1000
0001
0000
1000
0000
0110
0000
0001
0000
0110
0000
1000
0000
0001
0000
,  // measure 6
1000
0000
0110
0000
0001
0000
1000
0000
0100
1000
0001
0000
0100
0000
0010
0000
,  // measure 7
0001
0010
0100
0000
1000
0000
0010
0000
1000
0000
0110
0000
0001
0000
1000
0000
,  // measure 8
0110
0000
0000
1000
0000
0000
0001
0000
0000
0220
0000
0000
0330
0000
0000
1001
0000
0000
0000
0000
0001
1000
0000
0000
,  // measure 9
0001
1000
0001
0000
1000
0000
0010
0000
1000
0000
0110
0000
0001
0000
1000
0000
,  // measure 10
0110
0000
0000
0000
0000
0000
1000
0000
0000
0000
0000
0000
0000
0000
0000
0000
0001
0000
1000
0000
0000
0000
0000
0000
0001
0000
0000
1000
0000
0000
0001
0000
0000
0000
0000
0000
0100
0000
0000
0000
0000
0000
0100
0000
0000
0000
0000
0000
,  // measure 11
0010
0100
0010
0000
1000
0000
1000
0000
0001
0000
1001
0000
1000
0000
1000
0000
,  // measure 12
1001
0000
0001
0000
0001
0000
1001
0100
0010
0100
0010
0000
0001
0000
1000
0000
,  // measure 13
0100
0010
0000
0010
0100
1000
0002
0100
,  // measure 14
0003
0100
0010
1000
1100
0000
0100
1000
,  // measure 15
0010
0100
0000
0100
0010
1000
0020
0100
,  // measure 16
0030
0001
0001
0010
1000
0200
0001
0001
,  // measure 17
0300
0001
0100
1000
1100
0000
0010
0001
,  // measure 18
0011
0000
1000
0200
0000
0302
0000
1003
,  // measure 19
0001
1000
0100
0010
0011
0000
0011
0100
,  // measure 20
0010
0000
1000
0000
0001
0000
0100
0000
0001
0100
0001
0000
0100
0000
0001
0000
,  // measure 21
0001
1000
0000
1000
0100
0000
0100
1100
,  // measure 22
0000
0000
0010
0000
0011
0000
0001
0100
0010
0000
0000
0000
0010
0000
0100
0000
,  // measure 23
0010
1000
0000
1000
0100
0000
0100
0101
,  // measure 24
0000
0000
1000
0000
1010
0000
0001
0000
1000
0001
0100
0000
0020
0000
0100
0000
,  // measure 25
0030
0001
0001
0010
2000
3000
1000
0001
,  // measure 26
0200
0000
0000
0000
0300
0000
0000
0000
0100
0000
0000
0001
1000
0000
0000
0000
0000
0000
0000
0000
1001
0000
0000
0000
0000
0000
0000
0000
1000
0000
0000
0000
,  // measure 27
1000
0000
0001
0000
0001
0100
0010
0000
1000
0000
0000
0000
0100
0000
0100
0000
,  // measure 28
0010
0000
0001
0010
0001
0000
1000
0100
1000
0001
0010
0000
0010
0000
0001
0000
,  // measure 29
0001
0100
0100
0001
1000
1100
0001
0100
,  // measure 30
0101
0001
1000
0100
0100
1100
0001
0100
,  // measure 31
0101
0010
0100
0001
0001
1100
0001
0100
,  // measure 32
0101
0010
1000
0010
0010
0100
0100
0100
,  // measure 33
0100
0010
0100
0100
0100
0101
1000
0100
,  // measure 34
1100
0000
0001
0000
1000
0000
0100
0000
0010
0001
0011
0000
1000
0000
0010
0000
,  // measure 35
1010
1000
0001
0010
0011
0001
1000
0100
,  // measure 36
1100
0000
0001
0000
0100
0000
0001
0000
1000
0000
1001
0000
0100
0010
0100
0010
,  // measure 37
0001
0000
1000
0000
0001
0000
1000
0000
0010
0000
0100
0000
0001
0000
1000
0000
0010
0000
0100
0000
1001
0000
0100
0010
0100
0000
1000
0001
1000
0000
0100
0000
,  // measure 38
1001
0000
1000
0100
1000
0010
0010
0100
,  // measure 39
0001
0001
1000
1000
0100
0010
0010
0001
,  // measure 40
0001
0100
0100
0100
0100
0100
0100
0010
,  // measure 41
1000
0001
1000
1000
0001
0100
0100
0010
,  // measure 42
0010
0100
0010
0010
1000
0001
0100
0001
,  // measure 43
0001
0101
0010
1000
1000
1100
0010
0001
,  // measure 44
0001
1000
0001
0001
1000
1000
0001
0001
,  // measure 45
0010
0000
0010
0000
0110
0000
0100
0000
0110
0000
0100
0000
0110
0000
0001
0010
,  // measure 46
0001
1000
0010
1000
0100
0000
0100
0000
0100
0000
0010
0000
0010
0000
0010
0000
,  // measure 47
0001
0001
1000
1000
1000
0010
0010
0010
,  // measure 48
0100
0100
0001
0001
0001
0001
0001
0001
,  // measure 49
1000
1000
0100
0100
0010
0001
1000
0001
,  // measure 50
0100
0001
0001
1000
0100
0010
0001
0001
,  // measure 51
0001
0101
0010
1000
1000
1100
0010
0001
,  // measure 52
0001
0000
0010
0000
0001
0010
0100
1000
0001
0010
0100
1000
0001
0010
0100
1000
,  // measure 53
0001
0010
0100
1000
0010
0100
0001
1000
0010
0100
0001
1000
0010
0100
0001
0100
,  // measure 54
0010
1000
0100
1000
0002
0000
0000
0000
1003
0000
0001
1000
0001
0000
1000
0000
,  // measure 55
0200
0300
2001
3000
0001
1002
0003
1000
,  // measure 56
0010
0000
0100
0010
0100
0000
0000
0000
0100
0000
0001
0100
0001
0000
1000
0000
,  // measure 57
0010
0000
1002
0003
1000
2001
3000
0010
,  // measure 58
0100
0000
1000
0100
1000
0000
0000
0000
1000
0000
0100
0010
0100
0000
0010
0000
,  // measure 59
0001
0000
2001
3000
0001
1002
0003
0100
,  // measure 60
0010
0000
1000
0000
0001
1000
0001
0010
0001
0100
0001
1000
0100
1000
0010
1000
,  // measure 61
0001
0100
0010
0100
1001
0000
0000
0000
1000
0000
1001
0000
0000
0000
0000
0000
,  // measure 62
0110
0000
0000
0000
0010
1000
0010
0100
0001
1000
0010
0100
0002
0000
0000
0000
,  // measure 63
1003
0100
0000
0000
0000
0000
1010
0000
0000
1000
0000
0000
0001
0000
0000
0101
0000
0000
0000
0000
0000
0000
0000
0000
;

//---------------dance-single - ----------------
#NOTES:
     dance-single:
     :
     Medium:
     9:
     0.490275,0.661685,0.072798,0.145597,0.036399,330.000000,323.000000,7.000000,14.000000,0.000000,0.000000,0.490275,0.661685,0.072798,0.145597,0.036399,330.000000,323.000000,7.000000,14.000000,0.000000,0.000000:
0000
0000
0000
0000
,
1000
0001
1000
0000
0001
1000
0001
0000
,
1000
0000
0100
0100
0000
0010
0010
0000
,
0001
0010
0001
0000
0100
0100
0010
0010
,
1000
1000
0001
0001
1000
0100
0000
0010
,
0010
0000
0001
0001
0000
0002
0000
0000
,
2003
0000
0000
0000
3000
0100
0000
0010
,
0010
0000
0001
0001
0000
0200
0000
0000
,
0302
0000
0000
2003
3000
1001
0000
0001
,
0001
0000
1000
1000
0000
0200
0000
0000
,
0320
0000
0000
0000
0030
0001
0000
0100
,
0100
0000
0001
0001
0000
0010
0001
0010
,
0100
1000
0100
0100
0100
0100
0010
0001
,
0100
0010
0000
0010
0100
0000
0002
0000
,
0000
0000
0003
1000
0100
0000
0100
1000
,
0010
0100
0000
0100
0010
0000
0020
0000
,
0030
0000
1000
0010
1000
0200
0000
0000
,
0300
0000
0100
1000
0010
0000
0010
1000
,
0100
0000
1000
0200
0000
1300
0000
0001
,
1000
0001
1000
0001
1000
0000
0010
0100
,
0010
0100
0010
0100
0000
0010
0010
1000
,
1000
0001
0000
0001
0100
0000
0100
0000
,
0000
0000
0000
0001
1000
0000
1000
0100
,
0010
0100
0000
0010
0100
0000
0100
0000
,
0000
0000
0010
0001
0100
0010
0010
0000
,
0000
0000
0010
0100
0001
0000
0001
0100
,
0010
0000
0010
0100
0000
0001
0000
0100
,
0100
0010
0010
1000
1000
0000
0001
0001
,
1000
1000
0001
0001
0000
1000
0000
0001
,
0000
1000
0001
1000
0000
0001
0000
0010
,
0001
0000
0010
0001
0000
1000
0000
0001
,
0000
1000
0001
1000
0000
0001
0000
1000
,
0010
0000
1000
0010
0000
1000
0000
0001
,
0000
0100
0010
0100
0000
0010
0000
0100
,
0010
0000
0010
0100
0000
0010
0000
0100
,
0001
0000
0001
1000
0001
0000
1000
0001
,
1000
0000
1000
0001
0000
1000
0000
1000
,
0000
0000
0000
0000
0001
0000
0000
0000
0000
0000
0000
0000
0001
0000
1000
0000
0001
0000
1000
0000
0001
0000
0100
0010
0100
0000
0001
1000
0001
0000
0100
0000
,
1001
0000
0001
0000
0100
0001
0000
0001
,
0100
0000
0010
0000
1000
0010
0000
0010
,
1000
0010
1000
0000
1000
0000
0001
0000
,
0001
0000
0100
0010
0100
0010
0000
1000
,
0000
0001
1000
0000
0001
0010
0000
0010
,
0001
0010
0000
0010
0001
0100
0000
0100
,
0001
1000
1000
0001
,
0001
0000
0100
0010
0100
0000
0010
0000
,
0010
0000
1000
0000
0001
1000
0000
1000
,
0001
0000
0001
0000
0010
0001
0000
0001
,
1000
0001
0100
0000
0100
0000
0010
0000
,
1000
0010
1000
0010
0000
1000
0010
1000
,
0010
2000
0000
0000
3000
0001
0000
0001
,
0010
0001
0000
0001
1000
0001
0000
0001
,
1000
1000
1000
1000
,
1000
0001
0001
0001
,
0100
0010
0100
0000
0010
0000
0100
0001
,
0100
0000
0010
0000
1000
0100
0000
0100
,
1000
0000
0001
0000
0100
0000
0010
0100
,
0010
0000
1000
0000
0001
1000
0000
1000
,
0001
0000
0010
0000
0100
0000
0010
0100
,
0010
0000
0001
0000
1000
0001
0000
0001
,
1000
0001
0100
0100
,
0100
0000
1001
0000
0000
1001
0000
0000
,
0220
0000
0000
0000
,
0000
0330
1010
1000
0001
0101
0000
0000
;

//---------------dance-single - ----------------
#NOTES:
     dance-single:
     :
     Easy:
     6:
     0.328336,0.463180,0.197596,0.031199,0.000000,221.000000,202.000000,19.000000,3.000000,0.000000,0.000000,0.328336,0.463180,0.197596,0.031199,0.000000,221.000000,202.000000,19.000000,3.000000,0.000000,0.000000:
0000
0000
0000
0000
,
0000
0000
0000
0000
,
0000
0000
0000
0000
,
0000
0000
0000
0000
0000
1000
0000
1000
,
0000
0001
0000
0001
0000
0100
0000
0000
,
0000
0010
0000
0000
0000
1000
0000
0000
,
0000
0001
0000
0000
0000
0010
0000
0010
,
0000
0100
0000
0000
0000
1000
0000
0000
,
0000
0001
0000
0000
0000
0100
0000
0100
,
0000
0010
0000
0000
0000
1000
0000
0000
,
0000
0001
0000
0000
0000
0010
0000
0010
,
0000
0100
0000
0100
0000
1000
0000
0000
,
0001
0000
0000
0100
0000
0010
0000
0010
,
0000
1000
0000
1000
0000
0001
0000
0100
,
0000
0000
0000
0001
0000
0001
0000
1000
,
0000
1000
0000
0100
0000
0100
0000
0010
,
0000
0000
0000
0001
0000
1000
0000
0000
,
0000
0000
1000
0000
,
0001
0000
0000
0000
0000
0100
0000
0010
,
0000
1000
0000
0001
0000
0100
0000
0010
,
0000
0010
0000
1000
0000
0001
0000
0100
,
0000
0001
0000
0100
0000
0001
0000
1000
,
0000
1000
0000
0000
0000
1000
0000
0100
,
0000
1000
0000
0100
0000
1000
0000
0001
,
0000
0001
0000
0000
0000
0100
0000
0000
,
0000
0000
0010
0000
,
0100
0000
0000
0000
0000
1001
0000
0001
,
0000
0100
0000
0001
0000
0100
0000
0001
,
0000
1000
0000
1000
0000
1100
0000
1100
,
0000
1100
0000
1100
0000
1100
0000
0000
,
0000
0000
0000
0000
0000
1000
0000
0001
,
0000
1000
0000
0001
0000
1000
0000
0000
,
0000
0000
0000
0001
0000
1000
0000
0101
,
0000
0101
0000
0101
0000
0101
0000
0000
,
0000
0000
0000
1000
0000
1001
0000
0000
,
0000
1001
0000
0000
0000
1001
0000
0000
,
0000
1001
0000
0000
0000
0010
0000
1000
,
0000
0010
0000
1000
0000
0001
1000
1000
,
0000
1001
0001
0010
,
0001
0010
0100
0010
,
0100
1000
0100
1000
,
0100
1000
1000
0001
,
0001
0100
0010
0100
,
0001
0101
0001
1000
,
0100
1100
1000
1000
,
1000
0010
0010
0010
,
0100
0100
0001
0100
,
0001
0100
0001
1000
,
0100
1000
1000
0001
,
0001
0010
0100
0010
,
0001
0100
0100
0010
,
0010
1010
0001
0101
,
0001
1000
1000
1000
,
1000
0001
0001
0001
,
0001
0010
0100
1000
,
1000
0001
1000
0010
,
0100
0001
0010
0100
,
0100
1000
0001
1000
,
0010
0100
0001
0010
,
0100
0100
1000
1000
,
0001
1000
0001
1000
,
0001
0000
0200
0000
0300
0020
0000
0030
,
2000
0000
0000
0000
,
3000
0000
0001
1000
0001
1000
0000
0000
;
