#TITLE:Shoukei to Shikabane no Michi;
#SUBTITLE:Shingeki No Kyojin Opening 5;
#ARTIST:Revo w/Linked Horizon;
#TITLETRANSLIT:;
#SUBTITLETRANSLIT:;
#ARTISTTRANSLIT:;
#GENRE:;
#CREDIT:Magna Trick;
#BANNER:STSNMBN.png;
#BACKGROUND:STSNMB.png;
#LYRICSPATH:;
#CDTITLE:Magna Trick title!.png;
#MUSIC:Shoukei to Shikabane no Michi.mp3;
#OFFSET:0.048538;
#SAMPLESTART:49.000000;
#SAMPLELENGTH:17.000000;
#SELECTABLE:YES;
#BPMS:0.000000=267.000000
,16.500000=178.000000
,96.500000=356.000000
,136.500000=89.000000
,142.500000=178.000000
,162.500000=356.000000
,218.500000=178.000000
,237.500000=356.000000
,265.500000=178.000000
,271.500000=89.000000
,273.500000=356.000000
,337.500000=178.000000
;
#STOPS:218.500000=0.340000
;
#BGCHANGES:0.063=Shoukei to Shikabane no Michi.avi=1.000=0=0=1=====,
349.000=STSNMB.png=1.000=0=0=1=====,
99999=-nosongbg-=1.000=0=0=0 // don't automatically add -songbackground-
;
#KEYSOUNDS:;
#ATTACKS:;

//---------------dance-single - ----------------
#NOTES:
     dance-single:
     :
     Hard:
     14:
     0.724510,1.364374,0.367021,0.200194,0.278047,456.000000,423.000000,33.000000,18.000000,0.000000,0.000000,0.724510,1.364374,0.367021,0.200194,0.278047,456.000000,423.000000,33.000000,18.000000,0.000000,0.000000:
0000
0000
0000
0000
,
0000
0000
1000
0000
0000
0100
0000
0000
0010
0000
0000
0001
0000
0000
0000
0000
,
0000
0010
0000
0000
0000
0000
0000
0100
0000
0000
0000
0000
0000
1000
0000
0000
,
0001
0000
0000
1000
0000
0000
0000
0000
0000
0002
0000
0000
0000
0000
0000
0003
,
0000
0110
0010
0100
0010
0100
0010
0100
,
0010
1000
0010
0000
0100
0000
0010
0000
0100
0001
0100
0000
0001
0000
0100
0000
,
0010
1000
1000
0001
0001
0100
0100
0010
,
1000
0001
0001
0010
0010
0100
0100
1000
,
0001
0100
0010
0000
1000
0000
0001
0000
0100
0000
0010
0000
1000
0000
0001
0000
,
0100
0010
1000
0000
0001
0000
0100
0000
0010
0100
0001
0000
0100
0000
0001
0000
,
1000
0000
0100
0000
0100
0000
1000
0000
1000
0000
0001
0000
0001
0000
0100
0010
,
0100
0010
1000
0001
0100
0010
1000
0001
0100
0010
1000
0001
0100
0010
1000
0000
,
0001
0010
0010
0100
0100
1000
0001
0010
,
0001
0010
0100
0000
0010
0000
0001
0000
0010
0100
1000
0000
0001
0000
0010
0000
,
0001
1000
0010
0100
0001
1000
0010
0100
,
0001
0100
0010
0000
0100
0000
0001
0000
0100
0010
1000
0000
0100
0000
0010
0000
,
0001
0000
1000
0000
1000
0000
0001
0000
0001
0000
0010
0000
0010
0000
0100
0010
,
0100
0010
0001
1000
0100
0010
0001
1000
0100
0010
0001
1000
0100
0010
0001
0000
,
1000
0001
1000
0100
0001
0100
0100
0010
,
0010
0000
1000
0001
0100
0000
1000
0000
0010
1000
0100
0000
0010
0000
0001
1000
,
0001
1000
0001
0000
1000
0000
0100
0000
0001
0000
0010
0000
0010
0000
0001
0000
,
0100
1000
0000
1000
0001
0100
0000
0010
,
0000
0110
0000
0010
0100
0000
0100
0110
,
0000
0110
0000
0010
0000
0110
0000
0010
,
0000
1001
0000
0000
0000
1001
0000
0000
,
0000
1001
0000
0000
0000
1001
0000
0000
,
0000
0110
0000
0000
0000
0110
0000
0000
,
0000
0110
0000
0000
0000
0110
0000
0000
,
0000
1010
0000
0000
0000
0101
0000
0000
,
0000
0011
0000
0000
0000
1100
0000
0000
,
0000
1001
0000
0000
0000
0001
0000
1000
,
0000
0000
0000
1000
0000
0002
0000
0000
,
0000
0000
0000
0000
,
0000
0000
0000
0000
0000
0000
0000
0003
,
0000
0000
0110
0010
1000
0001
0100
0010
1000
0001
0000
0001
0001
1000
0002
0000
,
0003
0000
1001
0001
0010
0100
0010
0001
1000
0010
1001
0000
0000
0000
1010
0000
,
0000
0101
0000
1001
0000
0011
0100
0010
,
0001
1000
0010
0100
0001
0100
1000
0100
,
0010
0002
0000
1003
0000
0100
0010
1000
,
0100
0010
1000
0001
0100
0010
0000
0001
,
0010
0200
0000
0000
0300
1001
0000
0001
,
0000
0100
0000
0010
0000
1000
0000
0001
,
0000
0100
0000
0010
0000
1000
0000
0001
,
0000
0100
0000
0010
0000
2000
0000
0000
,
0000
3001
0000
0000
0000
1000
0000
0100
,
0000
0010
0000
0001
0000
1000
0000
0100
,
0000
0010
0000
0001
0000
1000
0000
0000
,
0002
0000
0000
0203
0000
0320
0000
0000
,
0000
1030
0000
0000
0000
1000
0000
0010
,
0000
0100
0000
0001
0000
1000
0000
0010
,
0000
0100
0000
0001
0000
1000
0000
0010
,
0000
0100
0000
0001
0000
2000
0000
0000
,
0000
3001
0000
0000
0000
1000
0000
0001
,
0000
0001
0000
1000
0000
1000
0000
0001
,
0000
0000
0001
0000
0000
0000
0100
0000
0000
0000
0020
0030
2000
0000
0002
0000
,
0000
3003
0000
0001
0010
0100
1000
0000
,
1000
0100
0010
0000
0010
0001
0100
0000
,
0100
0010
0000
1010
0000
1010
0000
0101
,
0000
0101
0000
1001
0000
0100
1000
0001
,
0000
1000
0000
0001
0000
1000
0000
0001
,
0000
1000
0000
0010
0000
0100
0000
0001
,
0000
0100
0000
1000
0000
0001
0000
0010
,
0000
1000
0000
0200
0000
0000
0000
0310
,
0000
0000
0000
0001
0000
0010
0000
0100
,
0000
0010
0000
0100
0000
1000
0000
0010
,
0000
0001
0000
1000
0000
0100
0000
0010
,
0000
1000
0000
0200
0000
0310
0000
0001
,
0000
0000
0010
0000
0100
0000
0000
0000
1000
0000
0001
0000
0000
0000
0100
0010
,
1000
0100
0010
0001
0010
0100
1000
0000
0000
0000
0001
0000
0000
0000
0100
0000
,
0000
1000
0000
0000
0000
0100
0000
0010
,
0000
0001
0000
0000
0000
1000
0000
0100
,
0000
0010
0000
0000
0000
1000
0000
0100
,
0000
0000
0000
0010
0000
0001
0000
0010
,
0000
0100
0000
0000
0000
1000
0000
0001
,
0000
0000
0000
0100
0000
0000
0000
0001
,
0000
0100
0000
0000
0000
0010
0000
1000
,
0000
0000
0000
0010
0000
1000
0000
0001
,
0000
0100
0000
0000
0000
0100
0000
0010
,
0000
1000
0000
0100
0000
0000
0000
0010
,
0000
0001
0000
0000
0000
0010
0000
0100
,
0000
0000
0000
1000
0000
0000
0000
0001
,
0000
0100
0000
0000
0000
0100
0000
0010
,
0000
0000
0000
0020
0000
0000
0000
1000
,
0000
0000
0000
0031
0000
0000
0000
1000
,
0000
0000
0000
1001
0001
1000
0001
1000
,
1000
0001
0001
2002
0000
0000
0000
0000
,
0000
0000
0000
0000
,
0000
0000
0000
0000
0000
3003
0000
0000
;

//---------------dance-single - ----------------
#NOTES:
     dance-single:
     :
     Challenge:
     18:
     1.116953,1.703035,0.355900,0.289168,0.567215,703.000000,671.000000,32.000000,26.000000,0.000000,0.000000,1.116953,1.703035,0.355900,0.289168,0.567215,703.000000,671.000000,32.000000,26.000000,0.000000,0.000000:
// measure 0
0000
0000
0000
0000
,  // measure 1
0000
0000
0011
0000
0000
0011
0000
0000
0100
0000
0000
1000
0000
0000
0000
0000
,  // measure 2
0000
0100
0000
0000
0000
0000
0000
0010
0000
0000
0000
0000
0000
0011
0000
0000
,  // measure 3
1100
0000
0000
1001
0000
0000
0000
0000
0000
2000
0000
0000
0000
0000
0000
3000
,  // measure 4
0000
0110
0100
1000
0100
0001
0100
1000
,  // measure 5
0100
0001
1000
0000
0010
0000
0100
0000
0010
1000
0001
0000
1000
0000
0010
0000
,  // measure 6
0100
0010
1000
0000
0001
0000
1000
0000
1000
0000
0010
0000
0010
0000
0100
0000
,  // measure 7
0001
1000
0100
0000
1000
0000
0100
0000
0100
0000
0010
0000
0001
0010
0001
1000
,  // measure 8
0010
0100
0001
0000
0001
0000
1000
0000
0010
0000
0100
0000
0001
0000
1000
0000
,  // measure 9
0010
0100
0001
0000
1000
0000
0010
0000
0100
0010
1000
0000
0010
0000
1000
0000
,  // measure 10
0001
0100
0010
0000
1000
0000
0001
0000
0001
0000
1000
0000
1000
0000
0010
0100
,  // measure 11
0010
0100
0001
1000
0010
0100
0001
1000
0010
0100
0001
1000
0010
0100
0001
1000
,  // measure 12
0001
1000
0100
0000
0100
0000
0010
0000
0010
0000
0001
0000
1000
0000
0100
0000
,  // measure 13
1000
0100
0010
0000
0100
0000
1000
0000
0100
0010
0001
0000
1000
0000
0100
0000
,  // measure 14
1000
0001
0100
0010
1000
0001
0100
0010
,  // measure 15
1000
0010
0100
0000
0010
0000
1000
0000
0010
0100
0001
0010
0100
0000
1000
0000
,  // measure 16
0100
0010
0001
0000
0001
0000
1000
0000
1000
0000
0100
0000
0100
0000
0010
0100
,  // measure 17
0010
0100
1000
0001
0010
0100
1000
0001
0010
0100
1000
0001
0010
0100
1000
0001
,  // measure 18
0100
0010
0100
0000
0001
0000
0010
0000
1000
0000
0010
0000
0010
0000
0100
0000
,  // measure 19
0100
0000
0001
1000
0010
0000
0001
0000
0100
0001
0010
0000
0100
0000
1000
0010
,  // measure 20
0001
1000
0100
0000
0001
0000
0010
0000
1000
0000
0001
0000
0001
0000
1000
0000
,  // measure 21
0010
0001
0100
0001
1000
0010
0010
0100
,  // measure 22
0010
0110
1000
0100
0110
0001
0010
0110
,  // measure 23
1000
0000
0110
0000
0001
0000
0100
0000
1000
0000
0110
0000
0001
0000
0100
0010
,  // measure 24
1000
0001
0100
0000
0000
0000
0001
0000
0010
0000
0100
0000
0000
0000
1000
0000
,  // measure 25
0010
0100
0000
0001
0010
0100
1000
0010
,  // measure 26
0100
0001
0000
1000
0100
0001
0000
1000
,  // measure 27
0010
0001
0000
1000
0100
0001
1000
0010
,  // measure 28
0001
0100
0000
1000
0100
0010
0000
1000
,  // measure 29
0100
0010
0000
0001
0100
0010
0001
1000
,  // measure 30
0100
0001
0000
0000
0000
1001
0000
0011
,  // measure 31
0000
0000
0000
0011
0000
2001
0000
0000
,  // measure 32
0000
0200
0000
0000
0000
0300
0000
0020
,  // measure 33
0000
0000
0000
0030
0000
0002
0000
3003
,  // measure 34
0000
0000
0110
0100
0001
1000
0010
0100
0001
1000
0000
1000
1000
0001
2000
0000
,  // measure 35
3000
0000
0000
0000
1001
0000
1000
0000
0100
0000
0010
0000
0100
0000
1000
0001
0100
0000
0010
0000
1001
0000
0000
0000
0000
0000
0001
0000
0000
0000
0000
0000
,  // measure 36
0010
0100
2000
0000
0000
0000
3002
0000
0000
0000
0103
0000
0010
0000
0100
1000
,  // measure 37
0001
0000
0010
0000
1000
0000
0100
0010
1000
0000
0001
0000
0100
0000
0010
0001
,  // measure 38
0100
0000
2000
0000
0000
0000
3001
0000
0000
0000
0010
0000
0100
0000
0001
0100
,  // measure 39
1000
0000
0100
0000
0001
0000
1000
0010
0100
0010
0001
0000
1000
0001
1000
0100
,  // measure 40
0010
0100
0010
0001
0100
0001
0010
0100
1000
0010
1001
0000
0100
0000
1000
0000
,  // measure 41
0100
0010
0001
0010
0001
0100
0010
0100
,  // measure 42
0010
1000
0100
1000
0100
0010
0001
0100
,  // measure 43
0010
1000
0100
0001
1000
0010
0002
0000
,  // measure 44
0000
2003
0000
3000
0000
0001
0010
0001
,  // measure 45
0010
0100
1000
0100
1000
0010
0100
0010
,  // measure 46
0100
0001
0010
0100
1000
0020
0000
0000
,  // measure 47
0032
0000
0000
2003
0000
3200
0000
0000
,  // measure 48
0000
0301
0000
0000
0000
0001
1000
0001
,  // measure 49
1000
0010
0100
0010
0100
0001
0010
0001
,  // measure 50
0010
0100
1000
0001
0100
0010
0001
1000
,  // measure 51
0010
1000
0100
0001
0010
0002
0000
0000
,  // measure 52
0000
1003
0000
0000
0000
0001
0100
0001
,  // measure 53
0010
1000
0010
0001
0100
1000
0100
0001
,  // measure 54
0010
0000
0001
0000
0100
0000
0010
0000
1000
0000
0200
0300
2000
0000
0002
0000
,  // measure 55
0000
0000
3003
0000
0000
0000
1000
0100
1000
0010
1000
0001
1000
0100
0010
0001
,  // measure 56
0100
0010
1000
0100
1000
0001
1000
0010
0100
0001
1000
0010
1000
0001
1000
0100
,  // measure 57
0010
0000
0000
0100
0000
0000
0001
0000
0000
1000
0000
0000
0010
0000
0100
0000
1000
0000
1001
0000
0000
0000
0000
0000
0001
0000
0000
0000
0000
0000
0101
0000
0000
0000
0000
0000
0001
0000
0000
0000
0000
0000
0011
0000
0000
0000
0000
0000
,  // measure 58
0001
0101
0001
1001
0010
0100
0010
1001
,  // measure 59
1000
0000
0001
0010
0100
1000
0001
0000
0100
0000
0001
0000
0100
0000
0010
0000
,  // measure 60
1000
0010
1000
0100
0010
0100
0010
0001
,  // measure 61
0100
1000
0001
0010
1000
0100
0010
1000
,  // measure 62
0001
0100
1000
0020
0000
0000
0000
0230
,  // measure 63
0000
0300
0000
1000
0100
1000
0100
0001
,  // measure 64
0010
0001
0010
0100
1000
0100
1000
0001
,  // measure 65
0100
1000
0001
0010
1000
0100
0001
1000
,  // measure 66
0010
0001
0100
0020
0000
0230
0300
1100
,  // measure 67
0000
0000
0000
0000
0110
0000
0000
0000
0110
0000
0000
0000
0000
0000
0000
0000
0011
0000
0000
0000
1001
0000
0000
0000
0001
1000
0010
0000
0100
0000
0001
0000
,  // measure 68
0010
0000
0001
0000
0100
0000
1000
0100
0001
0010
0001
0000
0100
0000
0000
0000
0010
0000
0000
0000
0100
0000
0000
0000
0010
0000
0000
0000
1000
0000
0000
0000
,  // measure 69
0100
1000
0100
0010
0001
0010
0001
0100
,  // measure 70
0010
1000
0001
0010
0100
1000
0100
0010
,  // measure 71
0001
0100
0010
0100
0010
1000
0001
1000
,  // measure 72
0001
0100
1000
0001
1000
0100
1000
0100
,  // measure 73
0001
0010
0100
1000
0100
0010
0100
0010
,  // measure 74
0001
0100
0010
1000
0010
0100
0001
0010
,  // measure 75
0001
1000
0100
0010
0100
1000
0001
0100
,  // measure 76
0010
0001
1000
0100
0001
0010
0100
1000
,  // measure 77
0010
0100
0001
1000
0001
0010
0100
1000
,  // measure 78
0001
1000
0010
0100
0001
0100
0010
1000
,  // measure 79
0100
0001
0100
1000
0010
1000
0001
0100
,  // measure 80
1000
0100
0001
0010
0100
1000
0001
0010
,  // measure 81
1000
0001
0100
1000
0010
0100
0001
0100
,  // measure 82
1000
0100
0010
0200
0000
0000
0000
0001
,  // measure 83
0000
0000
0000
1000
0000
0000
0000
0301
,  // measure 84
0000
0000
0000
1001
1000
0001
1000
0001
,  // measure 85
0001
1000
1000
2001
0000
0000
0010
0000
,  // measure 86
0000
0001
0000
0200
0000
0000
0000
0000
,  // measure 87
0000
0000
3300
0000
;

//---------------dance-single - ----------------
#NOTES:
     dance-single:
     :
     Medium:
     10:
     0.530672,0.826007,0.333656,0.455996,0.022244,334.000000,304.000000,30.000000,41.000000,0.000000,0.000000,0.530672,0.826007,0.333656,0.455996,0.022244,334.000000,304.000000,30.000000,41.000000,0.000000,0.000000:
0000
0000
0000
0000
,
0000
0000
0000
0000
,
0000
0000
0000
0000
,
0000
0000
0000
0000
,
0000
1001
0000
0001
0000
1000
0000
0001
,
0000
0100
0001
0100
0000
0010
1000
0010
,
0000
1000
0000
0001
0000
0010
0000
0100
,
0000
1000
0000
0001
0000
0100
0000
0010
,
0000
1000
0010
1000
0010
1000
0010
1000
,
0010
1000
0010
0000
0010
1000
0010
0000
,
0000
1000
0001
1000
0001
1000
0001
1000
,
0002
0000
0003
0000
,
0000
0001
0010
0001
0010
0001
0010
0000
,
0010
0100
0010
0000
0100
1000
0100
0000
,
0000
1000
0001
0100
0010
0100
0001
0000
,
0100
0001
0100
0000
0010
1000
0010
0000
,
1000
0001
0000
1000
0000
0001
0000
0010
,
0100
1000
0000
1000
0100
0000
0010
0000
,
0001
1000
0001
0100
,
0010
0100
0010
0100
0010
0000
0010
1000
,
0010
1000
0000
1000
0000
0001
0000
0001
,
0000
0010
0000
0010
0000
0100
0000
0100
,
0000
1000
0000
0001
1000
0000
0001
0100
,
0000
0010
0000
0010
0000
1000
0000
1000
,
0000
1001
0000
0000
0000
1001
0000
0000
,
0000
1001
0000
0000
0000
1001
0000
0000
,
0000
0110
0000
0000
0000
0110
0000
0000
,
0000
0110
0000
0000
0000
0110
0000
0000
,
0000
1010
0000
0000
0000
1010
0000
0000
,
0000
1010
0000
0000
0000
1010
0000
0000
,
0000
0101
0000
0000
0000
0001
0000
0100
,
0000
0000
0000
0100
0000
0001
0000
0000
,
0000
1001
0000
0000
0000
0000
0000
0110
,
0000
0000
0000
0000
0000
1001
0000
0000
,
0000
0001
0000
1000
0000
0010
0100
0001
,
0000
0010
0000
0100
0000
1001
0000
1001
,
0000
0110
0000
0110
0000
0100
0010
0100
,
0010
1000
0010
1000
0001
0100
0001
0100
,
0010
2000
0000
3001
0000
0010
0001
0010
,
0100
1000
0100
1000
0001
0200
0000
0000
,
0310
2000
0000
3001
0010
0100
0000
1000
,
0000
0001
0000
0001
0000
0100
0000
0100
,
0000
0010
0000
0010
0000
1000
0000
1000
,
0000
0001
0000
0001
0000
0200
0000
0000
,
0000
0310
0000
0000
0000
1000
0000
1000
,
0000
0001
0000
0001
0000
0010
0000
0010
,
0000
0100
0000
0100
0000
2000
0000
0000
,
3002
0000
0000
0203
0000
0320
0000
0000
,
0000
1030
0000
0000
0000
0001
0000
0001
,
0000
1000
0000
1000
0000
0100
0000
0100
,
0000
0010
0000
0010
0000
0001
0000
0010
,
0000
0100
0000
1000
0000
0002
0000
0000
,
0000
1003
0000
0000
0000
0001
0000
0001
,
0000
0100
0000
0100
0000
0010
0000
1000
,
0000
0000
0001
0000
0000
0000
0100
0000
0000
0000
0020
0030
2000
0000
0002
0000
,
0000
3003
0000
0001
1000
0100
0010
0000
,
0010
0100
1000
0000
1000
0001
0100
0000
,
0100
0010
0000
1010
0000
1010
0000
0101
,
0000
0101
0000
0110
0000
0001
1000
0001
,
0000
1000
0000
2002
0000
0000
0000
0000
,
0000
3003
0000
0220
0000
0330
0000
0010
,
0000
0000
0000
2000
0000
0000
3002
0000
,
0000
0203
0000
0320
0000
0000
0000
0030
,
0000
0000
0000
2002
0000
0000
0000
0000
,
0000
3003
0000
0220
0000
0330
0000
0001
,
0000
0010
0000
0100
0000
1000
0000
0001
,
0000
0100
0000
0020
0000
0000
0030
1000
,
0000
0000
0001
0000
1000
0000
0000
0000
0001
0000
0010
0000
0000
0000
0100
1000
,
0001
0100
0010
1000
0001
0010
0100
0000
0000
0000
0000
0000
0000
0000
1000
0000
,
0000
0001
0000
0000
0000
0001
0000
0100
,
0000
0010
0000
1000
0000
0000
0000
0001
,
0000
1000
0000
0000
0000
0001
0000
1000
,
0000
0000
0000
0200
0000
0000
0000
0000
,
0000
0320
0000
0000
0000
0000
0000
0032
,
0000
0000
0000
0203
0000
0000
0000
0000
,
0000
0320
0000
0000
0000
0000
0030
2000
,
0000
0000
0000
3001
0000
0000
0000
1000
,
0000
0001
0000
0000
0000
0010
0000
0001
,
0000
0010
0000
0200
0000
0000
0000
1300
,
0000
0002
0000
0000
0000
0103
0000
0020
,
0000
0000
0000
2030
0000
0000
0000
0000
,
0000
3002
0000
0000
0000
0000
0000
0023
,
0000
0000
0000
0230
0000
0000
0000
0000
,
0000
0000
0000
2300
0000
0000
0000
0000
,
0000
0000
3000
0100
0001
0100
1000
0100
,
0010
0100
0010
0002
0000
0000
0000
0000
,
0000
0000
0000
0000
,
0000
0000
0000
0003
0000
0000
0000
0000
;

//---------------dance-single - ----------------
#NOTES:
     dance-single:
     :
     Easy:
     6:
     0.330478,0.874595,0.111219,0.011122,0.000000,208.000000,198.000000,10.000000,1.000000,0.000000,0.000000,0.330478,0.874595,0.111219,0.011122,0.000000,208.000000,198.000000,10.000000,1.000000,0.000000,0.000000:
0000
0000
0000
0000
,
0000
0000
0000
0000
,
0000
0000
0000
0000
,
0000
0000
0000
0000
,
0000
1000
0000
1000
0000
1000
0000
1000
,
0000
0001
0000
0000
0000
1000
0000
0000
,
0000
0001
0000
0001
0000
0001
0000
0001
,
0000
1000
0000
0000
0000
0001
0000
0000
,
0000
0100
0000
0100
0000
0100
0000
0100
,
0000
0010
0000
0000
0000
0100
0000
0000
,
0000
0010
0000
0010
0000
0010
0000
0010
,
0000
0100
0000
0000
0000
0010
0000
0000
,
0000
1000
0000
1000
0000
0001
0000
0001
,
0000
1000
0000
0000
0000
0001
0000
0000
,
0000
0001
0000
0001
0000
1000
0000
1000
,
0000
0001
0000
0000
0000
1000
0000
0000
,
0000
0010
0000
0010
0000
0100
0000
0100
,
0000
0010
0000
0000
0000
0100
0000
0000
,
0000
0100
0000
0100
0000
0010
0000
0010
,
0000
0100
0000
0000
0000
0010
0000
0000
,
0000
1000
0000
0001
0000
1000
0000
0001
,
0000
1000
0000
0000
0000
0001
0000
0000
,
0000
0001
0000
1000
0000
0001
0000
1000
,
0000
0001
0000
0000
0000
1000
0000
0000
,
0000
0001
0000
0000
0000
0001
0000
0000
,
0000
0001
0000
0000
0000
0001
0000
0000
,
0000
1000
0000
0000
0000
1000
0000
0000
,
0000
1000
0000
0000
0000
1000
0000
0000
,
0000
0010
0000
0000
0000
0010
0000
0000
,
0000
0010
0000
0000
0000
0010
0000
0000
,
0000
0100
0000
0000
0000
0010
0000
0100
,
0000
0000
0000
0100
0000
0010
0000
0000
,
0000
1000
0000
0000
0000
0000
0000
0001
,
0000
0000
0000
0000
0000
1000
0000
0000
,
0000
1001
0000
1001
0000
1010
0000
1010
,
0000
0101
0000
0101
0000
1001
0000
1001
,
0000
1001
0000
1001
0000
0010
0000
0010
,
0000
1000
0000
1000
0000
0001
0000
0001
,
0000
0100
0000
0100
0000
0001
0000
1000
,
0000
0001
0000
0010
0000
0001
0000
0000
,
0000
1000
0000
0000
0000
0001
0000
0000
,
0000
0001
0000
0000
0000
1000
0000
0000
,
0000
1000
0000
0000
0000
0010
0000
0000
,
0000
0010
0000
0000
0000
0100
0000
0000
,
0000
0100
0000
0000
0000
0001
0000
0000
,
0000
0001
0000
0000
0000
0010
0000
0000
,
0000
0010
0000
0000
0000
0100
0000
0000
,
0000
1000
0000
0000
0000
0001
0000
0000
,
0000
0000
0000
0000
0000
1000
0000
0000
,
0000
1000
0000
0000
0000
0001
0000
0000
,
0000
0001
0000
0000
0000
0010
0000
0000
,
0000
0100
0000
0000
0000
1000
0000
0000
,
0000
0000
0000
0000
0000
0100
0000
0000
,
0000
0100
0000
0000
0000
0010
0000
0000
,
0000
0010
0000
0000
0000
0001
0000
0000
,
0000
0000
0000
1000
0000
0000
0000
0001
,
0000
0000
0000
0100
0000
0000
0000
0010
,
0000
0000
0000
1000
0000
1000
0000
0010
,
0000
0010
0000
0100
0000
0000
0010
0100
,
0000
0000
0000
0010
0000
0000
0000
0000
,
0000
0000
0000
1000
0000
0000
0000
0001
,
0000
0000
0000
0010
0000
0000
0010
0000
,
0000
0010
0000
0100
0000
0000
0000
0000
,
0000
0000
0000
1000
0000
0000
0000
0000
,
0000
0000
0000
0001
0000
0000
0000
0000
,
0000
0000
0000
0100
0000
0000
0000
0100
,
0000
0000
0000
0010
0000
0000
0000
1000
,
0000
0001
1000
0000
0001
1000
0000
0001
,
0000
0000
0000
1000
0000
0000
0000
1000
,
0000
0000
0000
1000
0000
0000
0000
1000
,
0000
0000
0000
1000
0000
0000
0000
1000
,
0000
0000
0000
1000
0000
0000
0000
1000
,
0000
0000
0000
0010
0000
0000
0000
0100
,
0000
0001
0000
0000
0000
0100
0000
0001
,
0000
0000
0000
0100
0000
0000
0000
0001
,
0000
0100
0000
0000
0000
0001
0000
0100
,
0000
0000
0000
0001
0000
0000
0000
0001
,
0000
0000
0000
0001
0000
0000
0000
0001
,
0000
0000
0000
0001
0000
0000
0000
0001
,
0000
0000
0000
0001
0000
0000
0000
0001
,
0000
0000
0000
1000
0000
0000
0000
0001
,
0000
1000
0000
0000
0000
0001
0000
1000
,
0000
0000
0000
0001
0000
0000
0000
0000
,
0000
0000
0000
1000
0000
0000
0000
0000
,
0000
0000
0000
0010
0000
0010
0000
0100
,
0000
0100
0000
0002
0000
0000
0000
0000
,
0000
0000
0000
0000
,
0000
0000
0000
0003
0000
0000
0000
0000
;
