#TITLE:Shinzou wo Sasageyo;
#SUBTITLE:Shingeki No Kyojin Opening 3;
#ARTIST:Revo w/Linked Horizon;
#TITLETRANSLIT:;
#SUBTITLETRANSLIT:;
#ARTISTTRANSLIT:;
#GENRE:;
#CREDIT:Magna Trick;
#BANNER:SWSBN.png;
#BACKGROUND:SWSB.png;
#LYRICSPATH:;
#CDTITLE:Magna Trick title!.png;
#MUSIC:Shinzou wo Sasageyo.mp3;
#OFFSET:0.060000;
#SAMPLESTART:52.000000;
#SAMPLELENGTH:17.000000;
#SELECTABLE:YES;
#BPMS:0.000000=160.000000
,113.000000=320.000000
,129.000000=160.000000
,137.000000=320.000000
,153.000000=80.000000
,164.500000=160.000000
,173.500000=320.000000
,296.500000=160.000000
;
#STOPS:
;
#BGCHANGES:0.063=Shinzou wo Sasageyo.avi=1.000=0=0=1=====,
296.500=SWSB.png=1.000=0=0=1=====,
99999=-nosongbg-=1.000=0=0=0 // don't automatically add -songbackground-
;
#KEYSOUNDS:;
#ATTACKS:;

//---------------dance-single - ----------------
#NOTES:
     dance-single:
     :
     Hard:
     14:
     0.706732,1.034722,0.904553,0.055837,0.139592,443.000000,362.000000,81.000000,5.000000,0.000000,0.000000,0.706732,1.034722,0.904553,0.055837,0.139592,443.000000,362.000000,81.000000,5.000000,0.000000,0.000000:
0000
0000
0001
1000
0000
0100
0000
0100
,
0000
1000
0001
0010
0000
0100
0000
0100
,
0000
1000
0001
1001
0000
1010
0000
0011
,
0000
0110
0000
0101
0000
1100
0000
1001
,
0000
1001
1001
0100
0010
1000
0001
0100
,
0010
1000
0001
0100
0010
1000
0010
0100
,
0001
0100
1000
0100
0010
0000
0001
0000
0010
0000
0100
0000
1000
0000
0001
0000
,
0010
0100
1000
0001
0010
0100
1000
0001
,
1000
0100
0001
0010
0100
0000
0001
0000
0100
0000
0010
0000
0100
0000
0001
0000
,
0100
0000
0010
1000
0001
0000
0100
0000
0010
0000
0100
0000
1000
0000
0100
0000
,
0010
0000
0001
1000
0100
0000
0010
0000
0100
0000
0001
1000
0010
0000
0100
0000
,
0001
0000
1000
0010
0001
0000
0100
0000
0010
0000
1000
0000
0001
0000
0010
0000
,
0100
0000
1000
0100
0001
0000
1100
0000
0000
0000
0101
0000
0000
0000
1010
0000
,
0000
0011
0000
0110
0000
0110
0000
1001
,
0000
0000
0001
0100
0010
0000
1100
0000
0000
0000
0101
0000
0000
0000
1010
0000
,
0000
0011
0000
0110
0000
0110
0000
1001
,
0000
0000
0001
0010
0100
0000
1000
0000
0000
0000
1100
0000
0000
0000
1010
0000
,
0000
0011
0000
0101
0000
0110
0000
1001
,
0000
0000
1000
0100
1000
0000
0100
0000
0000
0000
0001
0010
0001
0000
0010
0000
,
0100
1000
0101
0000
0011
0000
1100
0000
,
1010
0000
1001
0010
0100
0001
0100
0010
,
1000
0100
0010
0000
0010
0010
0100
0000
,
1000
0000
0001
0001
0100
0100
0010
0010
,
1000
0000
1000
0000
0001
0000
0010
0000
0100
0000
1000
0001
0100
0000
0000
0000
,
0010
0000
1000
1000
0010
0010
0100
0100
,
0001
0000
0001
0000
1000
0000
0100
0000
0010
0000
0001
0020
0000
0000
0000
0000
,
0000
0030
0100
1000
0001
0100
0010
1000
,
0001
1000
0010
0000
0010
1000
0100
0000
,
0100
1001
0100
1000
,
0001
0000
1000
0000
0010
0100
0000
0000
,
0100
0010
1000
0100
,
0010
0001
0000
0110
,
0000
0000
0001
1000
1000
0001
0001
0100
,
0010
1000
1001
0000
0001
0100
0110
0000
,
0010
1000
1100
0000
1000
0000
0001
0000
,
0100
0001
0001
1000
,
0100
1100
0000
0001
,
0100
0101
0000
0001
,
0100
0000
0000
0000
0010
0000
0010
1000
0100
0000
0100
0010
0001
0000
0001
0010
,
0100
0000
0100
0000
1001
0000
0001
0000
0100
0010
0100
0001
0010
0000
0010
0001
,
0100
0000
0100
0010
1000
0000
1000
0010
0001
0000
1000
0100
0001
0000
0010
0100
,
1000
0001
0100
0010
0000
0010
0100
0001
,
1000
0100
0010
0011
0000
0100
1000
1001
,
0000
0001
0100
0101
0000
0001
0000
1000
,
0000
0100
0000
1100
0000
1000
0000
0001
,
0000
0010
0000
0011
0000
0001
0000
1000
,
0000
0010
0000
1010
0000
0000
0000
0101
,
0000
0000
0000
1001
0000
0001
0000
1000
,
0000
0010
0000
0010
0000
0100
0000
0001
,
0000
0100
0000
0110
0000
0000
0000
0001
,
0000
1000
0000
0110
0000
0000
0000
1000
,
0000
0001
0000
1001
0000
0000
0000
0001
,
0000
1000
0000
1001
0000
0000
0000
1000
,
0000
0010
0000
0110
0000
0000
0000
0100
,
0000
0001
0000
0110
0000
0000
0000
0010
,
0000
0100
0000
2002
0000
3003
0000
0000
,
0000
0000
0000
1000
0000
1000
0000
0001
,
0000
0001
0000
0010
0000
1100
0000
0000
,
0000
1100
0000
0000
0000
0011
0000
0000
,
0000
0011
0000
1000
0000
0001
0000
0000
,
0000
0101
0000
0000
0000
1010
0000
0000
,
0000
0001
0000
0010
0000
0100
0000
0000
,
0000
0011
0000
0000
0000
1010
0000
0000
,
0000
0101
0000
0000
0000
1100
0000
0000
,
0000
0011
0000
0000
0000
1010
0000
0000
,
0000
0010
0000
0100
0000
0001
0000
0000
,
0000
1100
0000
0000
0000
0011
0000
0000
,
0000
1000
0000
0010
0000
0100
0000
0000
,
0000
1010
0000
0000
0000
0101
0000
0000
,
0000
1000
0000
0001
0000
1000
0000
0000
,
0000
0011
0000
0000
0000
1100
0000
0000
,
0000
1010
0000
0000
0000
0101
0000
0000
,
0000
0110
0000
0000
0000
1001
0000
0000
,
0000
0110
0000
2002
0000
0000
0000
0000
,
0000
3003
0000
0000
0000
0000
0000
0000
;

//---------------dance-single - ----------------
#NOTES:
     dance-single:
     :
     Challenge:
     18:
     1.089611,1.407222,0.279183,0.044669,0.692374,683.000000,658.000000,25.000000,4.000000,0.000000,0.000000,1.089611,1.407222,0.279183,0.044669,0.692374,683.000000,658.000000,25.000000,4.000000,0.000000,0.000000:
// measure 0
0000
0000
1000
1000
0000
0110
0000
0110
,  // measure 1
0000
0001
0001
0001
0000
0110
0000
0110
,  // measure 2
0000
0000
1001
0000
1001
0000
1000
0100
1000
0100
0010
0001
0010
0001
0100
1000
,  // measure 3
0100
1000
0100
0001
0100
0001
0010
0001
0010
0001
1000
0100
1000
0100
0010
0100
,  // measure 4
0010
0001
1000
0001
1001
0000
0010
0000
0100
0000
0001
0000
1000
0000
0010
0000
,  // measure 5
0100
0000
0001
1000
0010
0000
1000
0000
0100
0000
0001
0000
0100
0000
0010
0000
,  // measure 6
1000
0010
0001
0010
0100
0000
1000
0000
0100
0000
0010
0000
0001
0000
1000
0000
,  // measure 7
0100
0000
0010
0001
1000
0000
0100
0000
0010
0000
0001
0000
1000
0000
0001
0000
,  // measure 8
0010
1000
0001
0100
1100
0000
1000
0000
0010
0000
0100
0010
0001
0000
1000
0000
,  // measure 9
0100
0000
0001
0010
1001
0000
0010
0000
0100
0000
0010
0001
1000
0000
0010
0000
,  // measure 10
0100
0000
1000
0001
1001
0000
0100
0000
0010
0000
1000
0001
0110
0000
0010
0000
,  // measure 11
0001
0000
0010
0100
1000
0000
0010
0100
0001
0000
0010
0100
1000
0000
0010
0100
,  // measure 12
0001
0000
0001
0010
1000
0000
0010
1000
0010
0000
0001
0100
0001
0000
1000
0100
,  // measure 13
1000
0000
0001
1000
0001
0000
1000
0001
1000
0000
0001
0100
0001
0000
0100
0010
,  // measure 14
0100
0001
1000
0100
0001
0000
1000
0010
1000
0000
0010
1000
0010
0000
0001
0100
,  // measure 15
0001
0000
0100
1000
0100
0000
1000
0100
1000
0000
0001
0010
0001
0000
0010
0100
,  // measure 16
0001
1000
0100
0010
0001
0000
1000
0100
1000
0000
0001
0010
0001
0000
1000
0010
,  // measure 17
1000
0000
0001
0100
0001
0000
1000
0001
1000
0000
0100
0010
0100
1000
0010
0001
,  // measure 18
0010
1000
0001
1000
0100
0000
0010
0100
0010
0000
1000
0001
0100
0000
0010
0001
,  // measure 19
0010
0000
0100
1000
1001
0000
0001
0010
1100
0000
1000
0100
0011
0000
1000
0010
,  // measure 20
0100
0001
0010
0100
1000
0000
0100
0000
0010
0000
1000
0000
0010
0000
0100
0000
,  // measure 21
0001
0000
0010
0100
1000
0000
0100
0000
1000
0000
0010
0000
1001
0000
0100
0000
,  // measure 22
1001
0010
1000
1000
0010
0010
0100
0100
,  // measure 23
0001
0000
0001
0000
1000
0000
0100
0000
0010
0000
0001
1000
0010
1000
0100
0010
,  // measure 24
0100
1000
0010
0100
0001
0000
0001
0000
0100
0000
0100
0010
1000
0000
1000
0000
,  // measure 25
0001
0000
0001
0000
1000
0000
0010
0000
0100
0000
1000
0200
0000
0000
0000
0000
,  // measure 26
0010
0300
0010
0001
1000
0010
0100
0001
,  // measure 27
1000
0000
0001
0000
0100
0001
0100
0000
0010
0100
0010
0000
1000
0001
1000
0010
,  // measure 28
0100
0001
1000
0001
1001
0000
0010
0000
0100
0000
1000
0000
0010
0000
0100
0000
,  // measure 29
0001
1000
0100
0010
0001
0010
0100
1000
,  // measure 30
0010
0100
0001
0100
1000
0001
0010
0001
,  // measure 31
1000
0100
0010
0100
0001
0010
1000
0010
,  // measure 32
0001
0100
0010
1000
0110
0000
1000
0000
1001
0000
0001
0000
0010
0000
0100
0000
,  // measure 33
0110
0100
1000
0010
0110
0100
0101
0001
,  // measure 34
0001
0100
0010
1000
0001
0000
0010
0000
0001
0000
0010
0000
0001
0000
0010
0000
,  // measure 35
0001
0010
1000
0001
1000
0001
0100
0010
,  // measure 36
0100
0010
0001
0100
0001
0100
0001
0100
,  // measure 37
0001
0100
1000
0100
0001
0010
0001
1000
,  // measure 38
0100
0000
0000
0000
0010
0000
0000
0000
0001
0000
0000
0000
0000
0000
0001
0000
1000
0000
0000
0000
0000
0000
1000
0000
0001
0000
0001
0000
0000
0000
0010
0001
,  // measure 39
0010
0000
0000
0000
0001
0000
1000
0001
1000
0000
0000
0000
0000
0000
0010
0000
0100
0000
0000
0000
0001
0000
0100
0000
0010
0000
1000
0000
0000
0000
0010
1000
,  // measure 40
0010
0000
1100
0000
0011
0000
0000
0010
0100
0000
0000
0100
1000
0000
0000
1000
,  // measure 41
0001
0000
0010
0100
1000
0000
0000
0000
0100
0000
0000
0000
1000
0000
0100
0000
1000
0000
0100
0000
1000
0000
0100
0000
0010
0000
0001
0000
1000
0000
0100
0000
,  // measure 42
0001
1000
0010
0001
0100
0010
1000
0100
1000
0100
1000
0100
0010
0001
1000
0001
,  // measure 43
0010
0100
1000
0001
1000
0100
0010
0000
0001
0000
0010
0000
0001
0000
0010
0000
,  // measure 44
0001
1000
0100
0001
1000
0010
0100
0010
,  // measure 45
0100
1000
0001
0100
0001
0100
0001
0100
,  // measure 46
0001
0010
1000
0010
0001
0100
0001
0100
,  // measure 47
1000
0100
0001
0010
0100
0010
0100
0010
,  // measure 48
0100
0010
0100
0001
1000
0010
0001
0100
,  // measure 49
0010
0100
0001
1000
0100
1000
0100
1000
,  // measure 50
0100
0010
0001
0100
0010
1000
0010
0100
,  // measure 51
1000
0100
0001
0010
0001
0010
0001
0010
,  // measure 52
0001
0100
0010
0100
0001
1000
0100
0001
,  // measure 53
0100
1000
0010
1000
0001
0100
0010
1000
,  // measure 54
0001
0000
0000
0100
0000
0000
0010
0000
0000
0100
0000
0000
0001
0000
0000
1000
0000
0000
0100
0000
0010
0000
0001
0000
,  // measure 55
0010
0000
0100
0000
1000
0000
0100
0000
0010
0002
0000
0000
0000
0000
0000
0000
0000
0000
0000
0000
0000
0000
0000
0000
,  // measure 56
0000
0003
0000
1000
0000
1000
0000
0001
,  // measure 57
0000
0001
0000
0010
0000
0100
1000
0100
,  // measure 58
0000
0010
0001
0010
0000
0100
0010
0001
,  // measure 59
0010
0100
1000
0100
0000
1000
0001
1000
,  // measure 60
0000
0001
1000
0001
0000
1000
0001
0100
,  // measure 61
0010
1000
0001
0100
0000
0010
1000
0010
,  // measure 62
0000
0100
1000
0100
0000
0001
0100
0001
,  // measure 63
0000
0010
0001
0010
0000
0001
1000
0001
,  // measure 64
0000
0100
0010
0100
0000
0001
0010
1000
,  // measure 65
0001
0100
1000
0010
0000
1000
0100
0010
,  // measure 66
0000
0001
0010
0100
0000
1000
0100
0010
,  // measure 67
0001
0010
0100
1000
0000
0001
0010
1000
,  // measure 68
0000
0001
0100
1000
0000
0001
0010
1000
,  // measure 69
0001
0100
1000
0010
0000
1000
0001
0100
,  // measure 70
0000
0001
1000
0100
0000
1000
0001
0100
,  // measure 71
0001
1000
0100
0010
0001
1000
0010
0100
,  // measure 72
1000
0100
0001
0010
0001
1000
0100
0010
,  // measure 73
1000
0010
0100
2002
0000
0000
0000
0000
,  // measure 74
0000
3003
0000
0000
0000
0000
0000
0000
;

//---------------dance-single - ----------------
#NOTES:
     dance-single:
     :
     Medium:
     9:
     0.469027,0.786389,0.301518,0.078171,0.027918,294.000000,267.000000,27.000000,7.000000,0.000000,0.000000,0.469027,0.786389,0.301518,0.078171,0.027918,294.000000,267.000000,27.000000,7.000000,0.000000,0.000000:
0000
0000
0010
0100
0000
0010
0000
0010
,
0000
0000
0010
0100
0000
0010
0000
0010
,
0000
0001
0000
1001
0000
0101
0000
1100
,
0000
0110
0000
1010
0000
0011
0000
1001
,
0000
1001
1001
0010
0000
1000
0000
0001
,
0000
0100
0000
0010
0000
0100
0000
0001
,
0000
0010
0001
0010
0000
0001
0000
0010
,
0000
0100
0000
1000
0000
0001
0000
0100
,
0000
0010
0100
0010
0000
1000
0000
0001
,
0000
1000
0100
0001
0000
0100
0000
1000
,
0000
0001
0010
1000
0000
0010
0100
1000
,
0000
0010
0100
0000
0001
0000
1000
0000
,
0001
0000
1000
0001
0000
0001
0000
1000
,
0000
1000
0000
0001
0000
0100
0000
0010
,
0000
0010
0100
0010
0000
0100
0000
0100
,
0000
0001
0000
0001
0000
1000
0000
1000
,
0000
0001
0010
0001
0000
1000
0000
0010
,
0000
1000
0010
1000
0000
0001
0000
0100
,
0000
0010
1000
0100
0000
0010
0001
0100
,
0000
0010
1000
0100
0010
0001
0100
0010
,
1000
0100
0010
0010
0001
0001
1000
1000
,
0010
0100
0001
0000
0000
0001
0100
0000
,
0010
0000
1000
0010
0100
0001
0100
0010
,
1000
0100
0010
0001
0010
0100
1000
0000
,
0001
0000
1000
0001
1000
0001
1000
0010
,
0100
0010
0100
0001
0100
0010
1000
0000
,
0001
0000
0010
0001
0010
0100
0010
0100
,
1000
0100
1000
0000
1000
0000
0001
0000
,
0001
1001
0010
0001
,
1000
0000
0001
0000
0100
0010
0000
0000
,
0010
0100
0001
0010
,
0100
1000
0000
0110
,
0000
1001
1000
1010
,
0001
0011
0100
0110
,
0001
0012
0000
0000
,
0000
0003
1000
0000
0010
0000
0100
0000
,
0000
0002
0000
0000
,
0000
0003
2000
0000
0000
0000
0000
0000
,
3000
0000
0010
0000
0100
0000
0000
0100
0001
0000
0000
0001
0010
0000
0000
0010
,
0100
0000
0000
0000
1000
0000
0000
0000
0001
0000
0000
0100
0010
0000
0000
0010
,
0100
1000
0001
0010
,
0100
0000
1000
0001
0000
0000
0001
1000
,
0000
0010
0000
0100
0000
0000
0010
0100
,
0000
0000
0001
1001
0000
0000
0000
0000
,
0000
1000
0000
1001
0000
0000
0000
0000
,
0000
0001
0000
1001
0000
0000
0000
0000
,
0000
1000
0000
1001
0000
0000
0000
1001
,
0000
0000
0000
0210
0000
0000
0000
0000
,
0300
0000
0000
0020
0000
0000
0000
0030
,
0000
0100
0000
0010
0000
0000
0000
0000
,
0000
0010
0000
0100
0000
0000
0000
0000
,
0000
0010
0000
1000
0000
0000
0000
0000
,
0000
1000
0000
0001
0000
0000
0000
0000
,
0000
0001
0000
0010
0000
0000
0000
0000
,
0000
0010
0000
0100
0000
0000
0000
0000
,
0000
0000
0000
1100
0000
0000
0000
0000
,
0000
0000
0000
0001
0000
1000
0000
0001
,
0000
1000
0000
0001
0000
1000
0000
0000
,
0000
1000
0000
0000
0000
0010
0000
0000
,
0000
0010
0000
0000
0000
0100
0000
0000
,
0000
0100
0000
0000
0000
0001
0000
0000
,
0000
0001
0000
0000
0000
1000
0000
0000
,
0000
1000
0000
0000
0000
0100
0000
0000
,
0000
0100
0000
0000
0000
0010
0000
0000
,
0000
0010
0000
0000
0000
0001
0000
0000
,
0000
1000
0000
0001
0000
1000
0000
0000
,
0000
0001
0000
0000
0000
0001
0000
0000
,
0000
0100
0000
0000
0000
0100
0000
0000
,
0000
0010
0000
0000
0000
0010
0000
0000
,
0000
1000
0000
0010
0000
1000
0000
0000
,
0000
0001
0000
0000
0000
0001
0000
0000
,
0000
1000
0000
0000
0000
1010
0000
0000
,
0000
0110
0000
0000
0000
1001
0000
0000
,
0000
0100
0000
2002
0000
0000
0000
0000
,
0000
3003
0000
0000
0000
0000
0000
0000
;

//---------------dance-single - ----------------
#NOTES:
     dance-single:
     :
     Easy:
     7:
     0.279183,0.455278,0.067004,0.256848,0.000000,175.000000,169.000000,6.000000,23.000000,0.000000,0.000000,0.279183,0.455278,0.067004,0.256848,0.000000,175.000000,169.000000,6.000000,23.000000,0.000000,0.000000:
0000
0000
0000
0000
,
0000
0000
0000
0000
,
0000
0000
1000
1000
0000
0001
0000
0001
,
0000
1000
0000
1000
0000
0001
0000
0001
,
0000
1000
0001
0000
0000
0000
0000
0000
,
0000
0000
0000
0000
,
0001
1000
0000
0000
,
0000
0000
0000
0000
,
0010
0100
0000
0000
,
0000
0001
0000
0000
,
0000
1000
0000
0001
,
0000
0010
0010
0100
,
0100
0000
1001
1001
0000
0100
0000
0100
,
0000
0010
0000
0010
0000
0100
0000
0100
,
0000
0000
0001
1000
0000
1000
0000
1000
,
0000
0001
0000
0001
0000
1000
0000
1000
,
0000
0000
0001
0010
0000
0100
0000
0100
,
0000
0010
0000
0010
0000
0100
0000
1000
,
0000
0000
1000
0010
0000
0100
0000
0000
,
0100
0001
0000
0000
0000
0000
0000
0000
,
0000
1000
1000
0001
,
0001
0010
0000
0100
,
0000
1000
1000
0010
,
0010
0100
0100
0001
,
1000
0001
0001
0010
,
0010
0100
1000
0002
,
0000
0003
0100
0000
0100
0000
0010
0000
,
0010
0000
2000
0000
0000
3000
0002
0000
,
0000
0003
0100
0000
0000
0000
0100
0000
,
0000
0100
0000
0100
,
0000
0010
0000
0010
,
0000
0010
0000
1000
,
0000
1001
0000
0000
,
0000
0000
0000
0000
,
0000
0220
0000
0000
,
0000
0000
0000
0000
,
0330
2000
0000
0000
,
0000
3000
0002
0000
0000
0000
0000
0000
,
0003
0000
0200
0300
0020
0000
2030
0000
,
3002
0023
0230
2300
,
3020
0230
0302
0023
,
0230
0000
0300
1000
0000
0000
0000
0001
,
0000
0100
0000
0020
0000
0000
0030
2000
,
0000
0000
3000
0001
0000
1000
0000
0000
,
0000
1000
0000
0000
0000
0001
0000
0000
,
0000
0001
0000
0000
0000
0100
0000
0000
,
0000
0100
0000
0010
0000
0000
0000
0100
,
0000
0000
0000
0010
0000
0000
0000
0000
,
0000
0000
0000
1000
0000
0000
0000
0001
,
0000
0000
0000
0010
0000
0000
0000
0000
,
0000
0000
0000
0100
0000
0000
0000
0000
,
0000
0000
0000
1000
0000
0000
0000
0000
,
0000
0000
0000
0001
0000
0000
0000
0000
,
0000
0000
0000
0100
0000
0000
0000
0000
,
0000
0000
0000
0010
0000
0000
0000
1000
,
0000
0000
0000
1001
0000
0000
0000
0000
,
0000
0000
0000
0001
0000
0010
0000
0100
,
0000
1000
0000
1000
0000
1000
0000
0000
,
0000
1000
0000
0000
0000
1000
0000
0000
,
0000
1000
0000
1000
0000
1000
0000
0000
,
0000
1000
0000
0000
0000
1000
0000
0000
,
0000
1000
0000
1000
0000
1000
0000
0000
,
0000
1000
0000
0000
0000
1000
0000
0000
,
0000
1000
0000
0000
0000
1000
0000
0000
,
0000
1000
0000
0000
0000
1000
0000
0000
,
0000
1000
0000
0001
0000
1000
0000
0000
,
0000
1000
0000
0000
0000
1000
0000
0000
,
0000
1000
0000
1000
0000
1000
0000
0000
,
0000
1000
0000
0000
0000
1000
0000
0000
,
0000
1000
0000
1000
0000
1000
0000
0000
,
0000
1000
0000
0000
0000
1000
0000
0000
,
0000
1000
0000
0000
0000
1000
0000
0000
,
0000
1000
0000
0000
0000
1000
0000
0000
,
0000
1000
0000
2002
0000
0000
0000
0000
,
0000
3003
0000
0000
0000
0000
0000
0000
;
