#TITLE:Share The World;
#SUBTITLE:One Piece Opening 11;
#ARTIST:TVXQ;
#TITLETRANSLIT:;
#SUBTITLETRANSLIT:;
#ARTISTTRANSLIT:;
#GENRE:;
#CREDIT:Magna Trick;
#BANNER:STWBN.png;
#BACKGROUND:STWB.png;
#LYRICSPATH:;
#CDTITLE:Magna Trick title!.png;
#MUSIC:Share The World.mp3;
#OFFSET:-0.040000;
#SAMPLESTART:54.000000;
#SAMPLELENGTH:11.000000;
#SELECTABLE:YES;
#BPMS:0.000000=120.000000
;
#STOPS:
;
#BGCHANGES:0.083=Share The World.avi=1.000=0=0=1=====,
298.500=STWB.png=1.000=0=0=1=====,
99999=-nosongbg-=1.000=0=0=0 // don't automatically add -songbackground-
;
#KEYSOUNDS:;
#ATTACKS:;

//---------------dance-single - ----------------
#NOTES:
     dance-single:
     :
     Medium:
     8:
     0.396728,0.446586,0.212601,0.013288,0.202635,418.000000,386.000000,32.000000,2.000000,0.000000,0.000000,0.396728,0.446586,0.212601,0.013288,0.202635,418.000000,386.000000,32.000000,2.000000,0.000000,0.000000:
0000
0000
0000
0000
,
0000
0000
0000
0000
,
0000
0000
0000
0000
0000
0000
0001
0010
,
0100
0000
0000
0000
0100
0000
0000
0010
0000
0000
0000
0000
0000
0000
0010
0000
,
1000
0000
0000
0000
0010
0000
0000
0010
0000
0000
0000
0000
0001
0000
0000
0100
,
0000
0000
0000
0000
0010
0000
0000
1000
0000
0000
0100
0000
0010
0000
0000
0000
,
0001
0000
1000
0000
0001
0001
1000
0000
,
0001
0000
1000
0000
1000
1000
0001
0000
,
0001
0100
0010
0100
0001
0001
0001
0100
,
0010
0100
0001
0100
0100
0000
0001
0000
,
1000
0100
0010
0100
1000
1000
1000
1000
,
0100
0010
0100
1000
0010
0000
1001
0000
,
0001
0100
0000
0001
0000
0000
1000
0000
0100
0000
0000
0000
1000
0000
0000
0000
,
0001
1000
0000
0001
0000
0000
1000
0000
0100
0000
0000
0000
0010
0000
0000
0000
,
0100
0010
0000
0100
0000
0000
0010
0000
0001
0000
0000
0000
1000
0000
0000
0000
,
0001
1000
0000
0001
0000
0000
1000
0000
0001
0000
0000
0000
1001
0000
0000
0000
,
0010
0010
0010
0000
1000
1000
1000
0000
,
0100
0100
0010
0010
0001
0001
1000
0000
,
0001
0001
1000
0000
1000
1000
0001
0000
,
0001
1000
0010
0100
0010
0000
0110
0000
,
0010
1000
0010
0000
0100
0001
0100
0000
,
0001
1000
0001
1000
0001
1000
0001
0000
,
1000
0100
1000
0000
0001
0100
0001
0000
,
1000
0010
0100
0001
1000
0000
1001
0000
,
0001
0001
0001
0001
1000
0000
0001
0000
,
1000
1000
1000
1000
0001
0000
1000
0000
,
0010
0010
0010
0010
0100
0000
0010
0000
,
0100
0100
0010
0100
0010
0000
1001
0000
,
0101
1100
1010
0011
,
1001
0110
1001
1010
,
1001
0000
0011
0000
1001
0000
0000
0010
,
0100
0000
1000
0000
0010
0000
0000
0100
0000
0000
0100
0000
0000
0000
0000
0000
,
1010
0101
0011
1100
,
1001
0110
1001
0110
,
1100
0101
1010
0011
,
1001
0000
0000
0000
0100
0000
0000
0010
0000
0000
0010
0000
0001
0000
0000
0000
,
0100
0000
0010
0000
1000
1000
0001
0000
,
0001
0100
0000
0010
0000
0000
0100
0000
0001
0000
0000
0000
0010
0000
0000
0000
,
0100
0010
0000
0100
0000
0000
1000
0000
0100
0000
0000
0000
1000
0000
0000
0000
,
0001
1000
0000
0001
0000
0000
1000
0000
0001
0000
0000
0000
0100
0000
0000
0000
,
0010
0100
0000
0010
0000
0000
0200
0000
0310
0000
0000
0000
1001
0000
0000
0000
,
0001
0000
0000
1000
0000
0000
1000
0000
0001
0000
0000
0001
0000
0000
0001
0000
,
1000
0000
0000
1000
0000
0000
1000
0000
0100
0000
0000
0100
0000
0000
0100
0000
,
0010
0000
0000
0010
0000
0000
0010
0000
0001
0000
0000
0001
0000
0000
0001
0000
,
0100
0000
0000
0100
0000
0000
0100
0000
0010
0000
0000
0000
0010
0000
0000
0000
,
1000
0000
0000
1000
0000
0000
1000
0000
0001
0000
0000
0001
0000
0000
0001
0000
,
0010
0000
0000
0010
0000
0000
0010
0000
0100
0000
0000
1000
0000
0000
0001
0000
,
1000
0000
0000
1000
0000
0000
0001
0000
0100
0000
0000
0100
0000
0000
0000
0000
,
0010
0000
0000
1000
0000
0000
0001
0000
1000
0000
0000
0000
1001
0000
0000
0000
,
0010
0000
0000
0010
0000
0000
1000
0000
0100
0000
0000
0000
0010
0000
0000
0000
,
0001
0000
0000
0001
0000
0000
0001
0000
0100
0000
0000
0000
0010
0000
0000
0000
,
1000
0000
0000
1000
0000
0000
1000
0000
0001
0000
0000
0000
0100
0000
0000
0000
,
0010
0000
0000
1000
0000
0001
0000
0000
0010
0000
0000
0000
0110
0000
0000
0000
,
0100
0000
0000
0000
1000
0000
0000
0001
0000
0000
0000
0000
0000
0000
0001
0000
,
0100
0000
0000
0000
0100
0000
0000
0100
0000
0000
0000
0000
0000
0000
0000
0000
,
0010
0000
0000
0000
1000
0000
0000
0001
0000
0000
0000
0000
0000
0000
0001
0000
,
0010
0000
0100
0000
0010
0000
0000
0001
0000
0000
0001
0000
0000
0000
0000
0000
,
1000
0000
0000
0000
1000
0000
0000
0010
0000
0000
0000
0000
0000
0000
0010
0000
,
0100
0000
0000
0000
0001
0000
0000
1000
0000
0000
0000
0000
0010
0000
1000
0100
,
0000
0000
0000
0000
0100
0000
0010
0001
0000
0000
0001
0000
1000
0000
0000
0000
,
0001
0000
0000
0000
1000
0000
0000
0001
0000
0000
0001
0000
1000
0000
0000
0000
,
0001
0000
1000
0000
0001
1000
1000
0001
,
0100
0000
0000
0000
0010
0000
0000
0100
0000
0000
0000
0000
0000
0000
0010
0000
,
0100
0000
0000
0000
0001
0000
0000
0001
0000
0000
0000
0000
0000
0000
0000
0000
,
0010
0000
0000
0000
0100
0000
0000
1000
0000
0000
0000
0000
0000
0000
1000
0000
,
0010
0000
0100
0000
0001
0000
0000
0001
0000
0000
1000
0000
0000
0000
0000
0000
,
0100
0000
0000
0000
0010
0000
0000
0001
0000
0000
0000
0000
0000
0000
0001
0000
,
0010
0000
0000
0000
0100
0000
0000
1000
0000
0000
0000
0000
0100
0000
1000
0001
,
0000
0000
0000
0000
0001
0000
1000
0001
0000
0000
1000
0000
0001
0000
0000
0000
,
1000
0000
0000
0000
0001
0000
0000
1000
0000
0000
1000
0000
0001
0000
0000
0000
,
0100
0000
0010
0000
1000
0001
1000
0001
,
0010
0000
0000
0010
0000
0000
0100
0000
1000
0000
0001
0000
0100
0000
0010
0000
,
1000
0000
0000
1000
0000
0000
1000
0000
0001
0000
0000
0000
0100
0000
0000
0000
,
0010
1000
0100
0000
1000
0100
1000
0000
,
0001
0000
0100
0000
0001
0000
1000
0000
0200
0000
0000
0300
0000
0000
0000
0000
;

//---------------dance-single - ----------------
#NOTES:
     dance-single:
     :
     Easy:
     5:
     0.273344,0.322804,0.013288,0.006644,0.000000,288.000000,286.000000,2.000000,1.000000,0.000000,0.000000,0.273344,0.322804,0.013288,0.006644,0.000000,288.000000,286.000000,2.000000,1.000000,0.000000,0.000000:
0000
0000
0000
0000
,
0000
0000
0000
0000
,
0000
0000
0000
0000
,
0000
0000
0000
0000
,
0000
0000
0000
0000
,
0000
0000
0000
0000
,
0000
0001
0000
1000
,
0000
0001
0000
1000
,
0010
0010
1000
1000
,
0001
0001
0010
0000
,
0100
0100
0010
0010
,
0001
0001
0100
0000
,
0010
0010
1000
1000
,
0001
0001
1000
0000
,
0100
0100
0010
0010
,
0001
1000
0001
1001
,
0001
0001
1000
1000
,
0001
1000
0001
0000
1000
0001
1000
0000
,
0100
0100
0010
0010
,
0001
0010
0001
0010
0001
0000
0010
0000
,
0100
0100
1000
1000
,
0001
1000
0001
0000
1000
0001
1000
0000
,
0010
0010
0100
0100
,
0001
0100
0001
0100
0001
0000
1000
0000
,
0001
1000
0001
0000
1000
0000
0001
0000
,
1000
0001
1000
0000
0100
0000
0010
0000
,
0100
0010
0100
0000
0010
0000
0100
0000
,
0010
0100
0010
0100
0010
0000
0001
0000
,
1000
0000
0001
0001
1000
0000
0001
0000
,
1000
0000
1000
1000
0001
0000
1000
0000
,
0001
0000
0100
0100
0010
0000
0100
0000
,
0010
0010
0100
0000
0010
0010
0100
0000
,
0010
1000
0001
0100
,
0010
0000
1000
0000
0001
0000
1000
1000
,
0001
0000
1000
1000
0001
0000
1000
0000
,
0100
0000
0010
0000
0001
0001
0010
0000
,
0001
0000
0010
0000
0001
0001
0010
0000
,
0100
0100
0010
0010
,
0001
0100
0010
0000
,
0010
1000
0100
0010
,
0001
0010
0010
0000
,
0100
0100
0010
0010
,
0100
0010
0100
0100
,
1000
1000
0001
0001
,
1000
0001
1000
0000
,
0010
0010
1000
1000
,
0001
0001
1000
0001
,
0010
0010
0100
0100
,
1000
0001
1000
0000
,
0010
0010
0000
0000
,
0100
0100
0000
0000
,
0010
0010
0000
0000
,
0100
0100
1001
0001
,
0001
1000
1000
0001
,
1000
0001
0001
0000
,
1000
1000
1000
0000
,
0010
0100
0010
0100
,
0010
1000
0001
0000
,
0010
0100
1000
0001
,
0001
1000
1000
0010
,
0100
0001
1000
1000
,
0001
0000
1000
0000
0001
0001
1000
0000
,
0100
0010
0100
0000
,
1000
0001
0100
0000
,
0001
1000
0010
0000
,
0010
1000
0100
0000
0010
0001
0100
0000
,
0001
1000
0001
0000
,
1000
0000
1000
0000
0001
0000
0001
0001
,
1000
0000
0001
0001
1000
0000
0001
0000
,
1000
0000
0100
0000
0010
0010
0100
0000
,
0010
0000
0100
0000
0010
0010
0100
0000
,
1000
1000
0001
0000
1000
1000
0001
0000
,
1000
1000
0001
0000
1000
0000
0001
0000
,
0001
0001
1000
0000
0001
0001
1000
0000
,
0001
0001
1000
0000
0002
0000
0003
0000
;

//---------------dance-single - ----------------
#NOTES:
     dance-single:
     :
     Hard:
     12:
     0.504926,0.496622,0.119588,0.006644,0.468386,532.000000,514.000000,18.000000,1.000000,0.000000,0.000000,0.504926,0.496622,0.119588,0.006644,0.468386,532.000000,514.000000,18.000000,1.000000,0.000000,0.000000:
0000
0000
0000
0000
,
0000
0000
0000
0000
,
0000
0000
0000
0000
0000
0000
0001
0010
,
0100
0000
0000
0000
0010
0000
0000
0010
0000
0000
0000
0000
0000
0000
0100
0000
,
1000
0000
0000
0000
0010
0000
0000
0010
0000
0000
0000
0000
0100
0000
0001
1000
,
0000
0000
0000
0000
1000
0000
0001
1000
0000
0000
1000
0000
0001
0000
1000
0000
,
0100
0000
0000
0000
0010
0000
0000
0100
0000
0000
0100
0000
0010
0000
0000
0000
,
0100
0000
1000
0000
0001
0001
1000
0001
,
1000
0100
0000
1000
0000
0001
0100
0000
0001
0000
1000
0000
0010
0000
1000
0000
,
0100
1000
0000
0100
0000
1000
0001
0000
0100
0000
0000
0000
0001
0000
0000
0000
,
0100
0001
0000
1000
0000
0100
1000
0000
0001
0000
0100
0000
0010
0000
1000
0000
,
0100
0010
0000
0100
0000
0010
0100
0000
0010
0000
0000
0000
1001
0000
0000
0000
,
0001
0100
0000
0001
0000
1000
0100
0000
1000
0000
0001
0000
0100
0000
0010
0000
,
1000
0010
0000
1000
0000
0001
0100
0000
0001
0000
0000
0000
1000
0000
0000
0000
,
0100
1000
0000
0100
0000
0010
0001
0000
0010
0000
0001
0000
1000
0000
0010
0000
,
0100
0001
0000
0100
0000
0010
1000
0000
0100
0000
0000
0000
1001
0000
0000
0000
,
0001
0000
1000
0001
0000
0000
1000
0000
0001
0000
1000
0001
0000
0000
0001
0000
,
0010
0000
0100
0010
0000
0100
0010
0000
0100
0000
0010
0100
0000
0000
0100
0000
,
0010
0000
0001
0100
0000
0000
0100
0000
0010
0000
1000
0010
0000
0000
0010
0000
,
1000
0000
0100
1000
0000
0100
1000
0000
0001
0000
0000
0000
0100
0000
0000
0000
,
0010
0000
1000
0010
0000
0000
1000
0000
0001
0000
0100
0001
0000
0000
0100
0000
,
0010
0000
1000
0010
0000
1000
0010
0000
1000
0000
0100
0010
0000
0000
0100
0000
,
0010
0000
0001
0010
0000
0000
0001
0000
0100
0000
0001
0100
0000
0001
0100
0010
,
0100
0000
0010
1000
0000
0010
1000
0000
0100
0000
0000
0000
1100
0000
0000
0000
,
0100
0000
0010
0001
0000
0010
0100
0000
1000
0000
0001
0000
1000
0000
0001
0000
,
0100
0000
0010
0100
0000
0001
0100
0000
0010
0000
1000
0000
0100
0000
0010
0000
,
0001
0000
0010
0100
0000
0010
0001
0000
0010
0000
0100
0000
1000
0000
0010
0000
,
0100
0000
0001
1000
0000
0001
1000
0000
1001
0000
0000
0000
0001
0000
1000
0000
,
0100
0000
0000
0000
0100
0000
1000
0100
0000
0000
0000
0000
0000
0000
0100
0000
,
1000
0000
0000
0000
0001
0000
0100
0001
0000
0000
0000
0000
0000
0000
0000
0000
,
1001
0000
0000
0000
0010
0000
1000
0100
0000
0000
0000
0000
0000
0000
0001
0000
,
1000
0000
0001
0000
1001
0000
0001
1000
0001
1000
0001
0000
1001
0000
0000
0000
,
1000
0000
0000
0000
1100
0000
0100
1000
0000
0000
0000
0000
0000
0000
0001
0000
,
1000
0000
0000
0000
0001
0000
1000
0001
0000
0000
0000
0000
0001
0000
0100
0010
,
0000
0000
0000
0000
0010
0000
1000
0100
0000
0000
0100
0000
0010
0000
0001
0010
,
0000
0100
1000
0000
0001
1000
0001
0000
,
0100
0000
0010
0000
1000
1000
1000
0001
,
0100
0010
0000
1000
0000
0100
0010
0000
0100
0000
0010
0000
0001
0000
1000
0000
,
0010
0100
0000
0001
0000
0100
0010
0000
1000
0000
0000
0000
1100
0000
0000
0000
,
0010
1000
0000
0100
0000
0010
0001
0000
0100
0000
0001
0000
1000
0000
0010
0000
,
1000
0100
0000
0010
0000
0001
0100
0000
0010
0000
0000
0000
0101
0000
0000
0000
,
0001
0000
1000
0001
0000
0000
0001
0000
1000
0000
0001
1000
0000
0000
1000
0000
,
0010
0000
1000
0100
0000
0010
0001
0000
0100
0000
0010
0100
0000
0000
0010
0000
,
1000
0000
0100
1000
0000
0000
0001
0000
0100
0000
0001
0100
0000
0000
0001
0000
,
1000
0000
0100
1000
0000
0001
0010
0000
0001
0000
0000
0000
0000
0000
0010
0000
,
1000
0000
0001
0100
0000
0000
0010
0000
1000
0000
0100
0010
0000
0000
0001
0000
,
1000
0000
0010
1000
0000
0001
0100
0000
0010
0000
1000
0100
0000
0000
0100
0000
,
1000
0000
0000
0001
0000
0000
0100
0000
0001
0000
0000
1000
0000
0000
0100
0000
,
1000
0000
0001
0010
0000
0001
1000
0000
0100
0000
0000
0000
1100
0000
0000
0000
,
0001
0000
1000
0010
0000
0100
0001
0000
1000
0000
0010
0000
1000
0000
0100
0000
,
0010
0000
0100
0010
0000
0100
0010
0000
0001
0000
0100
0000
0010
0000
1000
0000
,
0001
0000
0100
0001
0000
0100
0001
0000
1000
0000
0100
0000
0010
0000
0001
0000
,
1000
0000
0010
1000
0000
0010
1000
0000
1001
0000
0000
0000
0001
0000
0100
0000
,
0010
0000
0000
0000
0010
0000
1000
0100
0000
0000
0000
0000
0000
0000
0100
0000
,
0010
0000
0000
0000
0001
0000
0100
0001
0000
0000
0000
0000
0001
0000
0000
0000
,
1000
0000
0000
0000
0001
0000
0010
0100
0000
0000
0000
0000
0000
0000
0100
0000
,
0010
0000
0001
0000
0110
0000
0010
0100
0010
0100
0010
0000
0110
0000
0000
0000
,
0010
0000
0000
0000
1000
0000
0001
1000
0000
0000
0000
0000
0000
0000
0001
0000
,
0010
0000
0000
0000
0100
0000
0010
0100
0000
0000
0000
0000
0100
0000
1000
0001
,
0000
0000
0000
0000
0001
0000
0100
0010
0000
0000
0010
0000
0100
0000
0001
1000
,
0000
0000
0100
0000
0010
0000
0000
0100
0000
0000
1000
0000
0001
0000
0000
0000
,
0100
0000
0110
0000
0010
0010
1000
0001
,
1000
0000
0000
0000
0001
0000
0010
0100
0000
0000
0000
0000
0000
0000
0100
0000
,
0010
0000
0000
0000
0001
0000
0100
0010
0000
0000
0000
0000
0000
0000
0000
0000
,
0010
0000
0000
0000
1000
0000
0001
1000
0000
0000
0000
0000
0000
0000
0001
0000
,
1000
0000
0001
0000
1001
0000
0001
1000
0001
1000
0001
0000
1001
0000
0000
0000
,
0001
0000
0000
0000
0010
0000
0100
0010
0000
0000
0000
0000
0000
0000
0100
0000
,
1000
0000
0000
0000
0001
0000
0100
0010
0000
0000
0000
0000
0010
0000
0100
0010
,
0000
0000
0000
0000
0010
0000
1000
0001
0000
0000
0001
0000
1000
0000
0100
0010
,
0000
0000
0100
0000
1000
0000
0000
0001
0000
0000
0100
0000
0010
0000
0000
0000
,
0010
0000
1000
0000
0000
0001
0000
0000
1000
0000
0000
0001
0000
0000
0010
0000
,
0100
0010
0000
0100
0000
1000
0001
0000
0100
0000
0010
0000
1000
0000
0100
0000
,
1000
0010
0000
0100
0000
0001
0010
0000
0100
0000
0000
0000
0110
0000
0000
0000
,
0100
1000
0000
0001
0000
0100
0010
0000
1000
0000
0001
0000
0100
0000
0010
0000
,
1000
0100
0000
1000
0000
0001
0100
0000
0020
0000
0000
0000
0030
0000
0000
0000
;

//---------------dance-single - ----------------
#NOTES:
     dance-single:
     :
     Challenge:
     13:
     0.526756,0.521453,0.112944,0.298970,0.574686,555.000000,538.000000,17.000000,45.000000,0.000000,0.000000,0.526756,0.521453,0.112944,0.298970,0.574686,555.000000,538.000000,17.000000,45.000000,0.000000,0.000000:
// measure 0
0000
0000
0000
0000
,  // measure 1
0000
0000
0000
0000
,  // measure 2
0000
0000
0000
0000
0000
0000
0001
1000
,  // measure 3
0001
0000
0000
0000
1000
0000
0001
1000
0000
0000
0000
0000
0000
0000
0010
0000
,  // measure 4
1000
0000
0000
0000
0100
0000
0010
0001
0000
0000
0000
0000
0100
0000
0010
2000
,  // measure 5
0000
0000
3000
0000
0001
0000
0100
0010
0000
0000
0100
0000
0010
1000
0000
1000
,  // measure 6
0010
0000
0000
0010
1000
0000
0000
0001
0000
0000
0001
0000
1000
0001
0000
0000
,  // measure 7
0001
0000
0000
0000
1000
0000
0000
0000
1000
0000
1000
0000
0001
1000
0001
0000
,  // measure 8
0100
0010
0000
0100
0000
0010
1000
0000
0010
0000
1000
0000
0100
0000
0010
0000
,  // measure 9
0001
0010
0000
0100
0000
0010
0001
0000
0100
0000
0000
0000
0110
0000
0000
0000
,  // measure 10
0010
1000
0000
0100
0000
1000
0010
0000
0100
0000
0001
0000
0010
0000
0001
0000
,  // measure 11
0100
0010
0000
0100
0000
0001
0010
0000
0100
0000
0000
0000
0110
0000
0000
0000
,  // measure 12
0100
1000
0000
0100
0000
0010
0001
0000
0010
0000
0001
0000
0100
0000
0010
0000
,  // measure 13
0100
0010
0000
1000
0000
0010
1000
0000
0100
0000
0000
0000
1100
0000
0000
0000
,  // measure 14
0100
0010
0000
0100
0000
0010
0001
0000
0100
0000
0010
0000
0100
0000
0001
0000
,  // measure 15
1000
0000
0000
0100
0000
0000
0000
0000
0000
0010
0000
0000
0000
0000
0000
0001
0000
0000
1000
0000
0000
0000
0000
0000
0200
0000
0000
0000
0000
0000
0000
0000
0300
0000
0000
0000
1001
0000
0000
0000
0000
0000
1000
0000
0000
0000
0000
0000
,  // measure 16
0001
0000
1000
0001
0000
0000
1000
0000
0001
0000
1000
0001
0000
0000
0001
0000
,  // measure 17
0010
0000
0100
0010
0000
0100
0010
0000
0100
0000
1000
0001
0000
0000
0001
0000
,  // measure 18
0100
0000
0010
1000
0000
0000
0010
0000
1000
0000
0100
1000
0000
0000
0100
0000
,  // measure 19
0010
0000
0001
0010
0000
0001
0100
0000
0001
0000
0000
0000
1000
0000
0001
0000
,  // measure 20
1000
0000
0001
1000
0000
0000
1000
0000
0001
0000
1000
0001
0000
0000
0001
0000
,  // measure 21
0010
0000
0100
0010
0000
0100
0010
0000
0100
0000
0010
0001
0000
0000
0001
0000
,  // measure 22
0100
0000
0010
0100
0000
0000
0010
0000
0100
0000
0010
0100
0000
0010
1000
0010
,  // measure 23
1000
0000
0010
1000
0000
0001
1000
0000
0001
0000
0000
0000
1001
0000
0000
0000
,  // measure 24
0001
0010
0100
0010
0000
0001
1000
0000
0001
0000
1000
0010
0000
0200
0000
0000
,  // measure 25
0301
1000
0001
0100
0000
0010
0100
0000
1000
0000
0001
0010
0000
0200
0000
0000
,  // measure 26
1300
0001
0010
1000
0000
0100
0010
0000
0001
0000
1000
0100
0000
2000
0000
0000
,  // measure 27
3001
0010
0100
2000
0000
3200
0000
0300
2002
0000
3003
0000
0001
0000
1000
0000
,  // measure 28
0010
0000
0000
0000
0100
0000
0001
2000
0000
0000
0000
0000
0001
0000
3100
0000
,  // measure 29
0010
0000
0000
0000
1000
0000
0100
0020
0000
0000
0000
0000
0100
0000
0000
0000
,  // measure 30
0031
0000
0000
0000
0001
0000
0100
0020
0000
0000
0000
0000
1000
0030
0000
0000
,  // measure 31
1000
0000
0001
0000
1001
0000
1000
0100
0000
0010
0001
0000
1001
0000
0000
0000
,  // measure 32
0001
0000
0000
0000
1000
0000
0010
2000
0000
0000
0000
0000
0001
3000
0100
0000
,  // measure 33
0010
0000
0000
0000
0010
0000
1000
0200
0000
0000
0000
0000
0310
0000
0010
0002
,  // measure 34
0000
0000
0000
0000
0103
0000
0100
0010
0000
0000
1000
0000
1000
0000
1000
0002
,  // measure 35
0000
0000
0000
0000
0010
0000
0000
1000
0000
0000
1000
0000
1000
0000
0003
0000
,  // measure 36
0001
0000
0100
0000
0000
0010
0000
0000
0010
0000
0000
0010
0000
0000
0010
0000
,  // measure 37
1000
0001
0000
0100
0000
0010
1000
0000
0100
0000
0010
0000
0001
0000
0010
0000
,  // measure 38
0100
1000
0000
0001
0000
0100
0010
0000
1000
0000
0000
0000
1001
0000
0000
0000
,  // measure 39
1000
0100
0000
0010
0000
0001
0010
0000
1000
0000
0010
0000
0001
0000
0100
0000
,  // measure 40
0010
0100
0000
0001
0000
1000
0100
0000
0020
0000
0000
0030
1001
0000
0001
0000
,  // measure 41
1000
0000
0001
1000
0000
0000
0001
0000
1000
0000
0001
1000
0000
0000
1000
0000
,  // measure 42
0100
0000
0010
0100
0000
0010
0100
0000
0010
0000
0001
1000
0000
0000
1000
0000
,  // measure 43
0010
0000
0100
0001
0000
0000
0100
0000
0001
0000
0010
0001
0000
0000
0010
0000
,  // measure 44
0100
0000
1000
0100
0000
1000
0010
0000
1000
0000
0000
0000
0001
0000
1000
0000
,  // measure 45
0001
0000
1000
0001
0000
0000
0001
0000
1000
0000
0001
1000
0000
0000
1000
0000
,  // measure 46
0100
0000
0010
0100
0000
0010
0100
0000
0010
0000
0100
1000
0000
0000
1000
0000
,  // measure 47
0010
0000
0100
0010
0000
0000
0100
0000
0010
0000
0100
0010
0000
0100
0001
0100
,  // measure 48
0001
0000
0100
0001
0000
1000
0001
0000
1000
0000
0000
0000
1001
0000
0000
0000
,  // measure 49
1000
0100
0010
0100
0000
1000
0001
0000
1000
0000
0001
0100
0000
0020
0000
0000
,  // measure 50
1030
0001
1000
0010
0000
0100
0010
0000
0001
0000
1000
0100
0000
0020
0000
0000
,  // measure 51
0031
1000
0100
0001
0000
0010
0100
0000
1000
0000
0001
0010
0000
0002
0000
0000
,  // measure 52
1003
0100
0010
0002
0000
0023
0000
0030
2002
0000
3003
0000
1000
0000
0001
0000
,  // measure 53
0100
0000
0000
0000
0010
0000
1000
0002
0000
0000
0000
0000
1000
0000
0013
0000
,  // measure 54
0100
0000
0000
0000
0001
0000
0010
0200
0000
0000
0000
0000
0010
0000
0000
0000
,  // measure 55
1300
0000
0000
0000
1000
0000
0010
0200
0000
0000
0000
0000
0001
0300
0000
0000
,  // measure 56
0001
0000
1000
0000
1001
0000
0001
0010
0000
0100
1000
0000
1001
0000
0000
0000
,  // measure 57
1000
0000
0000
0000
0001
0000
0100
0002
0000
0000
0000
0000
1000
0003
0010
0000
,  // measure 58
0100
0000
0000
0000
0100
0000
0001
0020
0000
0000
0000
0000
0130
0000
0100
2000
,  // measure 59
0000
0000
0000
0000
3010
0000
0010
0100
0000
0000
0001
0000
0001
0000
0001
2000
,  // measure 60
0000
0000
0001
0000
0100
0100
0010
3000
,  // measure 61
0100
0000
0010
0000
0000
0010
0000
0000
0010
0000
0000
0010
0000
0000
0010
0000
,  // measure 62
0002
0000
0000
0000
0013
0000
0100
2000
0000
0000
0000
0000
0001
0000
3100
0000
,  // measure 63
0010
0000
0000
0000
1000
0000
0100
0020
0000
0000
0000
0000
0100
0000
0000
0000
,  // measure 64
0031
0000
0000
0000
0001
0000
0100
0020
0000
0000
0000
0000
1000
0030
0000
0000
,  // measure 65
1000
0000
0001
0000
1001
0000
1000
0100
0000
0010
0001
0000
1001
0000
0000
0000
,  // measure 66
0001
0000
0000
0000
1000
0000
0010
2000
0000
0000
0000
0000
0001
3000
0100
0000
,  // measure 67
0010
0000
0000
0000
0010
0000
1000
0200
0000
0000
0000
0000
0310
0000
0010
0002
,  // measure 68
0000
0000
0000
0000
0103
0000
0100
0010
0000
0000
1000
0000
1000
0000
1000
0002
,  // measure 69
0000
0000
0000
0000
0010
0000
0000
1000
1000
0000
1000
0000
1000
1000
0003
0000
,  // measure 70
0001
0000
2000
0000
3000
0002
0000
0003
2000
0000
3000
0002
0000
0003
2000
0000
,  // measure 71
3010
0100
0000
0001
0000
0100
0010
0000
1000
0000
0100
0000
0010
0000
0100
0000
,  // measure 72
0010
0001
0000
0010
0000
0100
1000
0000
0001
0000
0000
0000
1001
0000
0000
0000
,  // measure 73
0010
0100
0000
1000
0000
0100
0010
0000
1000
0000
0100
0000
0010
0000
0001
0000
,  // measure 74
0010
0100
0000
0010
0000
0001
1000
0000
0020
0000
0000
0000
0030
0000
0000
0000
;
