#TITLE:Rose;
#SUBTITLE:Nana Opening;
#ARTIST:Anna Tsuchiya;
#TITLETRANSLIT:;
#SUBTITLETRANSLIT:;
#ARTISTTRANSLIT:;
#GENRE:;
#CREDIT:;
#BANNER:RBN.jpg;
#BACKGROUND:RBG.jpg;
#LYRICSPATH:;
#CDTITLE:cdtitleitachi.png;
#MUSIC:ROSE.mp3;
#OFFSET:-0.142000;
#SAMPLESTART:55.097004;
#SAMPLELENGTH:23.488373;
#SELECTABLE:YES;
#BPMS:0.000000=172.000000
;
#STOPS:
;
#BGCHANGES:0.063=1.avi=1.000=0=0=1=====,
263.000=RBG.jpg=1.000=0=0=1=====,
99999=-nosongbg-=1.000=0=0=0 // don't automatically add -songbackground-
;
#KEYSOUNDS:;
#ATTACKS:;

//---------------dance-single - ----------------
#NOTES:
     dance-single:
     :
     Easy:
     2:
     0.127803,0.337434,0.176844,0.166441,0.000000,86.000000,69.000000,17.000000,16.000000,0.000000,0.000000,0.127803,0.337434,0.176844,0.166441,0.000000,86.000000,69.000000,17.000000,16.000000,0.000000,0.000000:
0000
0000
0000
0000
,
0000
0000
0000
0000
,
0000
0000
0000
0000
,
0000
0000
0000
0000
,
0000
0000
0000
0000
,
0000
0000
0000
0000
,
0000
0000
0000
0000
,
0000
0000
0000
0110
,
0000
1000
0000
0000
,
0001
0000
0100
0000
,
0010
0000
1001
0000
,
1001
0000
1001
0000
,
0000
0000
0110
0000
,
0110
0000
0110
0000
,
1001
0000
1001
0000
,
0001
0000
1000
0000
,
0001
0000
0000
0000
,
0000
0000
0000
0000
,
0000
1000
0000
0000
,
0000
0000
0000
0000
,
0000
0010
0000
0000
,
0000
0000
0000
0000
,
0000
1000
0000
0000
,
0000
1001
0000
0000
,
0000
1000
0000
1000
,
0000
0000
2000
0000
0000
0000
0000
3000
,
0000
0010
0000
0100
,
0000
0002
0003
0000
,
0000
1000
0000
0010
,
0000
1000
0000
0000
,
0000
0020
0030
0000
,
0000
1000
0000
0001
,
0000
1001
0000
0000
,
0000
0000
0000
0000
,
0000
0110
0000
0000
,
0000
0000
0000
0000
,
0000
1010
0000
0000
,
0000
0000
0000
0000
,
0000
0101
0000
0000
,
0000
1001
0000
0000
,
0000
2000
0000
0000
,
0000
0000
0000
3000
0000
0000
0010
0000
,
0000
0020
0000
0000
,
0000
0000
0000
0030
0000
0000
0000
0000
,
0000
1000
0000
0001
,
0000
0010
0000
0000
,
0000
0001
0000
0001
,
0000
1000
0000
0010
,
0000
0020
0000
0000
,
0000
0030
0000
0000
0000
0000
1001
0000
,
0000
0002
0000
0000
,
0000
0000
0000
0000
0000
0003
0000
0000
,
0000
1000
0000
0010
,
0000
2000
3000
0000
,
0100
0000
0000
0100
,
0000
0000
0200
0300
0000
0000
1000
0000
,
0000
0000
0002
0000
0000
0000
0000
0003
,
0000
2000
0000
0000
,
3000
0000
0020
0000
0000
0000
0000
0030
,
0000
1000
0000
0001
,
0000
0000
0002
0000
0000
0000
0000
0003
,
0000
1000
0000
0010
,
0000
0000
0020
0000
0000
0000
0000
0030
,
0000
1000
0000
0001
,
0000
0000
2002
0000
0000
0000
0000
3003
;

//---------------dance-single - ----------------
#NOTES:
     dance-single:
     :
     Hard:
     10:
     0.481491,0.583585,0.228857,0.031208,0.000000,324.000000,302.000000,22.000000,3.000000,0.000000,0.000000,0.481491,0.583585,0.228857,0.031208,0.000000,324.000000,302.000000,22.000000,3.000000,0.000000,0.000000:
// measure 0
0000
0000
0000
0000
,  // measure 1
0000
0000
0000
0000
,  // measure 2
0000
0000
0000
0000
,  // measure 3
0000
0000
0000
0000
,  // measure 4
0000
0000
0000
0000
,  // measure 5
0000
0000
0000
0000
,  // measure 6
0000
0000
0000
0000
,  // measure 7
0000
0000
0000
0000
0000
0000
0010
1000
,  // measure 8
0000
0000
0010
0000
0010
1000
0010
1000
,  // measure 9
0001
0000
0010
0000
1001
0000
0010
1000
,  // measure 10
0010
0000
1000
0000
1001
0000
0000
0110
,  // measure 11
0010
0000
1000
0000
0101
0000
1000
0100
,  // measure 12
1000
0010
1000
0000
1001
0000
0001
1000
,  // measure 13
0010
0000
1000
0000
1001
0000
0001
0100
,  // measure 14
0001
0000
1000
0000
1001
0000
1000
0100
,  // measure 15
1000
0000
0001
0010
0100
1000
0010
0100
,  // measure 16
0001
0000
0011
0000
0100
0001
0000
0001
,  // measure 17
0000
0100
0000
0000
0010
0000
1000
0001
,  // measure 18
0000
1000
0000
0000
0000
1000
0100
0010
,  // measure 19
0001
1000
0000
0000
0010
0000
1000
0001
,  // measure 20
0000
1000
0000
0000
0000
0000
0001
1000
,  // measure 21
0010
1000
0000
0001
0000
1000
0000
0010
,  // measure 22
0000
1000
0000
2002
3003
0000
0000
0000
,  // measure 23
0000
0000
1000
0001
0000
0000
1001
1001
,  // measure 24
0000
0000
1000
0000
0001
0100
0010
1000
,  // measure 25
0000
1000
0000
0000
1000
0000
0010
1000
,  // measure 26
0000
0010
0000
0000
0010
0000
1000
0001
,  // measure 27
1000
0001
0000
0000
0110
0000
1000
0001
,  // measure 28
0000
1010
0000
0000
1010
0000
0001
1000
,  // measure 29
0001
1000
0000
0000
0000
0010
0000
1000
,  // measure 30
0000
0001
0000
1000
0001
0000
1000
0000
,  // measure 31
0010
0000
1000
0001
1000
0010
0100
0010
,  // measure 32
0100
0000
0001
0001
0000
0000
1000
0010
,  // measure 33
0000
0010
0000
1000
0000
0001
0000
0000
,  // measure 34
0000
0000
1000
1000
0000
0000
0010
0010
,  // measure 35
0010
0010
0000
0001
0000
0100
0000
0001
,  // measure 36
1000
0000
0001
0001
0000
1000
1000
0010
,  // measure 37
0010
1000
0000
0001
0000
1000
0000
0000
,  // measure 38
0010
0000
1000
0010
0100
0001
0010
0001
,  // measure 39
0100
0000
0010
1000
0000
0000
0000
0000
,  // measure 40
0000
0000
0010
1000
0001
0100
0010
0100
,  // measure 41
0010
1000
0001
1000
0010
1000
0001
1000
,  // measure 42
0010
1000
0001
0001
1000
0000
0010
0010
,  // measure 43
1000
0000
0001
1000
0010
0000
1000
0001
,  // measure 44
1000
0010
0100
0001
1000
0010
0100
0001
,  // measure 45
1000
0010
0100
0000
0001
0000
0000
1000
,  // measure 46
0010
1000
0001
0100
0001
0100
0010
0100
,  // measure 47
0010
0100
0001
0000
1000
0001
0100
0000
,  // measure 48
0010
1000
0100
1000
0010
0100
0001
0010
,  // measure 49
0001
0100
0010
1000
0100
1000
0001
0010
,  // measure 50
0001
1000
0100
1000
0010
0100
0001
0010
,  // measure 51
0001
1000
0100
1000
0010
0100
0001
0010
,  // measure 52
0001
1000
0010
1000
0010
0100
0001
0000
,  // measure 53
1000
0100
1000
0000
1000
0000
0000
0000
,  // measure 54
0001
0100
0000
0001
,  // measure 55
1000
0000
0010
0000
1000
0000
0001
1000
,  // measure 56
0010
0000
1000
1000
0000
0110
0000
1001
,  // measure 57
0000
0001
0000
1000
0001
1000
0100
0000
,  // measure 58
1000
0000
0001
0100
0001
0100
0000
0110
,  // measure 59
0000
1100
0000
0001
1000
0010
0100
0000
,  // measure 60
1001
0000
0010
1000
0010
1000
0000
0001
,  // measure 61
0000
1001
0000
0010
1000
0010
1000
0000
,  // measure 62
0001
0000
1000
0010
1000
0010
0000
1001
,  // measure 63
0000
0101
0000
1000
0010
1000
0010
1000
,  // measure 64
0001
1000
0002
0000
0000
0000
0000
0000
,  // measure 65
0000
0000
0000
0000
,  // measure 66
0003
0000
0000
0000
;

//---------------dance-single - ----------------
#NOTES:
     dance-single:
     :
     Challenge:
     15:
     0.685084,0.890851,0.353688,0.374493,0.379694,461.000000,427.000000,34.000000,36.000000,0.000000,0.000000,0.685084,0.890851,0.353688,0.374493,0.379694,461.000000,427.000000,34.000000,36.000000,0.000000,0.000000:
0000
0000
0000
0000
,
0000
0000
0000
0000
,
0000
0000
0000
0000
,
0000
0000
0000
0000
,
0000
0000
0000
0000
,
0000
0000
0000
0000
,
0000
0000
0000
0000
,
0000
0000
0000
0000
0000
0000
0010
0100
,
0000
0000
0000
0000
0001
0000
1000
0100
1000
0000
0010
0100
0010
0000
1000
0000
,
0001
0100
0001
0000
0100
0000
0010
0100
0010
0000
0100
0010
0100
0000
0001
0000
,
0010
0001
0010
0000
0001
0000
1000
0100
1000
0000
0001
1000
0001
0000
1000
0000
,
0100
0010
0100
0000
0010
0000
0001
0010
0001
0000
1000
0100
1000
0000
0001
0000
,
0100
0010
0100
0000
0001
0000
1000
0010
1000
0000
0010
1000
0010
0000
1000
0000
,
0001
1000
0001
0000
1000
0000
0001
0010
0001
0000
0100
0001
0100
0000
0001
0000
,
0100
0001
0100
0000
0010
0000
1000
0100
1000
0000
0010
1000
0010
0000
1000
0000
,
0100
0010
0100
0000
0010
0001
0010
0000
0100
1000
0100
0000
0010
0001
1000
0010
,
1000
0001
1000
0010
1000
0000
0000
0000
1000
0000
0002
0000
0000
0000
2003
0000
,
0000
3020
0000
0030
1010
0000
0001
1000
,
0000
0002
0000
0003
0000
1000
0100
0010
,
0001
0200
0000
0300
0002
0003
2000
3002
,
0003
0000
2000
0000
0000
0000
0000
0000
0000
3000
0000
0000
0002
0000
2003
0000
,
3200
0320
0030
0002
0003
2000
3000
0010
,
0000
1000
0000
0001
2000
0000
0000
3000
,
0000
0000
0001
1000
0000
0000
0011
1100
,
0000
0000
1000
0100
1000
0010
0100
0001
,
0001
2000
0000
0000
3100
0000
0010
1000
,
0000
1001
0000
1000
0001
0001
1000
0020
,
0230
0302
0003
0000
1010
0000
1000
0010
,
0000
2002
3003
0000
0000
0200
0302
1003
,
0010
0200
0300
0000
0100
0100
0000
1000
,
0000
1000
0000
1001
0000
1000
0100
0010
,
0001
0000
0010
0000
0100
0000
1000
0000
0001
0000
1000
0000
0001
1000
0001
1000
,
0001
1000
0001
1000
0002
0000
2000
0000
3000
0000
0000
0003
1000
0000
0001
0000
,
0000
1000
0000
0010
0000
2002
3003
0000
,
0000
0000
0200
0302
0003
0000
1000
0001
,
1000
2000
3000
0010
0000
2000
3000
0001
,
1000
0000
0001
2000
3000
0000
0010
1000
,
0010
1000
0000
0001
0000
1000
0000
0000
,
1001
0000
0000
0000
1000
0000
0001
0000
1000
0100
1000
0100
1000
0100
1000
0100
,
1000
0100
1000
0000
1100
0000
1100
0000
0000
0000
0000
0000
0000
0000
0000
0000
,
0000
0000
0000
0000
0001
0000
1000
0000
0001
0010
0100
0000
1000
0000
1000
0000
,
1000
0100
0010
0000
0001
0000
0010
0000
0100
1000
0100
0000
0010
0000
0001
0000
,
1000
0100
0010
0000
0001
0000
0001
0000
0010
0100
1000
0000
0001
0000
0010
0000
,
0100
1000
0001
0000
1000
0000
0100
0000
0010
0001
0010
0000
0100
0000
1000
0000
,
0010
1000
1010
0100
1001
0100
1001
0100
,
1010
0000
0010
0000
1000
0000
0001
0000
1000
0100
0010
0000
0001
0000
0010
0000
,
0100
1000
0100
0000
0010
0000
0001
0000
1001
0000
0001
0000
1000
0100
1000
0000
,
0001
0010
0001
0000
1000
0000
1001
0000
0010
1000
0001
1000
0010
1000
0001
1000
,
0010
1000
0001
0000
1000
0000
0001
0000
0010
0100
1000
0000
0001
0000
0010
0000
,
0100
1000
0001
0000
1000
0000
0001
0000
0010
0100
1000
0000
0100
0000
0010
0000
,
0001
0010
0100
0000
1000
0000
1000
0000
0010
1000
0010
0000
1000
0000
0100
0000
,
0010
0001
0010
0000
0100
0000
1000
0000
1000
0010
0100
0000
0001
0000
0001
0000
,
1010
0000
0000
0000
0001
1000
0010
1000
0001
0000
1000
0000
0010
1000
0010
1000
,
0010
0000
1000
0000
0001
1000
0001
1000
0001
0000
1000
0000
0010
0000
0100
0000
,
0001
0000
1000
0000
0010
1000
0010
0000
1000
0000
0001
0000
0001
1000
0001
0000
,
1000
0000
0010
0000
0010
1000
0010
0000
1000
0000
0001
0000
0001
1000
0010
1000
,
0001
1000
0010
1000
0001
0000
1000
0000
0010
0000
1010
0000
0000
0000
1010
0000
,
0000
0110
0000
0001
0100
0001
0011
0000
,
1001
0000
1000
0010
0010
1010
0000
1100
,
0000
1010
0000
1000
0001
1000
0001
0000
,
1000
0000
0001
1000
0001
1001
0000
1010
,
0000
1001
0000
1000
0010
1000
0010
1000
,
0010
1000
0010
0000
1001
0000
1001
0000
0100
0000
1001
0000
0000
0000
1010
0000
,
0000
1010
0000
0001
0000
1000
0010
1000
,
0020
0200
0000
0000
,
0000
0000
0000
0000
0000
0000
0000
0330
;

//---------------dance-single - ----------------
#NOTES:
     dance-single:
     :
     Medium:
     7:
     0.378951,0.535408,0.197649,0.020805,0.000000,255.000000,236.000000,19.000000,2.000000,0.000000,0.000000,0.378951,0.535408,0.197649,0.020805,0.000000,255.000000,236.000000,19.000000,2.000000,0.000000,0.000000:
0000
0000
0000
0000
,
0000
0000
0000
0000
,
0000
0000
0000
0000
,
0000
0000
0000
0000
,
0000
0000
0000
0000
,
0000
0000
0000
0000
,
0000
0000
0000
0000
,
0000
0000
0000
0000
0000
0000
0010
0001
,
0000
1000
1000
0001
,
0001
0100
0010
0100
,
0001
1000
0100
0010
,
0100
0000
1000
0000
0001
0000
1000
0001
,
1000
0001
0100
0010
,
0100
0001
1000
0100
,
0010
0100
1000
0001
,
0100
0000
0010
0000
0100
0000
0001
1000
,
0001
0000
1000
0000
0100
1000
0000
0001
,
0000
0010
0000
0000
0100
0000
0010
0100
,
0000
1000
0000
0000
0000
0001
0100
0001
,
0000
0100
0000
0010
0000
0000
1000
0001
,
0000
1000
0000
0000
0000
0000
0001
0010
,
0000
0100
0000
0000
1000
0000
0001
1000
,
0000
0010
0000
0100
0000
0000
0000
0000
,
0000
0000
0001
1000
0000
0000
0001
1000
,
0000
0000
1001
0000
0010
0000
1000
0100
,
1000
0000
0001
0000
0010
0000
0001
0010
,
0001
0000
1000
0000
0001
0000
1000
0001
,
1000
0000
0010
0000
0100
0000
0010
0100
,
0010
0000
0100
0000
0001
0000
1000
0001
,
1000
0000
0100
0000
0010
0000
0001
0010
,
0001
0000
1000
0000
0010
0000
0100
0010
,
0100
0000
0010
0000
1000
0000
0001
1000
,
0001
1001
0000
1000
,
0000
0001
0000
0010
,
0000
0100
0000
1000
,
1000
0000
0001
0000
0001
0000
0100
0010
,
0100
0010
0000
1000
,
0000
0001
0000
0010
,
0010
0100
1000
0001
,
0100
0000
0110
0110
0000
0000
0000
0000
,
0000
1000
0010
1000
,
0001
0100
0001
0010
,
0100
0000
1000
0100
1000
0000
0010
0000
,
1000
0001
0100
0010
,
1000
1010
1010
0101
,
0101
0011
0001
1000
,
0010
0101
0101
1010
,
1010
0101
0001
1000
,
0001
1001
0010
1000
,
0100
0000
0010
0000
0001
0000
1000
0001
,
1000
0000
0001
1000
0001
0000
1000
0000
,
0010
0100
0001
1000
,
0100
0010
0001
0000
1000
0010
0100
0000
,
0001
0010
0100
0000
1000
0000
0001
0000
,
1000
0001
1000
0000
0001
0000
0100
0000
,
0010
0110
0010
1001
,
0100
0000
1001
0000
0100
1000
0000
0001
,
0000
0100
0000
0010
0100
0000
0010
0000
,
0100
0000
0001
1000
0000
0100
0000
0010
,
0000
0001
0000
0010
0100
0000
1000
0000
,
0001
0000
0100
0010
0000
0100
0000
0001
,
0000
1000
0000
0100
1000
0000
0001
0000
,
0010
0000
0100
0010
0000
0001
0000
1000
,
0000
0010
0000
0100
0001
0000
1000
0000
,
0100
2002
0000
0000
,
0000
0000
0000
0000
,
0000
0000
0000
0000
,
0000
0000
0000
0000
,
0000
0000
0000
0000
0000
3003
0000
0000
;
