#TITLE:Robotech Opening;
#SUBTITLE:Robotech Opening Latino;
#ARTIST:Minucci & Orber;
#TITLETRANSLIT:;
#SUBTITLETRANSLIT:;
#ARTISTTRANSLIT:;
#GENRE:;
#CREDIT:Magna Trick;
#BANNER:ROBN.jpg;
#BACKGROUND:ROBG.jpg;
#LYRICSPATH:;
#CDTITLE:Magna Trick title!.png;
#MUSIC:Robotech Opening.mp3;
#OFFSET:0.018483;
#SAMPLESTART:35.000000;
#SAMPLELENGTH:14.000000;
#SELECTABLE:YES;
#BPMS:0.000000=119.699997
,57.000000=121.000000
,84.000000=120.000000
,113.000000=119.699997
,145.000000=120.000000
;
#STOPS:
;
#BGCHANGES:0.063=Robotech Opening.avi=1.000=0=0=1=====,
179.000=ROBG.jpg=1.000=0=0=1=====,
99999=-nosongbg-=1.000=0=0=0 // don't automatically add -songbackground-
;
#KEYSOUNDS:;
#ATTACKS:;

//---------------dance-single - ----------------
#NOTES:
     dance-single:
     :
     Medium:
     8:
     0.359071,0.415683,0.054641,0.273206,0.180316,230.000000,225.000000,5.000000,25.000000,0.000000,0.000000,0.359071,0.415683,0.054641,0.273206,0.180316,230.000000,225.000000,5.000000,25.000000,0.000000,0.000000:
0000
0002
0000
2003
,
0000
0000
0000
0000
3010
0000
0000
1000
0001
0000
0000
0000
0000
0000
0000
0000
,
0001
0000
1000
0100
0000
1000
0000
0001
,
0100
0000
0000
0000
0010
0000
0000
1000
0002
0000
0000
0000
0000
0000
0003
0000
,
0001
0000
0010
0100
0000
1000
0000
0001
,
0100
0010
0010
0100
,
0100
0000
0001
1000
0001
1000
0001
1000
,
0001
1000
1000
0100
,
0100
0010
0001
1000
,
0110
0000
0001
0010
0100
1000
0001
0010
,
0100
1000
0001
1000
0010
0100
0001
1000
,
0010
0000
0010
1000
0100
0010
0001
0100
,
0010
1000
0100
0010
0001
0010
0100
0000
,
1000
2000
3002
0203
,
0000
0310
2000
0000
0000
0000
0000
0000
,
0000
3000
0000
0000
0002
0000
0000
0000
0023
0000
0000
0000
0230
0000
0000
0000
,
0000
1300
0020
0000
0000
0000
0000
0000
,
0000
0000
0030
0000
0100
0000
0000
0001
1000
0000
0000
0000
0100
0000
0000
0000
,
0010
0000
0000
0001
1000
0000
0000
0001
1000
0000
0000
0000
0010
0000
0000
0000
,
0100
0000
0000
0000
0001
0000
0000
1000
0001
0000
0000
0000
1000
0000
0000
0001
,
1000
0000
0000
0001
1000
0000
0000
0001
1000
0000
0000
0000
0010
0000
0000
0000
,
0100
0000
0000
0000
0001
0000
0000
1000
0001
0000
0000
0000
1000
0000
0000
0100
,
1000
0000
0000
0100
1000
0000
0000
0100
1000
0000
0000
0000
0010
0000
0000
0100
,
0001
0000
0000
0100
0001
0000
0000
0000
1000
0000
0000
0100
1000
0000
0000
0000
,
0001
0000
0000
0100
0001
0000
0000
0000
1000
0000
0000
0000
0001
0000
0000
0000
,
1000
0000
0000
0000
0100
0000
0000
1000
0100
0000
0000
0000
1000
0000
0000
0010
,
0100
0000
0000
0010
0100
0000
0000
0001
0100
0000
0000
0000
0001
0000
0000
1000
,
0001
0000
0000
1000
0001
0000
0000
0000
1000
0000
0000
0100
0010
0000
0000
0000
,
0100
0000
0000
0010
0001
0000
0000
0000
0010
0000
0000
0000
0001
0000
0000
0000
,
1000
0000
0000
0000
0010
0000
0000
0100
0010
0000
0000
0000
0100
0000
0000
0001
,
0100
0000
0000
0001
0100
0000
0010
0000
0000
0000
1000
0000
0000
0000
0100
0000
,
0010
0000
0000
0000
0001
0000
0000
1000
0001
0000
0000
0000
1000
0000
0000
0010
,
0100
0000
0000
0010
0100
0000
0010
0000
0000
0000
0100
0000
0000
0000
0001
0000
,
1000
1100
0001
0101
,
0010
0000
1000
0001
1000
0001
1000
0001
,
1000
1001
0100
1001
,
0010
0100
0002
0000
0000
0000
0000
0000
,
0000
0000
0000
0003
1000
0000
0000
0100
1000
0000
0000
0000
0001
0000
0000
0000
,
0100
0000
0010
0100
0000
0001
0000
1000
,
0100
0000
0000
0000
0010
0000
0000
0001
1000
0000
0000
0000
0010
0000
0000
0000
,
0100
0001
0000
1000
0000
0100
0000
0010
,
0100
1000
0002
0000
0203
0000
0320
0000
,
2030
3002
0023
0230
,
2300
3002
0203
0320
,
2030
3002
0000
1003
;

//---------------dance-single - ----------------
#NOTES:
     dance-single:
     :
     Hard:
     10:
     0.432446,0.489039,0.076498,0.415273,0.409809,277.000000,270.000000,7.000000,38.000000,0.000000,0.000000,0.432446,0.489039,0.076498,0.415273,0.409809,277.000000,270.000000,7.000000,38.000000,0.000000,0.000000:
0000
0000
0000
0000
1000
0001
2000
0000
0000
0000
0000
0000
3001
1000
0002
0000
,
1000
0000
0000
0000
0000
0000
0000
0000
0000
0000
0000
0000
0103
0000
0000
0000
0000
0000
0000
0000
0000
0001
0000
0000
1000
0000
0000
0000
0000
0000
0100
0000
0000
0010
0000
0000
0001
0000
0000
0000
0000
0000
0000
0000
1000
0000
0000
0000
,
0001
0000
0010
0000
0100
0000
1000
0000
0000
0010
0000
0000
0000
0000
0000
1000
0000
0000
0000
0000
0000
0001
0000
0000
,
0010
0000
0000
0000
0000
0000
0000
0000
0000
0000
0000
0000
0100
0000
0000
0000
0000
0000
0000
0000
0000
0100
0000
0000
1000
0000
0000
0000
0000
0000
0100
0000
0000
0010
0000
0000
0001
0000
0000
0000
0000
0000
0000
0000
1000
0000
0000
0000
,
0001
0000
0100
0000
0010
0000
1000
0000
0000
0100
0000
0000
0000
0000
0000
0001
0000
0000
0000
0000
0000
1000
0000
0000
,
0010
0000
0200
0000
0000
0010
0010
0000
,
0300
0000
0001
1000
0020
0000
0000
0000
0000
0000
0000
0000
0000
0000
0000
0000
,
0030
2001
3001
0210
,
0310
0000
0100
0001
2000
0000
0000
0000
0000
0000
0000
0000
3000
0000
0000
0000
,
0110
0000
1000
0100
0010
0001
1000
0100
,
0010
0000
0001
0000
1000
0000
0001
0000
0100
0000
0010
0000
1000
0001
0010
0001
,
0100
0000
0100
0001
0010
0100
1000
0010
,
0100
0000
0001
0000
0010
0000
0100
0000
1000
0100
1000
0001
0020
0000
0000
0000
,
0030
2000
3002
0023
,
0000
0000
0130
1000
0002
0000
0000
0000
0000
0000
0000
0000
0000
0000
0000
0000
,
0000
0003
0000
0000
2000
0000
0000
0000
3100
0000
0100
0000
0020
0000
0000
0000
,
0000
0000
0031
1000
0200
0000
0000
0000
0000
0000
0000
0000
0000
0000
0000
0000
,
0000
0000
0300
0000
0010
0000
0000
0001
1000
0000
0000
0000
0010
0000
0000
0010
,
0100
0000
0000
0100
0001
0000
0000
0001
1000
0000
0000
0000
0100
0000
0000
0010
,
0001
0000
0000
0000
1000
0000
0000
0001
1000
0000
0000
0000
0001
0000
0000
1000
,
0001
0000
0000
0001
0100
0000
0000
0100
0010
0000
0000
0000
0100
0000
0000
0000
,
0010
0000
0000
0000
1000
0000
0000
0001
1000
0000
0000
0000
0001
0000
0000
0010
,
0001
0000
0000
0001
1000
0000
0000
1000
0100
0000
0000
0000
0100
0000
0000
0010
,
0001
0000
0000
0010
1000
0000
0000
0000
0010
0000
0000
0010
0001
0000
0000
0000
,
1000
0000
0000
0010
2000
0000
0000
0000
0001
0000
0000
0000
0100
0000
0000
0000
,
3001
0000
0000
0000
0010
0000
0000
0001
0010
0000
0000
0000
0001
0000
0000
0100
,
0010
0000
0000
0010
1000
0000
0000
1000
0010
0000
0000
0000
1000
0000
0000
0001
,
1000
0000
0000
1000
0001
0000
0000
0000
0001
0000
0000
0010
0100
0000
0000
0000
,
0010
0000
0000
0100
2000
0000
0000
0000
0100
0000
0000
0000
0010
0000
0000
0000
,
3001
0000
0000
0000
0000
0000
0000
0000
0000
0000
0000
0000
0100
0000
0000
0000
0000
0000
0000
0000
0000
0010
0000
0000
0100
0000
0000
0000
0000
0000
0010
0000
0000
0001
0000
0000
1000
0000
0000
0000
0000
0000
0000
0000
0001
0000
0000
0000
,
1000
0000
0010
0000
0100
0000
0010
0000
0000
0100
0000
0000
0000
0000
0000
0001
0000
0000
0000
0000
0000
0010
0000
0000
,
0100
0000
0000
0000
0000
0000
0000
0000
0000
0000
0000
0000
1000
0000
0000
0000
0000
0000
0000
0000
0000
0001
0000
0000
1000
0000
0000
0000
0000
0000
0001
0000
0000
0100
0000
0000
0010
0000
0000
0000
0000
0000
0000
0000
0100
0000
0000
0000
,
0001
0000
1000
0000
0100
0000
0010
0000
0000
0100
0000
0000
0000
0000
0000
0010
0000
0000
0000
0000
0000
0001
0000
0000
,
1000
0012
1003
2010
,
3001
0000
0010
0100
0020
0000
0000
0000
0000
0000
0000
0000
0001
0000
0030
0000
,
0100
0000
2001
0000
3010
0000
1002
0100
,
0103
0000
0010
0100
2000
0000
0000
0000
0000
0000
0000
0000
0000
0000
0000
0000
,
0000
0000
0000
0000
0000
0000
0000
0000
0000
3000
0000
0000
0001
0000
0000
0000
0000
0000
0000
0000
0000
0010
0000
0000
0001
0000
0000
0000
0000
0000
1000
0000
0000
0001
0000
0000
0100
0000
0000
0000
0000
0000
0000
0000
0010
0000
0000
0000
,
0100
0000
0001
0000
1000
0000
0100
0000
0000
0010
0000
0000
0000
0000
0000
0001
0000
0000
0000
0000
0000
0010
0000
0000
,
0100
0000
0000
0000
0000
0000
0000
0000
0000
0000
0000
0000
0100
0000
0000
0000
0000
0000
0000
0000
0000
1000
0000
0000
0001
0000
0000
0000
0000
0000
0100
0000
0000
0010
0000
0000
1000
0000
0000
0000
0000
0000
0000
0000
0100
0000
0000
0000
,
0010
0000
0001
0000
1000
0000
0100
0000
0000
0020
0000
0000
0000
0000
0000
0032
0000
0000
0000
0000
0000
0103
0000
0000
,
0010
0000
1000
0000
2000
0000
0000
3100
0020
0000
0000
0031
0200
0000
0000
0000
,
0302
0000
0000
1003
0200
0000
0000
0310
0002
0000
0000
0100
0023
0000
0000
0000
,
2030
0000
0000
3001
0200
0000
0000
0310
2000
0000
0000
3100
0020
0000
0000
0000
,
0032
1000
2003
0000
0000
0000
3001
0000
;

//---------------dance-single - ----------------
#NOTES:
     dance-single:
     :
     Challenge:
     16:
     0.718142,0.929174,0.207637,0.371560,1.010863,460.000000,441.000000,19.000000,34.000000,0.000000,2.000000,0.718142,0.929174,0.207637,0.371560,1.010863,460.000000,441.000000,19.000000,34.000000,0.000000,2.000000:
// measure 0
0000
0000
0000
0000
0000
0000
0001
1000
0001
1000
0001
1000
0001
1000
0000
0000
0000
0000
1000
0001
1000
0001
1000
0001
,  // measure 1
1000
0000
0001
0000
0000
0000
0000
0000
0000
0000
0000
0000
1000
0000
0000
0000
0000
0000
0000
0000
0000
1000
0000
0000
0001
0000
0000
0000
0000
0000
0010
0000
0000
0100
0000
0000
1000
0000
0000
0000
0000
0000
0000
0000
0001
0000
0000
0000
,  // measure 2
1000
0000
0100
0000
0010
0000
0001
0000
0000
0101
0000
0000
0000
0000
0000
1100
0000
0000
0000
0000
0000
0101
0000
0000
,  // measure 3
1100
0000
0000
0000
0000
0000
0010
0000
0000
0000
0000
0000
0001
0000
0000
0000
0000
0000
0000
0000
0000
0010
0000
0000
0001
0000
0000
0000
0000
0000
0010
0000
0000
0100
0000
0000
1000
0000
0000
0000
0000
0000
0000
0000
0001
0000
0000
0000
,  // measure 4
1000
0000
0010
0000
0100
0000
0001
0000
0000
0011
0000
0000
0000
0000
0000
1010
0000
0000
0000
0000
0000
0011
0000
0000
,  // measure 5
1010
0000
0000
0000
0010
0000
0100
0001
0000
0001
0100
0000
0100
0000
0001
1000
,  // measure 6
0001
0000
1000
0001
0100
0000
0010
1000
0010
1000
0010
0000
0200
0000
0300
0000
,  // measure 7
0000
0000
0001
1000
1002
0000
0000
0000
1003
0000
0000
0000
0120
0000
0000
0000
,  // measure 8
0130
0000
0010
1000
0002
0000
0000
0000
0000
0000
0000
0000
0003
0000
0000
0000
,  // measure 9
0110
0000
0000
0000
0000
0000
0001
0000
0000
0010
0000
0000
0100
0000
0000
1000
0001
1000
0001
0000
0000
0010
0000
0000
,  // measure 10
0100
0000
0000
0000
1000
0000
0000
0000
0001
0000
0000
0000
1000
0000
0000
0000
0000
0000
0010
0000
0000
0000
0000
0000
0100
0000
0000
0001
0000
0000
1000
0000
0000
0000
0000
0000
0001
0000
0000
1000
0000
0000
0100
0000
0000
1000
0000
0000
,  // measure 11
0010
0000
0000
0000
0100
0000
0000
0000
0001
0000
0000
0000
1000
0000
0000
0000
0000
0000
0100
0000
0000
0000
0000
0000
0010
0000
0000
0000
0000
0000
0001
0000
0000
1000
0000
0000
0100
0000
0000
0000
0000
0000
0010
0000
0000
0000
0000
0000
,  // measure 12
0001
0000
1000
0000
0010
0000
0100
0000
0000
0010
1000
0001
1000
0001
0010
0100
1000
0010
0200
0000
0000
0000
0000
0001
,  // measure 13
0300
0000
1000
0000
0000
0000
0001
0000
0000
0000
0000
0000
1000
0000
0000
0000
0000
0000
0001
0000
0000
0100
0000
0000
0001
0000
0000
0100
0000
0000
0001
0000
0000
0000
0000
0000
0100
0000
0000
0000
0000
0000
0010
0000
0000
1000
0000
0000
,  // measure 14
0001
0000
0000
0000
0000
0000
0010
0000
0000
0001
0000
0000
1000
0000
0100
0000
0010
0000
0001
0000
1000
0000
0100
0000
0010
0000
0001
0000
0100
0000
0010
0000
0100
0000
0010
0000
1000
0000
0001
0000
1000
0000
0001
0000
0010
0000
0100
0000
,  // measure 15
1000
0000
0002
0000
0013
0010
0200
0000
,  // measure 16
0000
0000
1300
0001
0020
0000
0000
0000
0000
0000
0000
0000
0000
0000
0000
0000
,  // measure 17
0000
0000
0030
0000
0100
0000
0000
1000
0001
0000
0100
0001
0100
0000
0000
0100
,  // measure 18
0010
0000
0000
0010
1000
0000
0010
1000
0002
0000
0000
0000
0013
0000
0100
1000
,  // measure 19
0002
0000
0000
0000
0013
0000
0000
0100
1000
0000
0010
1000
0010
0000
0000
0010
,  // measure 20
1000
0000
0000
1000
0010
0000
0100
0001
0020
0000
0000
0000
0130
0000
1000
0001
,  // measure 21
1000
0000
0000
0000
0000
0000
0001
0000
1000
0000
0001
0000
1000
0000
0000
0000
0000
0000
0010
0000
0000
0100
0000
0000
0001
0000
0000
0000
0000
0000
1000
0000
0100
0000
1000
0000
0100
0000
0000
0000
0000
0000
0010
0000
0000
0001
0000
0000
,  // measure 22
1000
0000
1000
0000
0001
0000
0010
0001
0010
0000
0000
0010
0100
0000
0000
0100
,  // measure 23
1000
0000
0000
0100
0001
0000
0000
0000
0100
0000
1000
0100
0001
0000
0000
0000
,  // measure 24
0100
0000
0001
0100
2000
0000
0000
0000
0000
0000
0000
0000
0000
0000
0000
0000
,  // measure 25
3000
0000
0000
0000
0000
0000
0100
0000
0010
0000
0100
0000
0010
0000
0000
0000
0000
0000
0001
0000
0000
0100
0000
0000
0010
0000
0000
0000
0000
0000
1000
0000
0000
0100
0000
0000
1000
0000
0000
0100
0000
0000
1000
0000
0000
0010
0000
0000
,  // measure 26
0100
0000
0000
0100
0001
0000
0000
0001
0100
0000
0010
0100
0010
0100
0001
1000
,  // measure 27
0001
0000
0000
0001
1000
0000
0000
0000
1000
0000
1000
0100
0010
0000
0000
0000
,  // measure 28
0010
0000
0100
0010
0002
0000
0000
0000
0020
0000
0000
0000
0230
0000
0000
0000
,  // measure 29
2303
0000
0000
0000
0000
0000
3010
0000
0000
0100
0010
0100
0010
1000
0001
0010
0000
0000
0100
0000
0000
1000
0001
1000
,  // measure 30
0001
0000
0100
0000
0010
0000
1000
0000
0000
0000
0000
0000
0001
0000
0000
0000
0000
0000
0010
0000
0100
0000
0010
0000
0100
0000
1000
0000
0010
0000
0100
0000
0001
0000
0010
0000
0100
0000
0000
1000
0000
0000
0010
0000
0000
0100
0000
0000
,  // measure 31
0001
0000
0000
1000
0000
0000
0010
0000
0000
0100
0000
0000
0001
0000
0000
0000
0000
0000
1000
0000
0001
0000
1000
0000
0001
0000
0100
0000
0010
0000
1000
0000
0000
0000
0000
0000
0100
0000
0000
0000
0000
0000
0010
0000
0100
0000
0010
0000
,  // measure 32
0100
0000
1000
0000
0001
0000
0010
0000
0000
0000
0000
0000
0100
0000
1000
0000
0001
0000
0010
0000
0100
0000
0010
0000
0100
0000
1000
0000
0010
0000
0100
0000
0001
0000
0010
0000
0100
0000
0000
1000
0000
0000
0010
0000
0000
0100
0000
0000
,  // measure 33
0001
1000
0010
0100
2100
0000
0001
0001
3001
0001
1000
0000
0102
0000
1000
0000
,  // measure 34
1003
0000
0000
0000
0000
0000
0100
0000
0000
0010
0000
0000
0100
0000
0000
0000
0000
0000
1000
0000
0001
0000
1000
0000
0001
0000
0010
0000
0100
0000
1000
0000
0100
0000
0010
0000
0001
0000
1000
0000
0010
0000
0100
0000
0001
0000
1000
0000
,  // measure 35
0001
0000
1000
0000
0001
0000
1000
0000
0000
0000
0000
0000
1002
0000
0000
0000
0000
0000
0100
0000
0000
0000
0000
0000
0103
0000
0000
0100
0000
0000
0100
0000
0000
0000
0000
0000
2001
0000
0000
0000
0000
0000
0010
0000
0000
0000
0000
0000
,  // measure 36
3010
0010
0100
0002
0000
0000
0000
0000
0000
0000
0000
0000
,  // measure 37
0000
0000
0000
0000
0000
0000
0000
0000
0000
0003
0000
0000
1000
0000
0000
0000
0000
0000
0000
0000
0000
0100
0000
0000
1000
0000
0000
0000
0000
0000
0001
0000
0000
1000
0000
0000
0010
0000
0000
0000
0000
0000
0000
0000
0100
0000
0000
0000
,  // measure 38
0010
0000
1000
0000
0001
0000
0010
0000
0000
1100
0000
0000
0000
0000
0000
0101
0000
0000
0000
0000
0000
0101
0000
0000
,  // measure 39
1100
0000
0000
0000
0000
0000
0000
0000
0000
0000
0000
0000
0010
0000
0000
0000
0000
0000
0000
0000
0000
0001
0000
0000
1000
0000
0000
0000
0000
0000
0010
0000
0000
0100
0000
0000
0001
0000
0000
0000
0000
0000
0000
0000
0010
0000
0000
0000
,  // measure 40
0100
0000
0000
0000
1000
0000
0000
0000
0001
0000
0000
0000
0010
0000
0000
0100
0000
0000
1000
0000
0000
0010
0000
0000
0100
0000
0000
0001
0000
0000
0010
0000
0000
0100
0000
0000
1000
0000
0000
0010
0000
0000
0100
0000
0000
0001
0000
0000
,  // measure 41
0010
0100
1000
0100
0020
0000
0000
0031
0200
0000
0000
0310
2000
0000
0000
0000
,  // measure 42
3002
0000
0000
1003
0200
0000
0000
0310
0002
0000
0000
0100
0023
0000
0000
0000
,  // measure 43
2030
0000
0000
3001
0200
0000
0000
0310
2000
0000
0000
3100
0020
0000
0000
0000
,  // measure 44
0032
1000
2003
0000
0000
0000
3001
0000
;

//---------------dance-single - ----------------
#NOTES:
     dance-single:
     :
     Easy:
     5:
     0.240421,0.317875,0.000000,0.382489,0.000000,154.000000,154.000000,0.000000,35.000000,0.000000,0.000000,0.240421,0.317875,0.000000,0.382489,0.000000,154.000000,154.000000,0.000000,35.000000,0.000000,0.000000:
0000
0002
0000
2003
,
0000
3000
0010
0000
0010
0000
0100
0000
,
0000
0000
0001
1000
0000
0001
0000
1000
,
0001
1000
0100
0000
,
0010
0000
0001
0010
0000
0001
0000
0010
,
0001
1000
1000
0010
,
0010
0200
0000
0000
,
0300
0001
0001
1000
,
1000
0000
0200
0000
0000
0000
0000
0300
,
0010
0001
1000
0001
,
1000
0000
0010
0000
0100
0000
0010
0100
,
0010
0100
0001
0100
,
0001
1000
0001
1000
,
0001
0010
0100
1000
,
0001
1000
0002
0000
0000
0000
0000
0000
,
0000
0003
0100
0000
0010
0000
0100
0000
,
0010
1000
0020
0000
0000
0000
0000
0000
,
0000
0030
1000
0000
2000
0000
0000
3000
,
0001
0001
0002
0000
,
0000
0003
0100
0000
0200
0000
0000
0300
,
0010
0010
0020
0000
,
0030
0000
1000
0000
2000
0000
0000
3000
,
0001
0000
0001
0000
0002
0000
0000
0003
,
0010
0000
0020
0000
0000
0030
0200
0000
,
0000
2300
0000
0000
,
0000
3000
0010
0000
0020
0000
0000
0000
,
0130
0200
0302
0000
,
0000
2003
0000
3200
,
0000
0320
0000
0000
,
0000
0030
0001
0000
1000
0000
0010
0000
,
1000
0100
0010
0001
,
1000
0001
1000
0000
0010
0000
0100
0000
,
0001
0010
0100
1000
,
0001
1000
0001
0000
0100
0000
0010
0000
,
0100
0010
0100
0000
0001
0000
1000
0000
,
0100
0010
0010
0001
,
1000
0002
0000
0000
,
0000
0103
0100
0010
,
1000
0000
0010
1000
0010
1000
0001
1000
,
0001
1000
0100
0010
,
0001
0000
0010
0001
0010
0001
1000
0001
,
1000
0001
0200
0000
0320
0000
2030
0000
,
3200
0320
0032
0203
,
0320
0000
2030
0000
3200
0000
0320
0030
,
0002
0203
0000
0310
;
