#TITLE:Rise;
#SUBTITLE:The Rising of the Shield Hero Opening 1;
#ARTIST:MADKID;
#TITLETRANSLIT:;
#SUBTITLETRANSLIT:;
#ARTISTTRANSLIT:;
#GENRE:;
#CREDIT:Magna Trick;
#BANNER:RIBN.jpg;
#BACKGROUND:RIBG.jpg;
#LYRICSPATH:;
#CDTITLE:Magna Trick title!.png;
#MUSIC:Rise.mp3;
#OFFSET:0.075237;
#SAMPLESTART:66.279999;
#SAMPLELENGTH:14.000000;
#SELECTABLE:YES;
#BPMS:0.000000=165.000000
,114.000000=82.500000
,131.500000=165.000000
;
#STOPS:
;
#BGCHANGES:0.063=Rise.avi=1.000=0=0=1=====,
228.000=RIBG.jpg=1.000=0=0=1=====,
99999=-nosongbg-=1.000=0=0=0 // don't automatically add -songbackground-
;
#KEYSOUNDS:;
#ATTACKS:;

//---------------dance-single - ----------------
#NOTES:
     dance-single:
     :
     Challenge:
     11:
     0.595737,0.848925,0.187547,0.353029,0.397158,378.000000,361.000000,17.000000,32.000000,0.000000,0.000000,0.595737,0.848925,0.187547,0.353029,0.397158,378.000000,361.000000,17.000000,32.000000,0.000000,0.000000:
// measure 0
0000
0000
0000
0000
1001
0000
0010
1000
,  // measure 1
0000
0001
0100
0000
0001
0010
0000
0100
,  // measure 2
1000
0000
0010
0000
0100
0000
0001
1000
,  // measure 3
0000
0100
0010
0000
0001
1000
0000
0010
,  // measure 4
0100
1001
0020
1030
,  // measure 5
0100
0010
0100
0000
2000
0000
3100
0000
,  // measure 6
0010
0001
0010
0000
0200
0000
1300
0000
,  // measure 7
0010
0100
0010
0000
0002
0000
0013
0000
,  // measure 8
0100
1000
0100
0000
0020
0000
1030
0000
,  // measure 9
0001
0010
0001
0000
0020
0000
0130
0000
,  // measure 10
1000
0001
1000
0000
0020
0000
0130
0000
,  // measure 11
0001
1000
0001
0000
0020
0000
1030
0000
,  // measure 12
0010
0001
1000
0000
1100
1000
0001
0010
,  // measure 13
0100
1000
0001
0010
0000
1000
0010
0100
,  // measure 14
0001
1000
0010
0100
0000
0001
0100
0010
,  // measure 15
0000
0000
0100
0000
0000
1000
0000
0000
0001
0000
0000
0100
0000
0000
0010
0000
,  // measure 16
0000
1000
0000
0000
0000
0001
0100
1000
,  // measure 17
0100
0001
0010
1000
0000
1000
0010
0001
,  // measure 18
1000
0010
0000
0100
0001
0000
0000
0010
,  // measure 19
0100
0000
0000
0001
1000
0100
0000
0010
,  // measure 20
0000
0000
0000
0220
0000
0000
0000
0000
0000
0330
0000
0000
1000
0000
0100
0000
0010
0000
0100
0000
1000
0000
0100
0000
,  // measure 21
0010
0100
1000
0100
0000
0000
0010
0001
0010
0100
0010
0001
,  // measure 22
0010
0100
0010
0001
0000
0000
1000
0010
0100
0001
1000
0000
,  // measure 23
0100
0000
0010
0001
0000
1000
0010
0000
0100
0001
0000
1000
,  // measure 24
0100
0000
0010
0001
0000
0000
1000
0010
0100
0001
1000
0100
,  // measure 25
0010
0001
0100
0001
0000
0000
1000
0010
1000
0100
0010
0001
,  // measure 26
0010
0000
0000
0000
0100
0000
1000
0000
0000
0000
0000
0000
0001
0000
0000
2000
0000
0000
0000
0000
0000
3020
0000
0000
,  // measure 27
0000
2030
0000
3200
0000
0320
0000
0032
,  // measure 28
0000
0000
0203
0000
0000
0000
0300
0000
0001
0100
0000
1000
0100
0000
0001
0010
,  // measure 29
0000
1000
0010
0001
0010
1000
0010
0001
0010
0100
0000
0010
0100
0000
1000
0100
,  // measure 30
0000
0001
0000
1000
0100
0000
0110
0000
0100
0010
0001
0000
1000
0010
0100
0001
,  // measure 31
0000
0001
0000
0100
0000
1000
0000
0100
0020
1000
1000
1000
2030
0010
0010
0010
,  // measure 32
3010
0100
0001
2000
0000
3200
0000
0000
0310
0001
0010
0000
0100
0000
1001
0000
,  // measure 33
0000
0001
0100
1000
0200
0000
0302
0000
,  // measure 34
2003
0000
3020
0000
2030
0000
3000
0001
,  // measure 35
0000
0010
0100
0010
0001
1000
0010
1000
,  // measure 36
0010
0000
0200
0000
0302
0000
0003
1000
,  // measure 37
0100
0000
0001
0000
0000
0010
0000
0000
0100
0000
1000
0000
0000
0000
0001
0000
,  // measure 38
0010
0000
1000
0000
0000
0100
0000
0000
0001
0000
0100
0000
0000
0000
1000
0000
,  // measure 39
0100
0001
1000
0010
1000
0000
0020
0000
,  // measure 40
0032
0000
0000
1003
0000
0100
0000
1000
0000
0100
0000
0000
0000
0010
0000
0001
0000
0000
0000
0001
0000
1000
0000
0000
,  // measure 41
0000
0010
1000
0010
1000
0010
0100
0001
,  // measure 42
0100
0010
0100
1000
0100
0001
0100
1000
,  // measure 43
0100
0001
0010
1000
0010
0001
0010
1000
,  // measure 44
0010
0001
0010
0100
1000
0001
0000
0100
,  // measure 45
1000
0000
0100
0000
0000
0001
0000
0000
1000
0000
0010
0000
0000
0000
1000
0000
,  // measure 46
0100
0000
0010
0000
0000
0001
0000
0000
0100
0000
0010
0000
0000
0000
1000
0000
,  // measure 47
0000
0001
1000
0001
1000
0000
0001
0000
,  // measure 48
0010
0000
0000
0100
0000
1000
0000
0001
0000
1000
0000
0000
0000
0100
0000
0010
0000
0000
0000
0001
0000
1000
0000
0000
,  // measure 49
0000
0110
0000
0010
0000
1010
0000
1000
,  // measure 50
0000
1001
0000
0001
0000
0101
0000
0100
,  // measure 51
0000
0110
0000
0010
0000
0001
1000
0010
,  // measure 52
0000
1001
0000
1000
0000
0010
1000
0001
,  // measure 53
0000
1001
0000
0001
0000
0010
0100
1000
,  // measure 54
0000
1001
0000
0010
0000
0100
0001
1000
,  // measure 55
0000
1001
0000
0010
0000
1000
0100
0010
,  // measure 56
0000
0110
0000
0100
0000
2001
0100
0002
,  // measure 57
3003
0000
0000
0000
;

//---------------dance-single - ----------------
#NOTES:
     dance-single:
     :
     Hard:
     8:
     0.488568,0.660275,0.143418,0.209611,0.126870,310.000000,297.000000,13.000000,19.000000,0.000000,0.000000,0.488568,0.660275,0.143418,0.209611,0.126870,310.000000,297.000000,13.000000,19.000000,0.000000,0.000000:
0000
0000
0000
0000
1001
0000
0010
1000
,
0000
0010
1000
0000
0010
1000
0000
0010
,
1000
0000
0001
0000
0100
0000
0001
0100
,
0000
0001
0100
0000
0001
0100
0000
0001
,
0100
0010
1000
0001
,
1000
0001
1000
0000
0001
0000
1000
0000
,
0010
0100
0010
0000
0100
0000
0001
0000
,
0100
0001
0100
0000
0001
0000
1000
0000
,
0100
1000
0100
0000
0010
0000
0001
0000
,
1000
0001
1000
0000
0010
0000
0100
0000
,
0010
0100
0010
0000
0100
0000
0001
0000
,
1000
0001
1000
0000
0100
0000
0010
0000
,
0100
0010
0100
0000
0010
0000
0001
0000
,
1000
0001
1000
0010
,
0100
0001
1000
0001
,
1000
0100
0010
0010
,
0100
1000
0001
0100
,
0100
0010
1000
0001
,
0001
0010
0100
0000
,
1000
0000
0001
0001
,
1000
0010
0100
0001
,
0001
1000
0010
0010
,
0010
0010
1000
0100
,
1000
0010
1000
0100
,
1000
0000
0001
0000
1000
0001
1000
0000
,
0010
0000
0100
0000
0001
0100
0001
0000
,
1000
0000
0100
0000
1000
0002
0000
0203
,
0000
0302
0000
0023
0000
0230
0000
2300
,
0000
0000
3020
0000
0000
0000
0030
0000
0010
1000
0000
0010
0100
0000
0010
0100
,
0000
0001
0000
1000
0001
0000
1000
0000
0100
0010
0000
0100
0010
0000
0100
0010
,
0000
0001
0000
1000
0001
0000
1000
0000
0010
1000
0010
0000
1000
0000
0001
0100
,
0000
0001
0000
0100
0000
0100
0000
0000
0010
0000
0000
0000
1000
0000
0000
0000
,
0001
1000
0001
1000
0000
0200
0000
0000
0310
0001
0010
0000
0100
0000
1001
0000
,
0000
1000
0001
1000
0020
0000
2030
0000
,
3002
0000
0203
0000
0302
0000
0003
1000
,
0000
0100
0010
0100
1000
0001
0000
0100
,
0010
0000
0020
0000
2030
0000
3000
0001
,
1000
0000
0001
0000
0000
0100
0000
0000
0010
0000
0100
0000
0000
0000
0001
0000
,
1000
0000
0001
0000
0000
0100
0000
0000
0010
0000
1000
0000
0000
0000
0100
0000
,
0010
0001
1000
0100
0010
0000
0200
0000
,
2300
3001
0000
0010
0000
0010
0000
0001
,
0000
0100
0001
0100
0001
0100
0010
1000
,
0010
0100
0010
0001
0010
1000
0010
0001
,
0010
1000
0100
0001
0100
1000
0100
0001
,
0100
1000
0100
0010
0001
1000
0000
0010
,
0001
0000
0010
0000
0000
1000
0000
0000
0001
0000
0100
0000
0000
0000
0001
0000
,
0010
0000
0100
0000
0000
1000
0000
0000
0010
0000
0100
0000
0000
0000
0001
0000
,
0000
1000
0001
1000
0001
0000
1000
0000
,
0100
0010
0000
0001
0000
0001
0000
0100
,
0000
0110
0000
0100
0000
0101
0000
0001
,
0000
1001
0000
1000
0000
1010
0000
0010
,
0000
0110
0000
0100
0000
0001
1000
0100
,
0000
1001
0000
0001
0000
0100
0001
1000
,
0000
1001
0000
1000
0000
0100
0010
0001
,
0000
1001
0000
0100
0000
0010
1000
0001
,
0000
1001
0000
0100
0000
0001
0010
0100
,
0000
0110
0000
0010
0000
1002
1000
2000
,
3003
0000
0000
0000
;

//---------------dance-single - ----------------
#NOTES:
     dance-single:
     :
     Medium:
     5:
     0.368790,0.628834,0.165483,0.474383,0.104806,234.000000,219.000000,15.000000,43.000000,0.000000,0.000000,0.368790,0.628834,0.165483,0.474383,0.104806,234.000000,219.000000,15.000000,43.000000,0.000000,0.000000:
0000
0000
0000
0000
0001
0000
0000
0001
,
0000
0000
0001
0000
0000
1000
0000
0000
,
1000
0000
0010
0000
0100
0000
0000
0100
,
0000
0000
0100
0000
0000
0100
0000
0000
,
0100
0001
0020
0000
,
0230
0000
2300
0000
,
3002
0000
0203
0000
,
0000
0000
0000
0000
0000
0000
0000
0300
0020
0000
0000
0000
0000
0000
0000
0000
,
2030
0000
3002
0000
,
0023
0000
0000
0000
0000
0000
0000
0030
0200
0000
0000
0000
0000
0000
0000
0000
,
2300
0000
0000
0000
0000
0000
0000
3000
0002
0000
0000
0000
0000
0000
0000
0000
,
0000
0000
0203
0000
,
0320
0000
0000
0000
0000
0000
0000
0030
0000
0000
1000
0000
0001
0000
0000
0000
,
1000
0000
0001
1000
0000
0010
0100
0000
,
0010
0000
0100
0010
0000
1000
0000
0001
,
0000
1000
0000
0100
0000
0010
0000
0001
,
0000
0010
0000
0000
0000
0100
1000
0000
,
0001
0000
0100
0001
0000
0100
0010
0000
,
0100
0000
0001
1000
0100
0000
0000
1000
,
0100
0000
0000
0010
0000
0010
0000
0001
,
0000
0001
0000
0000
1000
0000
0001
0000
,
1000
0001
0100
0010
,
0100
0010
0100
0100
,
0010
0010
0100
0001
,
1000
0001
1000
1000
,
1000
1000
0001
0001
,
0001
0000
0001
0000
0100
0010
0000
0100
,
0000
0010
0000
1000
0000
0001
0000
1000
,
0000
0000
0001
0000
0000
0000
0000
0000
1000
0001
0000
1000
0001
0000
1000
0001
,
0000
0000
0000
0000
0100
0000
0000
0000
0010
0100
0000
0010
0100
0000
0010
0100
,
0000
0001
0000
1000
0001
0000
1000
0000
0100
0010
0100
0000
0010
0000
0001
1000
,
0000
0001
0000
1000
0000
0010
0000
0000
0100
0000
0000
0000
0001
0000
0000
0000
,
1000
0000
0001
1000
0000
0200
0000
0000
0000
0300
0000
0000
0000
0000
1001
0000
,
0000
0001
1000
0001
1000
0000
0010
0000
,
0100
0000
0001
0000
1000
0000
0000
0100
,
0000
0010
0100
0010
0100
0010
0100
0010
,
0100
0000
1000
0000
0001
0000
0000
0100
,
0001
0000
0100
0000
0000
0010
0000
0000
1000
0000
0010
0000
0000
0000
1000
0000
,
0000
0000
0001
0000
0000
1000
0000
0000
0001
0000
0000
0000
0000
0000
1000
0000
,
0000
0100
1000
0100
1000
0000
0001
0000
,
0010
0001
0000
1000
0000
0010
0000
0100
,
0000
0001
1000
0001
1000
0000
0100
0000
,
0010
0000
0100
0000
0010
0000
0000
0001
,
0000
0010
0001
0010
0001
0010
0100
0010
,
0100
0000
1000
0000
0100
0000
0000
1000
,
0100
0000
1000
0000
0000
0010
0000
0000
0100
0000
0001
0000
0000
0000
0100
0000
,
0010
0000
0100
0000
0000
0001
0000
0000
1000
0000
0000
0000
0000
0000
0100
0000
,
0000
1000
0100
1000
0000
0000
0001
0000
,
1000
0010
0000
1000
0000
0010
0000
1000
,
0000
2002
0000
3003
0000
2002
0000
3003
,
0000
2002
0000
3003
0000
2002
0000
3003
,
0000
2002
0000
0000
0000
0000
3003
0000
,
0000
0220
0000
0330
0000
0220
0000
0330
,
0000
2020
0000
3030
0000
0202
0000
0303
,
0000
0022
0000
0033
0000
2200
0000
3300
,
0000
2002
0000
0000
0000
0000
0000
0000
,
3003
2020
0000
3030
0000
0202
0000
0000
,
0303
0000
0000
0000
;

//---------------dance-single - ----------------
#NOTES:
     dance-single:
     :
     Easy:
     1:
     0.214339,0.409638,0.000000,0.011032,0.000000,136.000000,136.000000,0.000000,1.000000,0.000000,0.000000,0.214339,0.409638,0.000000,0.011032,0.000000,136.000000,136.000000,0.000000,1.000000,0.000000,0.000000:
0000
0000
0000
0000
,
0000
0000
0000
0000
,
0000
0000
0000
0000
,
0000
0000
0000
0000
,
0000
0000
1000
0000
,
0010
0000
1000
0000
,
0001
0000
0010
0000
,
0000
0000
0100
0000
,
1000
0000
0001
0000
,
0100
0000
0010
0000
,
0100
0000
0001
0000
,
0000
0000
1000
0000
,
1000
0000
0000
0000
,
0000
0100
0000
0010
,
0000
1000
0000
0001
,
0000
0100
0000
0001
,
0000
1000
0000
0100
,
0000
0010
0000
0001
,
0000
1000
0010
0000
,
0100
0000
0001
0001
,
1000
0001
0100
0000
,
0010
0010
0000
1000
,
0000
0001
0000
0100
,
0100
0010
0000
0100
,
0001
0001
1000
0000
,
0100
0100
0000
0010
,
0001
0001
1000
0000
,
0010
0000
1000
0001
,
0100
0000
0010
0010
,
1000
0001
1000
0000
0010
0000
0010
0000
,
0001
1000
0001
0000
0100
0000
0100
0000
,
0010
0100
0010
0000
1000
0000
0001
0000
,
1000
1000
0001
0100
0010
0010
0010
0010
,
0000
1000
0000
0010
0000
1000
0000
0010
,
0000
1000
0000
1000
0000
1000
0000
0000
,
0000
0001
0000
0010
0000
0001
0000
0010
,
0000
0001
0000
0001
0000
0001
0000
0000
,
0000
1000
0000
0000
0000
0001
0000
0000
,
0000
0100
0000
0000
0000
0010
0000
0000
,
0000
1000
0000
1000
0000
0000
0000
0000
,
0000
0001
0000
0001
0000
0001
0000
0001
,
0000
1000
0000
0000
0000
0010
0000
0000
,
0000
1000
0000
0100
0000
0010
0000
0000
,
0000
0001
0000
0000
0000
0100
0000
0000
,
0000
0001
0000
0100
0000
0010
0000
0000
,
0000
1000
0000
0000
0000
0001
0000
0000
,
0000
1000
0000
0000
0000
0100
0000
0000
,
0000
0010
0000
0010
0000
0000
0000
0000
,
0000
0001
0000
0001
0000
0001
0000
0001
,
0000
1000
0000
0000
0000
0010
0000
0000
,
0000
1000
0000
0000
0000
0001
0000
0000
,
0000
0010
0000
0000
0000
0000
0000
0000
,
0000
0100
0000
0000
0000
1000
0000
0000
,
0000
0001
0000
0000
0000
0100
0000
0000
,
0000
0010
0000
0000
0000
1000
0000
0000
,
0000
0001
0000
0000
0000
0000
0000
0000
,
0000
0010
0000
0000
0000
0200
0000
0000
,
0000
0300
0000
0000
0000
0000
0000
0000
;
