#TITLE:Redo;
#SUBTITLE:ReZero Opening 1;
#ARTIST:Konomi Suzuki;
#TITLETRANSLIT:;
#SUBTITLETRANSLIT:;
#ARTISTTRANSLIT:;
#GENRE:;
#CREDIT:Magna Trick;
#BANNER:REBN.jpg;
#BACKGROUND:REBG.jpg;
#LYRICSPATH:;
#CDTITLE:Magna Trick title!.png;
#MUSIC:Redo.mp3;
#OFFSET:-0.048942;
#SAMPLESTART:55.000000;
#SAMPLELENGTH:14.000000;
#SELECTABLE:YES;
#BPMS:0.000000=190.000000
,98.000000=95.000000
,106.000000=190.000000
,122.000000=95.000000
,130.000000=190.000000
,262.000000=95.000000
,263.750000=47.500000
,264.125000=190.000000
;
#STOPS:
;
#BGCHANGES:0.063=Redo.avi=1.000=0=0=1=====,
264.125=REBG.jpg=1.000=0=0=1=====,
99999=-nosongbg-=1.000=0=0=0 // don't automatically add -songbackground-
;
#KEYSOUNDS:;
#ATTACKS:;

//---------------dance-single - ----------------
#NOTES:
     dance-single:
     :
     Hard:
     12:
     0.613100,0.805491,0.499035,0.521215,0.094262,387.000000,342.000000,45.000000,47.000000,0.000000,1.000000,0.613100,0.805491,0.499035,0.521215,0.094262,387.000000,342.000000,45.000000,47.000000,0.000000,1.000000:
0000
0000
0000
0000
0001
1000
0000
0001
,
0000
1000
0001
1000
0001
1000
0000
0001
,
0000
1000
0001
1000
0001
1000
0000
0001
,
0000
1000
0001
1000
0001
1000
0000
0001
,
0000
1000
0001
1000
0001
0000
0010
0000
,
1100
1100
0010
0100
,
0101
0010
0100
1000
,
1100
0100
1000
0010
,
0101
0010
2000
0001
,
3002
1000
0103
1000
,
0010
0100
0001
1000
0200
0000
0000
0000
,
0320
0000
0000
0000
0032
0000
0000
1003
,
0001
0000
1001
0000
0000
1000
0100
0010
,
0001
0000
0010
1000
0010
0100
0010
1000
,
0010
0001
0100
0000
2000
0000
0000
0000
,
3200
0000
0320
0000
,
0032
0000
2003
0000
,
3020
0000
0230
0000
,
0301
1000
0010
1000
0200
0000
0000
0000
,
0320
0000
0000
0000
0032
0000
0000
1003
,
0010
0000
0200
0000
0000
1300
0100
0001
,
0100
0000
1000
0100
0001
0010
1000
0010
,
0001
1000
0010
0000
0002
0000
0000
0000
,
2003
0000
3200
0320
,
2030
0000
0000
0000
0000
0000
3000
0000
0010
0000
0100
0001
0000
1000
0100
1000
,
0001
0000
0010
2000
0000
0000
0000
3000
0010
0000
0001
1000
0000
0010
0000
0001
,
1000
0000
0100
0010
0000
1000
0000
0000
1001
0000
0010
0000
0100
0000
0000
0000
,
0010
0000
1001
0010
0000
0010
0000
0001
,
0010
1000
0000
0000
1001
0010
1000
0100
,
0001
1000
0110
0010
,
0110
0000
0000
0000
0100
0000
0000
0000
0001
0100
1000
0010
0000
0000
0010
0100
,
2000
0000
3002
0023
0230
0000
0000
0310
,
2000
0000
3002
0003
1001
0001
1000
0000
,
0010
0000
1000
0000
1001
1000
0001
0000
,
1000
0000
0100
0000
1001
0001
1000
0000
,
0001
1000
1001
0001
,
1001
0000
1000
0000
1001
1001
0000
1001
,
1001
0000
1001
0000
1001
0000
0110
1001
,
0010
0000
1000
0000
0110
1000
0010
0100
,
0001
0010
0100
1000
0010
0100
0001
0010
,
0100
1000
0010
0000
0010
1000
0100
0010
,
0001
0010
0100
1000
0010
0100
0001
1000
,
0000
0100
0010
0001
1100
1010
0000
0110
,
0000
0011
0000
1000
0001
0000
0001
0000
,
0010
0100
0010
0001
0100
1100
0000
0110
,
0000
0101
0000
1001
0000
0010
0100
1000
,
0001
0010
0100
0000
0100
0010
0001
0010
,
1000
0001
0100
0010
0001
1000
0010
0001
,
1000
0100
0010
0000
1000
0100
1000
0010
,
0100
0001
0010
1000
0002
0000
0000
0203
,
0000
0000
2300
0000
3020
0100
0100
0000
,
0100
0000
0000
0030
0200
0001
0001
0000
,
0001
0000
0000
0301
0002
1000
1000
0000
,
1000
0000
2003
0000
,
0000
0000
0000
3000
0200
0010
0010
0000
,
0010
0000
0000
0300
0020
0001
0001
0000
,
0001
0000
0000
0031
0002
1000
1000
0000
,
1000
0000
0000
0000
0000
0003
0200
0000
,
0320
0000
2030
0000
3100
0010
0001
1000
,
0100
0010
0001
0000
0101
0010
1000
0101
,
0010
1000
0101
0010
1000
0101
0010
1000
,
1001
0000
1001
0000
1100
0001
0010
1100
,
0001
0010
1100
0001
0010
1100
0001
0010
,
1100
0001
2001
0000
,
0020
0000
3000
0000
0200
0031
0001
0301
,
0002
0000
0000
0000
1000
0000
0000
0000
0000
0000
0000
0000
0003
0000
0000
0000
1000
0000
0001
0000
0000
0000
1000
0000
0000
0000
0001
0000
1000
0000
0020
0200
,
0000
0330
0000
0000
0000
0000
0000
0000
0000
0000
0000
0000
0000
0000
0000
0000
0000
0000
0000
0000
0000
0000
0000
0000
0000
0000
0000
0000
0000
0000
0000
0000
;

//---------------dance-single - ----------------
#NOTES:
     dance-single:
     :
     Challenge:
     15:
     0.820636,0.988558,0.499035,0.465766,0.349325,518.000000,473.000000,45.000000,42.000000,0.000000,1.000000,0.820636,0.988558,0.499035,0.465766,0.349325,518.000000,473.000000,45.000000,42.000000,0.000000,1.000000:
// measure 0
0000
0000
0000
0000
1000
0001
0000
0010
,  // measure 1
0000
0100
1000
0010
1000
0100
0000
0010
,  // measure 2
0000
0001
0010
1000
0010
0001
0000
0100
,  // measure 3
0000
0010
1000
0100
1000
0010
0000
0100
,  // measure 4
0000
0001
0010
1000
1010
0010
0000
0001
,  // measure 5
0010
0100
0010
0001
1000
0010
0000
0100
,  // measure 6
0001
0010
0001
0100
0010
1000
0000
0001
,  // measure 7
0010
0100
0010
1000
0001
0100
0000
1000
,  // measure 8
0010
0100
0010
1000
1100
0000
0010
0000
,  // measure 9
1001
0100
0011
0001
,  // measure 10
0100
0010
1000
0001
0020
0100
0000
0100
,  // measure 11
0230
1000
1300
0010
2000
0001
0000
3001
,  // measure 12
1000
0000
1001
0000
0001
0001
0010
0100
,  // measure 13
1000
0001
0100
0010
0100
1000
0100
0001
,  // measure 14
0100
0010
1000
0000
0012
0000
0103
0000
,  // measure 15
2010
0000
3100
0000
1001
0000
0001
0010
,  // measure 16
0100
1000
0010
0100
0002
1000
0000
0100
,  // measure 17
0203
0010
0000
0010
0320
0000
0000
1030
,  // measure 18
1000
0001
0100
0001
0020
0100
0000
0100
,  // measure 19
0230
1000
1300
0100
2000
0001
0000
3001
,  // measure 20
1000
0000
0020
0000
0000
0031
0010
1000
,  // measure 21
0010
0000
0001
0010
1000
0100
0001
0100
,  // measure 22
1000
0001
0100
0000
2000
0000
0000
0001
,  // measure 23
3002
0010
0013
0100
2000
0000
3200
0001
,  // measure 24
0302
0000
0000
0000
1000
0000
0003
0000
0100
0010
0001
0001
0000
0010
0100
1000
,  // measure 25
0010
0100
0001
0020
0000
0130
1000
0000
0100
0000
1000
0001
0000
0100
0000
1000
,  // measure 26
0001
0010
0100
0010
1000
0001
0100
0000
1001
0000
0100
0000
0010
0000
0000
0000
,  // measure 27
0100
0000
1001
0100
0100
0100
0000
1000
,  // measure 28
0100
0001
1000
1000
1001
0100
0000
0010
,  // measure 29
1000
0001
0100
0000
0110
0001
1000
0000
,  // measure 30
0110
0000
1000
0000
0001
0000
1000
0001
1000
0010
0100
1000
0000
0000
0100
0010
,  // measure 31
1000
0100
0010
0001
2000
0000
3200
0000
0310
0100
1000
0001
0000
0100
0010
1000
,  // measure 32
0002
1000
2003
3000
1001
1000
0001
0000
,  // measure 33
0100
0100
0010
0000
1001
1000
0001
0000
,  // measure 34
0010
0010
0100
0000
1001
1000
0001
0000
,  // measure 35
1000
0000
0001
1000
0001
0000
1000
0001
1000
0000
0000
0000
1100
0000
0000
0000
,  // measure 36
1001
0000
0101
0000
1001
1001
0000
1001
,  // measure 37
1001
0000
0000
0000
1001
0000
0000
0000
1001
0010
0100
0000
0001
0000
1000
0010
,  // measure 38
0100
0001
1001
0000
0110
0001
0100
0010
,  // measure 39
0100
0000
0001
0000
0010
0000
1010
0000
0001
0000
0100
0000
1000
0000
0100
0010
,  // measure 40
0001
0000
1000
0000
0100
0000
0010
0001
0100
0000
1000
0000
0001
0000
0010
0000
,  // measure 41
1000
0100
0010
0001
0010
1000
0001
0200
,  // measure 42
0000
0000
0310
0000
0100
0000
1000
0001
0100
0000
1001
0000
0000
0000
1100
0000
,  // measure 43
0000
0011
0000
1001
1000
0000
1000
0000
,  // measure 44
0100
0000
0010
0000
0100
0000
1000
0000
0010
0000
0100
0001
1000
0001
0010
0100
,  // measure 45
1000
0001
1000
0010
0100
0001
1000
0000
0000
0000
0100
0000
0010
0000
0001
0000
,  // measure 46
1000
0100
0010
0100
0010
0001
1000
0001
1000
0000
0100
0000
1000
0000
0100
0000
,  // measure 47
0001
1000
0010
0100
1000
0001
0100
1000
,  // measure 48
0001
0010
0200
0000
0301
0100
0001
0100
,  // measure 49
0010
0000
1000
0000
0100
0010
0001
0100
2000
0000
0000
0000
0000
0000
3200
0000
,  // measure 50
0000
0000
0302
0000
0203
0010
0010
0000
,  // measure 51
0010
0000
0000
0000
0000
0000
0310
1000
0020
0000
1000
0000
1000
0000
0000
0000
,  // measure 52
1000
0000
0000
0000
0000
0000
1030
0001
2000
0000
0001
0000
0001
0000
0000
0000
,  // measure 53
3001
0000
0100
0010
0100
0010
0100
0010
1000
0000
0001
0100
0010
0000
1000
0001
,  // measure 54
1000
0000
0010
0000
0100
0000
0010
0100
0020
0000
0100
0000
0100
0000
0000
0000
,  // measure 55
0100
0000
0000
0030
0200
0001
0001
0000
,  // measure 56
0001
0000
0000
0000
0000
0000
0301
1000
0002
0000
1000
0000
1000
0000
0103
0000
,  // measure 57
0010
0010
0001
0000
1001
0000
0020
0100
,  // measure 58
0230
0000
0001
0000
0302
0000
0000
0000
0013
0100
1000
0001
0010
0100
1000
0001
,  // measure 59
0010
0100
1000
0001
0100
0010
0100
0000
1010
0000
0100
0000
0001
0000
1010
0000
,  // measure 60
0100
0001
1010
0100
0001
1010
0100
0001
,  // measure 61
1001
0000
1001
0000
0011
1000
0100
0011
,  // measure 62
1000
0100
0011
1000
0100
0011
1000
0100
,  // measure 63
0011
1000
1002
0000
,  // measure 64
0200
0000
0003
0000
0020
1300
1000
1030
,  // measure 65
2000
0000
0000
0000
0001
0000
0000
0000
0000
0000
0000
0000
3000
0000
0000
0000
0001
0000
1000
0000
0000
0000
0001
0000
0000
0000
1000
0000
0001
0000
0200
0020
,  // measure 66
0000
0330
0000
0000
0000
0000
0000
0000
0000
0000
0000
0000
0000
0000
0000
0000
0000
0000
0000
0000
0000
0000
0000
0000
0000
0000
0000
0000
0000
0000
0000
0000
;

//---------------dance-single - ----------------
#NOTES:
     dance-single:
     :
     Medium:
     9:
     0.413486,0.622425,0.410318,0.576663,0.077628,261.000000,224.000000,37.000000,52.000000,0.000000,0.000000,0.413486,0.622425,0.410318,0.576663,0.077628,261.000000,224.000000,37.000000,52.000000,0.000000,0.000000:
0000
0000
0000
0000
,
0000
0000
0000
0000
,
0000
0000
0000
0000
,
0000
0000
0000
0000
,
0000
0000
1000
0100
,
0011
0011
0100
0010
,
1001
0100
0010
1000
,
1010
1010
0001
0100
,
1010
0100
0002
1000
,
2003
0001
3020
0100
,
0130
0010
0100
0010
2000
0000
0000
0000
,
3200
0000
0000
0000
2300
0000
0000
3001
,
1000
0002
0003
1000
,
0010
0100
0001
1000
,
0100
0010
0002
0000
,
0023
0000
0230
0000
,
2300
0000
3002
0000
,
0203
0000
0320
0000
,
1030
0100
0020
0000
,
0230
0000
0000
0000
2300
0000
0000
3000
,
0100
0000
0020
0000
0000
0031
0010
0001
,
0010
0000
0100
0010
0100
0010
0100
1000
,
0100
0010
0100
0000
2000
0000
0000
0000
,
3002
0000
0023
0230
,
2300
0000
0000
0000
3000
0000
0000
0000
0001
0000
1000
0001
0000
0000
0000
0000
,
0100
0000
0010
0100
0000
0000
0000
0000
0001
0000
0010
0001
0000
1000
0000
0010
,
1000
0000
0001
0100
0000
0010
0000
0000
1001
0000
0000
0000
0010
0000
0000
0000
,
0200
0000
0300
0001
0000
1000
0000
0100
,
0010
0200
0000
0000
0300
0000
0010
0000
,
0001
1000
1001
0000
,
1001
0000
0000
0000
0000
0000
0000
0000
1000
0100
1000
0100
0000
0000
0010
0000
,
0002
0000
2003
3200
0320
0000
0000
0130
,
2000
0000
3002
0003
1001
0000
0010
0000
,
0100
0001
1001
1000
,
0001
0010
1001
0001
,
1000
0001
1001
1000
,
1001
0000
0001
0000
0001
1000
0000
0001
,
1000
1001
1001
0110
,
1001
0001
1000
0010
,
0100
0001
0010
1000
,
0010
0100
1000
1000
,
0001
0001
0100
0010
,
1000
0000
0100
0000
0001
1001
0000
0110
,
0000
1001
0000
0020
0000
0000
0030
0000
,
0200
0000
1300
0001
0000
0011
0000
0110
,
0000
1010
0000
1001
0000
0100
0010
0100
,
0010
0001
1000
0000
0001
0000
0100
0000
,
0010
1000
0100
0010
,
1000
0010
0100
1000
,
0001
0000
0100
0000
0020
0000
0000
2030
,
0000
3002
0203
0000
,
0000
0000
0000
0300
0020
0000
0000
0000
,
0000
0000
0000
1030
2000
0000
0000
0000
,
0000
0000
3002
0000
,
0000
0000
0000
0003
0020
0000
0000
0000
,
0000
0000
0000
0030
0200
0000
0000
0000
,
0000
0000
0000
1300
2000
0000
0000
0000
,
0000
0000
0000
0000
0000
3000
0020
0000
,
0230
0302
0023
0000
,
0000
0000
0030
0000
1010
0000
0000
1010
,
0000
0000
1010
0000
0000
1010
0000
0000
,
1001
0000
1001
0000
0011
0000
0000
0011
,
0000
0000
0011
0000
0000
0011
0000
0000
,
0011
0000
1002
0000
,
0200
0000
0003
0000
0310
1000
0010
1000
,
0002
0000
0000
0000
1000
0000
0000
0000
0000
0000
0000
0000
0003
0000
0000
0000
0001
0000
1000
0000
0000
0000
0001
0000
0000
0000
1000
0000
0001
0000
0200
0020
,
0000
0330
0000
0000
0000
0000
0000
0000
0000
0000
0000
0000
0000
0000
0000
0000
0000
0000
0000
0000
0000
0000
0000
0000
0000
0000
0000
0000
0000
0000
0000
0000
;

//---------------dance-single - ----------------
#NOTES:
     dance-single:
     :
     Easy:
     7:
     0.299421,0.512100,0.133076,0.443587,0.011090,189.000000,177.000000,12.000000,40.000000,0.000000,0.000000,0.299421,0.512100,0.133076,0.443587,0.011090,189.000000,177.000000,12.000000,40.000000,0.000000,0.000000:
0000
0000
0000
0000
,
0000
0000
0000
0000
,
0000
0000
0000
0000
,
0000
0000
0000
0000
,
0000
0000
1000
1000
,
0001
0001
1000
1000
,
0001
0001
1000
1000
,
0001
0001
1000
1000
,
0001
0001
0200
0000
,
0320
0000
0000
0000
2030
0000
0000
3000
,
0001
0010
0200
0000
,
2300
0000
0000
0000
3020
0000
0000
0030
,
0100
0100
0000
0001
,
1000
0000
0001
0010
,
0001
1000
0020
0000
,
0230
0000
0302
0000
,
2003
0000
3200
0000
,
0320
0000
0000
0000
0032
0000
0000
0003
,
1000
1000
0200
0000
,
0320
0000
0032
0000
,
1000
0003
1000
0000
0000
0000
0010
0000
,
0100
0001
1000
0100
,
0010
0001
2000
0000
,
3020
0000
0130
0001
,
2000
0000
0000
3000
0002
0000
0000
0000
,
0000
0000
2003
0000
,
0000
0000
0000
3000
0110
0000
0010
0000
,
1000
0001
0110
0001
,
1000
0010
0110
0010
,
1000
0001
1001
1001
,
1001
1001
0020
0000
,
2030
0000
0000
0000
3002
0000
0000
0010
,
0023
0000
0230
0300
1001
0000
0010
0000
,
0100
0001
1001
0010
,
0100
0001
1001
0010
,
0100
0001
1001
0000
,
1001
0000
0000
0000
0100
0000
0000
1000
,
0000
0000
0001
0000
0000
0100
0000
0000
,
0010
1000
0001
0001
,
1000
1000
0100
0010
,
0001
1000
0010
0100
,
0001
0000
1000
0000
0200
0000
0300
0020
,
0000
0030
0000
0001
,
0100
0010
2000
0000
,
3001
0010
0100
1000
,
0001
1000
0001
1000
,
0010
1000
0001
0001
,
1000
1000
0010
0010
,
0100
0100
0001
1000
,
0100
0000
0010
0000
0002
0000
0000
2003
,
0000
3000
0010
0000
0200
0000
0000
0000
,
0000
0000
0000
0300
0002
0000
0000
0000
,
0000
0000
2003
0000
,
0000
0000
3200
0000
,
0000
0000
0000
0300
0020
0000
0000
0000
,
0000
0000
0032
0000
,
0000
0000
0003
0100
0200
0000
0000
0000
,
0000
0000
0300
0100
,
0010
1000
0002
0000
,
0000
0000
0000
0003
1000
0000
0000
0001
,
0000
0000
0100
0000
0000
0010
0000
0000
,
1000
0000
1000
0000
0100
0000
0000
0010
,
0000
0000
0001
0000
0000
1000
0000
0000
,
0010
0000
0200
0000
,
0301
0000
1000
0001
,
1000
0000
0000
0000
0000
0000
0000
0000
0000
0000
0000
0000
0000
0000
0000
0000
1000
0000
0000
0000
0000
0000
0001
0000
0000
0000
0000
0000
1000
0000
0000
0001
;
