#TITLE:Rainbow No Melody;
#SUBTITLE:BLEACH opening 13;
#ARTIST:Sid;
#TITLETRANSLIT:;
#SUBTITLETRANSLIT:;
#ARTISTTRANSLIT:;
#GENRE:;
#CREDIT:;
#BANNER:RNMBN.jpg;
#BACKGROUND:RNMBG.jpg;
#LYRICSPATH:;
#CDTITLE:cdtitleitachi.png;
#MUSIC:Bleach Opening 13 Ranbu no Melody.ogg;
#OFFSET:-0.100000;
#SAMPLESTART:44.417091;
#SAMPLELENGTH:18.750000;
#SELECTABLE:YES;
#BPMS:0.000000=192.000000
;
#STOPS:134.000000=0.078000,
134.250000=0.078000,
134.500000=0.078000,
134.750000=0.078000,
135.000000=0.078000,
135.250000=0.078000,
135.500000=0.078000,
135.750000=0.078000,
136.000000=0.078000,
136.250000=0.078000,
136.500000=0.078000,
136.750000=0.078000,
137.000000=0.078000,
137.250000=0.078000,
137.500000=0.078000,
137.750000=0.078000
;
#BGCHANGES:0.000=1.avi=1.000=0=0=1=====,
273.000=RNMBG.jpg=1.000=0=0=1=====,
99999=-nosongbg-=1.000=0=0=0 // don't automatically add -songbackground-
;
#KEYSOUNDS:;
#ATTACKS:;

//---------------dance-single - ----------------
#NOTES:
     dance-single:
     :
     Hard:
     10:
     0.425582,0.584194,0.399876,0.179944,0.000000,298.000000,258.000000,40.000000,18.000000,0.000000,0.000000,0.425582,0.584194,0.399876,0.179944,0.000000,298.000000,258.000000,40.000000,18.000000,0.000000,0.000000:
0000
0000
0000
0000
,
0000
0000
0000
0000
,
0000
0000
0000
0000
,
0000
0000
0000
0000
,
0000
0000
0000
0000
,
0000
0000
0000
0000
,
0000
0000
0000
0000
,
0000
0000
0000
0000
,
0000
0000
0000
0000
0000
0000
0001
0010
,
0100
0000
1000
0000
0002
0003
0000
0000
1000
0000
0100
0000
1000
0000
0001
0000
,
0000
1001
0000
1010
0000
0010
0100
0000
,
0001
1000
0100
0000
1000
0100
1000
0001
,
0000
1010
0000
0110
0000
0101
0000
0011
,
0000
1100
0000
0000
0001
0010
0001
1000
,
0000
0110
0000
0011
0000
0001
1000
0000
,
0100
0100
1000
0000
0010
0010
0100
0000
,
0001
1000
0100
0000
1000
0010
1000
0001
,
1000
0000
0001
0000
1000
0000
0010
0200
,
0000
0000
0000
0300
0000
0000
0000
0001
,
1000
0010
0000
1000
0010
0000
0100
0002
,
0000
0000
0000
0003
0000
0000
1000
0000
,
0100
0010
1001
0000
,
0000
0000
0000
0010
,
0100
0001
0000
0010
0001
0000
0000
2000
,
0000
0000
0000
3000
0010
0000
0100
0000
,
0001
1000
0100
0000
2200
0000
0000
0000
,
3300
0000
0110
0000
0101
0000
0000
0011
,
0000
0000
0100
0000
2000
0000
0000
3000
,
0000
0000
0010
0200
0000
0000
0000
0300
,
0001
0000
1000
0000
0020
0000
0000
0030
,
0000
0000
0000
0000
0100
0000
0000
0001
,
0000
1000
0200
0000
,
0000
0000
0020
0030
,
0000
0000
0000
0300
2002
0000
0000
0000
,
0000
0000
0000
3003
0010
0100
0001
0000
,
1000
0000
1100
0000
0000
0010
0100
0000
,
1000
0000
1001
0000
0000
0100
1000
0000
,
0010
0000
0100
0001
0000
1100
0000
0110
,
0000
0011
0000
0000
0000
0001
1000
0000
,
0110
0000
1001
0000
0000
0100
1000
0000
,
1010
0000
0110
0000
2002
0000
0003
3000
,
1100
0000
0110
0000
0011
0000
0000
1001
,
0000
0000
0010
0000
0100
0001
1000
0000
,
0100
1000
0010
0000
0100
0001
1000
0000
,
0100
1000
0010
0000
0100
0001
1000
0000
,
0100
0000
1000
0100
0000
1100
0000
0110
,
0000
1100
0000
0100
0010
0000
0001
1000
,
0000
0100
1000
0010
0100
0000
0001
1000
,
0000
0100
1000
0010
0100
0000
0001
1000
,
0000
0100
1000
0010
0100
0000
0001
0010
,
0000
0001
0100
0010
1000
0100
1000
0000
,
0010
0000
0101
0000
0001
1000
0100
0000
,
0010
0000
1001
0000
0010
0100
0001
0000
,
1000
0000
0100
0010
0000
0011
0000
1100
,
0000
0110
0000
0000
0000
0100
0001
0000
,
1001
0000
1100
0000
0000
0010
0100
0000
,
1000
0100
0022
0033
,
0100
0000
0010
0000
1000
0000
0100
1000
,
0000
0010
0100
0001
0100
0010
1000
0001
,
1000
0010
0100
0001
1000
0100
1000
0010
,
1000
0100
1000
0010
1000
0001
0100
0010
,
0100
0001
0100
0010
0100
0001
0010
0001
,
0100
0010
0100
0001
1000
0000
0100
1000
,
0000
0010
0100
0001
1000
0000
0100
1000
,
0000
0010
0100
0001
1000
0000
0100
0010
,
0000
0001
1000
0010
1000
0000
0001
0100
,
0000
0010
0000
2000
0000
0000
0000
0000
,
0000
0000
0000
0000
,
0000
0000
0000
3000
;

//---------------dance-single - ----------------
#NOTES:
     dance-single:
     :
     Challenge:
     15:
     0.635517,1.093661,0.749768,0.279913,0.254921,445.000000,370.000000,75.000000,28.000000,0.000000,0.000000,0.635517,1.093661,0.749768,0.279913,0.254921,445.000000,370.000000,75.000000,28.000000,0.000000,0.000000:
// measure 0
0000
0000
0000
0000
,  // measure 1
0000
0000
0000
0000
,  // measure 2
0000
0000
0000
0000
,  // measure 3
0000
0000
0000
0000
,  // measure 4
0000
0000
0000
0000
,  // measure 5
0000
0000
0000
0000
,  // measure 6
0000
0000
0000
0000
,  // measure 7
0000
0000
0000
0000
,  // measure 8
0000
0000
0000
0000
0000
0000
0000
0000
0000
0000
0000
0000
0001
0010
0100
1000
,  // measure 9
0001
0010
0100
1000
0001
0010
0100
1000
0100
0000
0010
0000
0001
0000
1000
0000
,  // measure 10
0000
1001
0000
1010
0000
0010
0100
0000
,  // measure 11
0001
0010
0100
0000
1000
0000
0000
0000
1000
0000
0100
0000
1000
0000
0001
0000
,  // measure 12
0000
1010
0000
0110
0000
0101
0000
0011
,  // measure 13
0000
1100
0000
0000
0001
0010
0001
1000
,  // measure 14
0000
0110
0000
0011
0000
0001
1000
0000
,  // measure 15
0100
1000
0100
1000
0100
0000
0000
0000
0010
0000
0001
0000
0100
0000
0000
0000
,  // measure 16
0001
1000
0100
0000
1000
0100
0001
0100
,  // measure 17
1000
0001
1000
0001
1000
0100
0010
0001
1000
0000
0000
0000
0010
0000
0100
0000
,  // measure 18
0001
1000
0100
1000
0010
1000
0100
1000
,  // measure 19
0010
0010
0000
1000
0010
0000
0100
0001
,  // measure 20
0010
0001
0100
0001
0010
0001
1100
0000
,  // measure 21
0110
0000
1100
0000
1001
0000
1000
0100
,  // measure 22
1000
0010
0100
0010
1000
0100
1000
0000
,  // measure 23
0100
0001
0000
0001
0100
1000
0000
2100
,  // measure 24
0000
0000
0000
3000
0010
0000
0100
0000
,  // measure 25
0001
1000
0010
0100
0001
1000
0001
1000
0200
0000
0000
0000
0000
0000
0000
0000
,  // measure 26
0300
0000
0110
0000
0101
0000
0000
0011
,  // measure 27
0000
0000
0100
0000
2000
0000
0000
3000
,  // measure 28
0000
0000
0010
0210
0000
0300
0100
0010
,  // measure 29
0001
0000
1000
0100
0020
0030
0001
1000
,  // measure 30
0001
1000
0010
0100
1001
0000
0000
0101
,  // measure 31
0000
1000
0200
0010
,  // measure 32
0001
1000
0010
0001
,  // measure 33
1000
0000
0000
0000
0000
0000
0300
0000
2000
3200
0320
0230
2300
3020
0230
2300
,  // measure 34
3200
0320
2030
3200
0320
0230
2300
3020
0130
0000
0100
0000
1001
0000
0000
0000
,  // measure 35
0110
0000
1000
0010
0100
0010
0101
0000
,  // measure 36
1010
0000
1001
0000
0000
0100
1000
0000
,  // measure 37
0100
0000
0001
0100
0000
1100
0000
0110
,  // measure 38
0000
0000
1000
0001
1000
0001
1000
0000
0000
0000
0001
0000
1000
0000
0000
0000
,  // measure 39
0110
0000
1001
0000
0000
0100
1000
0000
,  // measure 40
1010
0000
0110
0000
2002
0000
0003
3000
,  // measure 41
1100
0000
0110
0000
0011
0000
1000
1001
,  // measure 42
0001
0100
0010
0100
0001
0100
0010
0100
0001
0000
1000
0000
0100
0000
0000
0000
,  // measure 43
0100
1000
0010
0000
0100
0001
1000
0000
,  // measure 44
0100
1000
0010
0000
0100
0001
1000
0000
,  // measure 45
1000
0000
0100
0110
0000
1100
0000
0110
,  // measure 46
0000
0011
0000
1000
1010
0000
0010
1001
,  // measure 47
0000
1000
0100
0010
1010
0000
0001
1000
,  // measure 48
0000
0100
1000
0010
0101
0000
0001
1000
,  // measure 49
0000
0100
1000
0010
0100
0000
0001
0010
,  // measure 50
0000
0000
0001
0010
0100
1000
0010
0100
0001
0000
0100
0000
1001
0000
0000
0000
,  // measure 51
0110
0000
0101
0000
0001
1000
0100
0000
,  // measure 52
0110
0000
1001
0000
0010
0100
0001
0000
,  // measure 53
1000
0000
0100
0010
0000
0011
0000
1100
,  // measure 54
0000
0110
0000
0000
0000
0100
0001
0000
,  // measure 55
1001
0000
1100
0000
0000
0010
0100
0000
,  // measure 56
1000
0100
0022
0033
,  // measure 57
0100
0010
1000
0100
,  // measure 58
1000
0010
0100
0001
0101
0010
1010
0001
,  // measure 59
1100
0010
0101
0001
1001
0100
1001
0010
,  // measure 60
1001
0100
1001
0010
1001
0001
0101
0010
,  // measure 61
0101
0001
0101
0010
0101
0001
0011
0001
,  // measure 62
0001
0100
0010
1000
0010
1000
0010
1000
0001
0000
0100
0000
1001
0000
0001
0000
,  // measure 63
0000
0100
0101
0001
1001
0000
0001
1000
,  // measure 64
0000
0000
0010
0000
0101
0000
0001
0000
1001
0000
1000
0010
1000
0010
0100
0001
,  // measure 65
1000
0001
1000
0001
0100
0010
1000
0001
1000
0010
0100
0001
1000
0100
0010
0001
,  // measure 66
1000
0001
1000
0001
1000
0000
0220
0000
0000
0000
0000
0000
0000
0000
0000
0000
,  // measure 67
0000
0000
0000
0000
,  // measure 68
0000
0000
0000
0330
0000
0000
0000
0000
;

//---------------dance-single - ----------------
#NOTES:
     dance-single:
     :
     Medium:
     6:
     0.352748,0.617434,0.399876,0.109966,0.000000,247.000000,207.000000,40.000000,11.000000,0.000000,0.000000,0.352748,0.617434,0.399876,0.109966,0.000000,247.000000,207.000000,40.000000,11.000000,0.000000,0.000000:
0000
0000
0000
0000
,
0000
0000
0000
0000
,
0000
0000
0000
0000
,
0000
0000
0000
0000
,
0000
0000
0000
0000
,
0000
0000
0000
0000
,
0000
0000
0000
0000
,
0000
0000
0000
0000
,
0000
0000
0000
0000
,
0000
0000
0000
0000
1000
1000
0000
0010
,
0000
0010
0000
0020
0000
0000
0030
0000
,
0000
0000
0000
0000
0100
0100
0000
0010
,
0000
1000
0000
0001
0000
0100
0000
0010
,
0000
0100
0000
0000
0001
1000
0000
1000
,
0000
0010
0000
0200
0000
0000
0000
0000
,
0300
0000
0000
0000
0001
0000
0000
1000
,
0000
0000
0000
0000
0010
0000
0000
0100
,
0000
0001
0100
0001
0100
0000
0000
0002
,
0000
0000
0000
0003
0000
0000
0000
1000
,
1000
0000
1000
0000
0100
0000
0000
0200
,
0000
0300
0000
1001
,
0110
0101
1001
0000
,
0000
0000
0000
1000
,
0010
0000
0000
0000
0100
0000
0000
0001
,
0000
1000
0000
0010
,
1000
0001
0100
0001
2000
0000
0000
0000
,
3000
0000
0001
0000
0100
0000
0000
0010
,
0000
1000
0001
0000
,
0000
0000
1000
0020
0000
0000
0030
0000
,
0000
0000
0000
0000
2002
0000
0000
0003
,
3000
0000
0000
0000
0110
0000
0000
1001
,
0000
1100
0220
0000
,
0000
0000
0000
0000
,
0330
0000
1001
0000
,
0000
0000
0000
0000
0010
1000
0010
0000
,
0100
0000
0001
0000
0000
1000
0001
0000
,
1000
0000
0010
0000
0000
0100
0001
0000
,
1000
0000
0000
0100
0000
1000
0000
0010
,
0000
0100
0000
0000
0000
0001
1000
0000
,
0010
0000
0010
0000
0000
0100
0010
0000
,
0100
0001
1001
0000
,
1001
0000
0010
0000
0100
0000
0000
0001
,
0000
1000
0001
1000
0001
1000
1000
0000
,
0010
0000
0100
0000
0100
0001
0001
0000
,
1000
0000
0100
0000
0100
1000
1000
0000
,
0010
0000
0100
0001
0000
1001
0000
0101
,
0000
1001
0000
1000
0000
0000
1000
0000
,
0010
0000
0010
0000
0100
0000
0000
1001
,
0000
1001
0000
1001
0000
0000
1001
0000
,
0100
0000
0010
0000
0100
0000
0001
1000
,
0000
0001
0000
0000
1000
0010
0010
0000
,
0101
0000
0101
0000
0001
1000
1000
0000
,
1001
0000
1001
0000
0010
1000
0010
0000
,
0100
0000
0001
1000
0000
0100
0000
0010
,
0000
0001
0000
1000
0010
0000
0100
0000
,
0001
0000
1000
0000
0100
1000
0010
0000
,
0100
0101
1001
0000
,
1001
0100
0010
1000
,
0001
1000
0001
0000
1001
0000
1001
0000
,
1001
1001
0110
0110
,
0110
0110
0011
0011
,
0011
0000
0011
0000
0101
0000
0001
0010
,
0100
1000
0001
0010
0100
0000
1001
0000
,
1000
0010
1000
0000
0010
0000
0100
0000
,
0001
0100
0001
0000
1000
0000
0001
0100
,
0010
1000
0001
0010
0100
0010
0001
1000
,
0100
0010
0001
0020
0000
0000
0000
0000
,
0000
0000
0000
0000
,
0000
0000
0000
0000
0000
0030
0000
0000
;

//---------------dance-single - ----------------
#NOTES:
     dance-single:
     :
     Easy:
     4:
     0.188513,0.307592,0.019994,0.119963,0.000000,132.000000,130.000000,2.000000,12.000000,0.000000,0.000000,0.188513,0.307592,0.019994,0.119963,0.000000,132.000000,130.000000,2.000000,12.000000,0.000000,0.000000:
0000
0000
0000
0000
,
0000
0000
0000
0000
,
0000
0000
0000
0000
,
0000
0000
0000
0000
,
0000
0000
0000
0000
,
0000
0000
0000
0000
,
0000
0000
0000
0000
,
0000
0000
0000
0000
,
0000
0000
0000
0000
,
0000
0000
0000
0000
1000
0000
0000
1000
,
0000
1000
0000
1000
0000
0000
0000
0000
,
0000
0000
0000
0000
0001
0000
0000
0001
,
0000
0001
0000
0010
0000
0010
0000
0001
,
0000
0001
0000
0000
1000
0000
0000
0010
,
0000
0010
0000
0020
0000
0000
0000
0030
,
0000
0000
0000
0000
0100
0000
0000
0100
,
0000
0000
0001
0000
,
0001
0000
0000
0000
1000
0000
0000
2000
,
0000
3000
0000
0000
,
0010
0000
0000
0000
0010
0000
0000
0010
,
0000
0000
0000
0100
,
0000
0010
0000
0000
,
0000
0000
0000
1000
,
0000
0000
0000
0000
0001
0000
0000
0200
,
0000
0300
0000
0000
,
0000
0000
0000
0000
2002
0000
0000
3003
,
0000
0000
0001
0000
0001
0000
0000
1000
,
0000
0000
0010
0000
,
0000
0000
0000
1001
0000
0000
0000
0000
,
0000
0000
0100
0000
,
0000
0000
0010
0000
,
1000
0000
0020
0000
,
0000
0000
0000
0030
,
0000
0000
1000
0000
,
0000
0000
0000
0010
,
0010
0010
0000
0100
,
0100
0100
0000
0010
,
0000
0000
0000
0010
0000
0010
0000
0010
,
0000
0010
0000
0000
0000
0000
1000
0000
,
1000
1000
0000
0001
,
0001
0001
0100
0000
,
0010
0000
0010
0000
,
0200
0000
0000
0300
0000
0000
0001
0000
,
0000
1000
0000
0010
,
0000
0100
0000
0010
,
0010
0000
0000
0010
0000
1000
0000
0001
,
0000
1000
0000
0020
0000
0000
0000
0030
,
0000
0000
1000
0000
0010
0000
0000
0100
,
0000
0000
0000
0002
0000
0000
0000
0003
,
0000
0000
1000
0000
0010
0000
0000
0100
,
0000
0000
0000
0001
,
1000
0010
0000
0100
,
0001
1000
0000
0001
,
1000
0000
0000
0010
0000
0100
0000
0010
,
0000
0100
0000
0000
0000
0000
0001
0000
,
1000
0001
0000
1000
,
0001
1000
0010
0000
,
0010
0000
0010
0000
0100
0000
0000
0010
,
0000
1000
0001
1000
,
0010
0100
0001
1000
,
0100
1000
0010
0100
,
0001
0010
0001
0100
,
0010
1000
0002
0000
,
0003
0000
1000
0000
1000
0000
0000
0010
,
0000
0100
0000
0020
0000
0000
0000
0030
,
0000
0000
1000
0000
0001
0000
0000
1000
,
0000
0001
0000
0200
0000
0000
0000
0000
,
0000
0000
0000
0000
,
0000
0000
0000
0300
0000
0000
0000
0000
;
