#TITLE:Rain;
#SUBTITLE:Full Metal Alchemist Opening 5;
#ARTIST:SID;
#TITLETRANSLIT:;
#SUBTITLETRANSLIT:;
#ARTISTTRANSLIT:;
#GENRE:;
#CREDIT:Magna Trick;
#BANNER:RBN.jpg;
#BACKGROUND:RBG.jpg;
#LYRICSPATH:;
#CDTITLE:Magna Trick title!.png;
#MUSIC:Rain.mp3;
#OFFSET:0.001900;
#SAMPLESTART:43.080002;
#SAMPLELENGTH:14.000000;
#SELECTABLE:YES;
#BPMS:0.000000=190.080002
,5.000000=95.040001
,5.250000=47.520000
,22.000000=380.160004
,26.000000=95.040001
,58.000000=190.080002
;
#STOPS:
;
#BGCHANGES:0.083=Rain.avi=1.000=0=0=1=====,
202.000=RBG.jpg=1.000=0=0=1=====,
99999=-nosongbg-=1.000=0=0=0 // don't automatically add -songbackground-
;
#KEYSOUNDS:;
#ATTACKS:;

//---------------dance-single - ----------------
#NOTES:
     dance-single:
     :
     Challenge:
     14:
     0.601687,1.085104,0.353664,0.417966,0.600156,393.000000,360.000000,33.000000,39.000000,0.000000,0.000000,0.601687,1.085104,0.353664,0.417966,0.600156,393.000000,360.000000,33.000000,39.000000,0.000000,0.000000:
// measure 0
0000
0000
0000
0000
,  // measure 1
0000
0000
0000
0000
0000
0000
0000
0000
0000
0000
2000
0000
3020
0000
0230
0000
0302
0000
2003
0000
3200
0000
0000
0310
0001
0010
0001
1000
0000
0010
1000
0000
,  // measure 2
0001
0000
0001
0000
0020
0000
0030
0100
1000
0100
1000
0010
0000
0100
0002
0000
0000
0003
0000
0000
1001
0000
0100
0000
0010
0001
0010
0001
0000
0100
0001
0000
,  // measure 3
0010
0000
0100
0000
2000
0000
0000
3100
0010
0100
0010
0001
0000
1000
0002
0000
0000
0003
0020
0000
0230
0000
1300
0100
1000
0100
0010
0002
0000
0000
1000
0000
,  // measure 4
0000
0003
0200
0000
0320
0000
2030
0000
3001
0010
0100
2000
0000
0000
0001
0000
3000
0000
0010
0100
0001
0000
0010
0100
0000
1000
0001
0000
0100
0010
0100
0000
,  // measure 5
0001
0000
0000
0000
0010
0000
0100
2000
0000
0000
0000
0000
0000
0000
0000
0000
3000
0000
0000
0000
0001
0000
1000
0000
0001
0000
0000
0000
1000
0000
0000
0000
0200
0000
0000
0000
0000
0000
0000
0000
0000
0000
0000
0000
0000
0000
0000
0000
0000
0000
0000
0000
0000
0000
0000
0000
0000
0000
0000
0000
0000
0000
0000
0000
,  // measure 6
0000
0000
0000
0000
0300
0000
0000
0000
1001
0010
0100
0002
0000
2003
0000
3100
,  // measure 7
0020
0000
0000
0001
1030
0000
0000
0000
1000
0000
0010
0000
0100
0000
0001
0000
1001
0000
0000
0000
0100
0000
1000
0000
0000
0000
0001
0000
0100
0000
0010
0100
,  // measure 8
0001
0000
1000
0100
0000
0010
0001
0001
0011
0000
0100
0010
0000
0001
1000
0000
,  // measure 9
0110
0000
0001
1001
1000
0010
0100
0000
0020
0000
1030
0100
0010
0000
0001
0000
,  // measure 10
0110
0000
0000
0000
1000
0000
1001
0000
0001
0000
0000
0000
0001
0000
1000
0100
0010
0000
0001
0000
1000
0000
0100
0000
0000
0000
0010
0000
0001
0000
0011
0000
,  // measure 11
0000
0100
1100
0000
1001
0100
0010
0100
1001
0010
0100
0010
0000
1000
0000
0001
,  // measure 12
1001
1000
0010
0000
0100
0010
1000
0100
0011
0000
0100
0101
0000
1000
1100
0000
,  // measure 13
0010
0110
0000
0000
0110
0000
0110
0000
0100
0000
1100
0000
0101
0000
0011
0000
,  // measure 14
1010
0000
1001
0000
0010
0001
1000
1000
1001
0000
0000
0000
0001
0000
0000
0000
,  // measure 15
0020
0000
0230
0000
2300
0000
3010
1000
,  // measure 16
0010
0200
0302
1000
,  // measure 17
0103
0000
0010
1000
0000
0010
0100
0001
,  // measure 18
1100
0110
0011
0100
,  // measure 19
1000
0000
0100
0010
0000
0001
0010
0000
,  // measure 20
0100
1000
0010
0000
0100
0001
0001
0100
,  // measure 21
0001
0000
1000
0001
0000
0010
0100
1000
,  // measure 22
0001
0100
0010
1000
0110
0000
0001
0000
,  // measure 23
2000
0000
3020
0000
0230
0000
0310
1000
,  // measure 24
0002
0010
1003
0010
,  // measure 25
0100
0000
0001
1000
0000
0100
0010
0000
,  // measure 26
0001
0100
0010
1000
0001
0010
0000
1000
,  // measure 27
0010
0000
0001
0010
0000
0001
1000
0000
,  // measure 28
1000
0100
1000
0000
0010
0000
0010
0000
0100
0000
0001
0000
0000
0000
1000
0000
,  // measure 29
0100
0000
0000
0000
0000
0000
0010
0000
0000
0100
0000
0000
0001
0000
1000
0000
0100
0000
0001
0000
1000
0000
0010
0000
,  // measure 30
0001
1000
0100
0001
1000
0010
0110
0000
0000
0010
0000
0000
,  // measure 31
0001
0000
1000
0000
0010
0000
0001
0010
,  // measure 32
0100
0001
2000
0100
,  // measure 33
0010
0000
3100
0010
0000
0001
1000
0100
,  // measure 34
0010
0001
0010
0100
1100
0000
0001
0000
,  // measure 35
1000
0000
0100
0001
0000
0100
1000
0000
,  // measure 36
0010
0100
0001
0000
1000
1000
0001
1000
,  // measure 37
1000
0000
0010
0100
0000
0001
1000
0100
,  // measure 38
0010
0001
0010
1000
1010
0000
0100
0000
,  // measure 39
0020
0000
0032
0000
0203
0000
0310
1000
,  // measure 40
0010
1000
0002
0100
,  // measure 41
0010
0000
1003
0001
0000
0100
0010
0100
,  // measure 42
0001
1000
0100
0000
0010
0000
0100
1000
,  // measure 43
0000
0001
0100
0000
0010
0100
0002
0000
,  // measure 44
1000
1003
1000
1000
1001
0001
0000
1000
,  // measure 45
0001
0000
0000
0000
0000
0000
0100
0000
0000
0010
0000
0000
1000
0000
0000
0001
0000
0000
1000
0000
0010
0000
0001
0000
,  // measure 46
1000
0100
0001
1000
0010
0100
0020
0000
0000
0000
0000
0000
,  // measure 47
0000
0000
0000
0000
,  // measure 48
0000
0000
0000
0000
,  // measure 49
0000
0000
0000
0000
,  // measure 50
0000
0000
0000
0000
0000
0030
0000
0000
;

//---------------dance-single - ----------------
#NOTES:
     dance-single:
     :
     Hard:
     13:
     0.529730,0.840956,0.203625,0.385815,0.455476,346.000000,327.000000,19.000000,36.000000,0.000000,0.000000,0.529730,0.840956,0.203625,0.385815,0.455476,346.000000,327.000000,19.000000,36.000000,0.000000,0.000000:
0000
0000
0000
0000
,
0000
0000
0000
0000
0000
0000
0000
0000
0000
0000
0002
0000
0203
0000
0320
0000
2030
0000
3002
0000
0023
0000
0000
0230
0000
0300
1000
0000
0001
0000
0100
0000
,
0010
0000
1000
0000
0002
0000
0000
0023
0000
0000
0230
0000
0000
0000
0000
0000
0000
0300
0000
0000
1000
0000
0001
0000
0100
0000
0010
1000
0000
0000
0001
0000
,
0010
0000
0100
0000
1000
0000
0000
0002
0000
0000
0000
0000
0000
0000
0000
0000
0003
0000
0100
0000
0010
0000
1000
0000
0100
0000
1000
0020
0000
0000
0000
0000
,
0030
0000
0100
0000
0001
0000
0010
0000
0001
0000
0100
0002
0000
0000
0000
0000
0000
0003
1000
0001
0010
0000
0100
1000
0000
0000
1000
0000
0100
0000
0010
0000
,
0002
0000
0000
2003
0000
0000
0000
0000
0000
3000
0001
0010
0001
0000
0100
0000
0020
0000
0000
0000
0000
0000
0000
0000
0000
0000
0000
0000
0000
0000
0000
0000
,
0000
0000
0000
0000
0030
0000
0000
0000
0001
0100
0010
2000
0000
3002
0000
0203
,
0000
0000
0310
0000
1000
0100
0010
0001
1001
0000
0010
0001
0000
1000
0010
0100
,
0000
0001
0010
0000
0100
1000
0100
0100
1100
0000
0010
0100
0000
1000
0001
0000
,
0110
0000
1000
0001
0001
0100
0010
0000
0200
0000
0301
0010
0100
0000
1000
0000
,
0110
0000
0001
1000
1000
0000
1000
0001
0010
0100
1000
0010
0000
0100
0010
0110
,
0000
0010
1010
0000
1001
0010
0100
0010
1000
0100
0010
0100
0000
0010
0000
0001
,
1000
0001
0100
0000
0010
0100
0001
0010
1001
0000
1000
1000
0000
0001
0001
0000
,
0100
0110
0000
0000
0110
0000
0110
0000
0010
0000
0011
0000
1010
0000
1100
0000
,
0101
0000
1001
0000
0100
1000
0001
0001
1001
0000
0000
0000
1000
0000
0000
0000
,
0200
0000
0320
0000
0032
0000
0103
0001
,
0100
0020
2030
0001
,
3010
0000
0100
0001
0000
0100
0010
1000
,
0001
0110
1100
0010
,
0001
0000
0010
0100
0000
1000
0100
0000
,
0010
0001
0100
0000
0010
1000
1000
0010
,
1000
0000
0001
1000
0000
0100
0010
0001
,
1000
0010
0100
0001
1000
0000
1000
0000
,
0002
0000
0203
0000
0320
0000
0130
0001
,
2000
0100
3001
0100
,
0010
0000
0001
1000
0000
0010
0100
0000
,
0001
0010
0100
1000
0100
1000
0000
0001
,
0100
0000
0010
0100
0000
0010
1000
0000
,
0001
0001
0100
0100
0010
1000
0000
0001
,
1000
0000
0000
0000
0000
0000
1000
0000
0000
0100
0000
0000
1000
0000
0100
0000
1000
0000
0100
0000
1000
0000
0100
0000
,
0010
0001
0010
0001
0010
0001
1000
0000
0000
0100
0000
0000
,
1000
0000
0001
0000
0100
0000
1000
0100
,
0010
1000
0002
0010
,
0100
0000
0013
0100
0000
1000
0001
0010
,
0100
1000
0100
0010
0001
0000
1000
0000
,
0001
0000
0010
1000
0000
0010
0001
0000
,
0100
0010
1000
0000
0001
0001
1000
0000
,
0001
0000
0100
0010
0000
1000
0001
0000
,
0100
0010
0100
0001
0100
0000
0010
0000
,
0200
0000
0320
0000
2030
0000
3100
0010
,
0001
0001
2000
0010
,
0100
0000
3001
1000
0000
0010
0100
0000
,
0001
1000
0001
0000
0100
0000
0010
1000
,
0000
1000
0010
0000
0100
0010
2000
0000
,
0001
3001
0001
0001
1000
1000
0000
0001
,
1000
0000
0000
0000
0000
0000
0010
0000
0000
0100
0000
0000
0001
0000
0000
1000
0000
0000
0001
0000
0100
0000
0001
0000
,
0100
0001
0100
0001
0100
0001
0200
0000
0000
0000
0000
0000
,
0000
0000
0000
0000
,
0000
0000
0000
0000
,
0000
0000
0000
0000
,
0000
0000
0000
0000
0000
0300
0000
0000
;

//---------------dance-single - ----------------
#NOTES:
     dance-single:
     :
     Medium:
     8:
     0.297016,0.651063,0.085737,0.535854,0.257210,194.000000,186.000000,8.000000,50.000000,0.000000,0.000000,0.297016,0.651063,0.085737,0.535854,0.257210,194.000000,186.000000,8.000000,50.000000,0.000000,0.000000:
0000
0000
0000
0000
,
0000
0000
0000
0000
0000
0000
0000
0000
0000
0000
1000
0000
0001
0000
1000
0000
0001
0000
1000
0000
0020
0000
0000
0230
0000
0000
0300
0000
0001
0000
1000
0000
,
0001
0000
1000
0000
0200
0000
0000
0320
0000
0000
0032
0000
0000
0000
0000
0000
0000
0000
0003
0000
1000
0000
0000
0000
0001
0000
1000
0000
0010
0000
0100
0000
,
0001
0000
0010
0000
0100
0000
0000
0020
0000
0000
0000
0000
0000
0030
1000
0000
0000
0000
0010
0000
0100
0000
0001
0000
1000
0000
0100
1000
0000
0000
0000
0000
,
0000
0000
0010
0000
0100
0000
0001
0000
0010
0000
0100
0010
0000
0000
0000
0000
0000
0000
0001
0000
1000
0000
0000
0001
0000
0000
0000
0000
0100
0000
0010
0000
,
0100
0000
0000
0002
0000
0000
0000
0000
0000
0000
0000
0000
0000
0000
0000
0000
0003
0000
0000
0000
0000
0000
0000
0000
0000
0000
0000
0000
0000
0000
0000
0000
,
0000
0000
0000
0000
0000
0000
0000
0000
0001
1000
0001
1000
0000
0001
0000
0020
,
0000
0000
0000
0000
0000
0030
0100
1000
0100
0000
1000
0001
0000
0100
0000
0010
,
0000
0100
0002
0000
0000
0003
1000
0000
0200
0000
0000
0320
0000
0000
0032
0000
,
0103
0000
0010
0000
1000
0000
0100
0000
0020
0000
0030
0002
0000
0000
0000
0000
,
0000
0000
0000
0003
0000
0000
0000
0000
1000
0001
1000
0001
0000
1000
0000
0020
,
0000
0000
0000
0000
0000
0000
0130
0001
0100
0000
0001
1000
0000
0001
0000
1000
,
0000
0100
0020
0000
0000
0030
0100
0000
1000
0000
0000
0001
0000
0000
0100
0000
,
0000
0010
0000
0000
1000
0000
0001
0000
0011
0000
0000
1100
0000
0000
2002
0000
,
0000
0000
0000
3003
0010
0000
0100
0000
1001
0000
0000
0000
0010
0000
0000
0000
,
0100
0000
0001
0000
0010
0000
0100
0010
,
0100
0010
0001
1000
,
0010
0200
0000
0300
,
0001
0000
0010
0000
0200
0000
0000
0300
,
1000
0001
1000
0010
,
0100
0001
0020
0000
,
0000
0030
0200
0000
0000
0000
0300
0000
,
1000
0001
1001
0000
,
0010
0100
0001
1000
,
0100
0010
0002
0000
,
0000
0003
2000
0000
0000
0000
0000
3000
,
0010
0000
0100
0000
0002
0000
0000
2003
,
0000
3200
0000
0320
,
0000
0000
0031
0000
2000
0000
0000
3020
,
0000
0000
0230
0000
0000
0000
0000
0300
,
0001
1000
1001
0000
,
0010
0100
1000
0010
,
0100
0001
2002
0000
,
3003
0220
0000
0330
,
0010
0100
0002
0003
,
1000
0100
0010
1000
,
0010
0100
2000
0000
,
0000
3000
0002
0000
0000
0000
0000
0003
,
0100
0000
0010
0000
0200
0000
0000
0300
,
1000
0100
0001
1000
,
0100
0010
0002
0000
,
0000
0000
2003
0000
0000
0000
0000
3000
,
0010
0000
1000
0000
0200
0000
0000
0320
,
0000
0032
0000
2003
,
0000
0000
3010
0000
0200
0000
0000
0302
,
0000
2003
3000
0002
,
0000
0100
0203
0000
,
0000
0000
0000
0000
,
0000
0000
0000
0000
,
0000
0000
0000
0000
,
0000
0000
0000
0000
0000
0300
0000
0000
;

//---------------dance-single - ----------------
#NOTES:
     dance-single:
     :
     Easy:
     5:
     0.223528,0.515425,0.117888,0.439400,0.000000,146.000000,135.000000,11.000000,41.000000,0.000000,0.000000,0.223528,0.515425,0.117888,0.439400,0.000000,146.000000,135.000000,11.000000,41.000000,0.000000,0.000000:
0000
0000
0000
0000
,
0000
0000
0000
0000
0000
0002
0000
0000
,
0000
0000
0000
0003
2000
0000
0000
0000
0000
0000
0000
0000
0000
0000
0000
0000
0000
0000
0000
0000
3020
0000
0000
0000
0000
0000
0000
0000
0000
0000
0000
0000
,
0000
0230
0000
0000
0000
0302
0000
0000
,
0000
2003
0000
0000
0000
3200
0000
0320
,
0000
0000
0000
0000
0032
0000
0000
0000
0000
0003
0000
0000
0000
0000
0000
0000
0000
0000
0000
0000
0000
0000
0000
0000
0000
0000
0000
0000
0000
0000
0000
0000
,
0000
0000
1001
0000
,
0000
0000
1010
0000
,
0000
0000
0000
0000
0101
0100
0100
0100
,
0100
0010
1000
0001
1000
1000
1000
0001
,
0010
0100
1000
0000
1001
0000
0000
0000
,
0000
0000
0110
0000
,
0000
0000
0000
0000
1010
1000
1000
1000
,
0001
0100
0010
1000
0100
0100
0100
0100
,
0100
0100
0001
1000
1001
0000
0100
0000
,
0010
0000
1000
0000
0100
0000
0010
0100
,
0010
0100
1000
0001
,
0100
0020
0000
0030
,
1000
0000
0100
0000
0020
0000
0000
0030
,
0001
1000
0001
0100
,
0010
1000
0200
0000
,
0000
0300
0020
0000
0000
0000
0030
0000
,
0001
1000
1001
0000
,
0100
0010
1000
0001
,
0010
0100
2000
0000
,
0000
3000
0002
0000
0000
0000
0000
0003
,
0100
0000
0010
0000
2000
0000
0000
3002
,
0000
0023
0000
0230
,
0000
0000
1300
0000
0002
0000
0000
0203
,
0000
0000
0320
0000
0000
0000
0000
0030
,
1000
0001
1001
0000
,
0100
0010
0001
0100
,
0010
1000
2002
0000
,
3003
0220
0000
0330
,
0100
0010
2000
3000
,
0001
0010
0100
0001
,
0100
0010
0002
0000
,
0000
0003
2000
0000
0000
0000
0000
3000
,
0010
0000
0100
0000
0020
0000
0000
0030
,
0001
0010
1000
0001
,
0010
0100
2000
0000
,
0000
0000
3002
0000
0000
0000
0000
0003
,
0100
0000
0001
0000
0020
0000
0000
0230
,
0000
2300
0000
3002
,
0000
0000
0103
0000
0020
0000
0000
2030
,
0000
3002
0003
2000
,
0000
0010
3020
0000
,
0000
0000
0000
0000
,
0000
0000
0000
0000
,
0000
0000
0000
0000
,
0000
0000
0000
0000
0000
0030
0000
0000
;
