#TITLE:Raikiri;
#SUBTITLE:Naruto Shippuden OST II;
#ARTIST:Toshiro Masuda;
#TITLETRANSLIT:;
#SUBTITLETRANSLIT:;
#ARTISTTRANSLIT:;
#GENRE:;
#CREDIT:;
#BANNER:RAIBN.jpg;
#BACKGROUND:RAIBG.jpg;
#LYRICSPATH:;
#CDTITLE:Magna Trick title!.png;
#MUSIC:Raikiri.mp3;
#OFFSET:0.510100;
#SAMPLESTART:5.000000;
#SAMPLELENGTH:12.000000;
#SELECTABLE:YES;
#BPMS:0.000000=160.000000
;
#STOPS:
;
#BGCHANGES:0.000=Raikiri.avi=1.000=0=0=0=StretchNoLoop====,
285.500=RAIBG.jpg=1.000=0=0=1=====,
99999=-nosongbg-=1.000=0=0=0 // don't automatically add -songbackground-
;
#KEYSOUNDS:;
#ATTACKS:;

//---------------dance-single - ----------------
#NOTES:
     dance-single:
     :
     Medium:
     10:
     0.539506,0.661674,0.498789,0.026721,0.008907,424.000000,368.000000,56.000000,3.000000,0.000000,0.000000,0.539506,0.661674,0.498789,0.026721,0.008907,424.000000,368.000000,56.000000,3.000000,0.000000,0.000000:
0000
0000
0000
0000
,
0000
0000
0000
0000
,
0000
0000
0000
0000
,
0000
0000
0000
0000
,
0000
0000
1001
0010
,
1000
0100
1000
0000
0010
0000
0100
0000
,
0001
0010
0001
0000
0100
0000
0010
0000
,
1000
0010
1000
0000
1001
0000
0000
0110
,
0000
0000
1010
1001
0000
0000
0001
0000
,
1000
0100
1000
0000
0001
0000
0100
0000
,
0001
0100
0001
0000
1000
0000
0001
0000
,
0010
0001
0010
0000
0110
0000
0000
1001
,
0000
0000
0110
1001
0000
0000
0010
0000
,
1000
0100
0010
0001
,
0100
0010
0100
0001
,
1000
0001
1000
0000
0110
0000
0000
1001
,
0000
0000
1100
0011
0000
0000
0001
0000
,
0010
0100
0010
0000
0001
0000
0100
0000
,
0010
0100
0010
0000
1000
0000
0001
0000
,
1000
0100
1000
0000
0011
0000
0000
1100
,
0000
0000
1001
0000
0010
1000
0100
0010
,
0001
0100
0010
1000
0100
1000
0010
0100
,
0001
0010
0100
1001
0000
1001
0000
0000
,
0010
1000
0010
0000
0100
0001
0100
0010
,
1000
0100
0010
0000
0110
0100
1000
0010
,
0100
1000
0001
0010
1000
0100
0010
1000
,
0010
0100
1000
1001
0000
1001
0000
0000
,
0010
1000
0010
0000
0100
0001
0100
0010
,
1000
0100
0010
0000
0110
0100
1000
0001
,
0100
0010
1000
0100
1000
0010
0100
0001
,
0010
0100
0010
1001
0000
1001
0000
0000
,
0010
1000
0010
0000
0100
0001
0100
0010
,
1000
0100
0010
0000
0110
0100
0010
0001
,
0100
1000
0100
0001
0010
1000
0010
0001
,
1000
0010
0001
1001
0000
1001
0000
0000
,
0001
1000
0100
0000
1000
0001
0100
0010
,
1000
0100
0010
0000
0110
0100
1000
0001
,
0100
0010
1000
0100
1000
0010
0100
0001
,
0010
0100
0011
0011
0011
0100
1000
0001
,
0100
0010
1000
0100
0010
1000
0010
0100
,
1000
0001
1001
1001
1001
0010
0100
1000
,
0001
0010
1000
0100
0010
1000
0010
0100
,
1000
0001
1001
1001
1001
0010
0100
1000
,
0001
0010
1000
0100
0010
0100
1000
0001
,
0100
0010
1000
0100
1001
0000
0001
0000
,
1000
0001
1000
0000
0010
0000
0100
0000
,
0010
0100
0010
0000
0100
0000
0001
0000
,
0010
0001
0010
0000
1001
0000
0000
0110
,
0000
0000
1001
1001
0000
0000
0010
0000
,
1000
0100
1000
0000
0010
0000
0100
0000
,
0001
0010
0001
0000
0100
0000
0010
0000
,
1000
0001
1000
0000
0110
0000
0000
1001
,
0000
0000
0110
1001
0000
0000
0010
0000
,
0100
0001
0010
0000
0001
0000
0100
0000
,
0010
1000
0100
0000
1000
0000
0010
0000
,
0100
0001
0010
0000
0110
0000
0000
1001
,
0000
0000
0110
1001
0000
0000
0010
0000
,
1000
0100
1000
0000
0010
0000
0100
0000
,
0001
0010
0001
0000
0100
0000
0010
0000
,
1000
0001
1000
0000
0110
0000
0000
1100
,
0000
0000
0101
0000
0001
1000
0100
0010
,
0001
0010
0100
1000
0100
0010
0001
1000
,
1010
0010
1000
0001
0100
0001
1000
0010
,
1000
0001
0100
0001
1010
0001
1000
0100
,
0010
0001
1000
0100
0010
0001
1000
0100
,
0110
0010
0100
1000
0001
0010
0100
1000
,
0001
0010
0100
2000
0000
3000
0000
0000
,
0100
0010
1000
0001
0000
0000
0000
0000
0000
2000
0000
0000
,
0000
0000
3020
0000
,
0000
0000
0000
0000
,
0000
0000
0000
0030
;

//---------------dance-single - ----------------
#NOTES:
     dance-single:
     :
     Easy:
     7:
     0.367729,0.497007,0.391905,0.017814,0.000000,289.000000,245.000000,44.000000,2.000000,0.000000,0.000000,0.367729,0.497007,0.391905,0.017814,0.000000,289.000000,245.000000,44.000000,2.000000,0.000000,0.000000:
0000
0000
0000
0000
,
0000
0000
0000
0000
,
0000
0000
0000
0000
,
0000
0000
0000
0000
,
0000
0000
1001
0010
,
1000
0100
0000
0010
,
0001
0100
0000
0010
,
1000
0000
0100
0000
1001
0000
0000
0110
,
0000
0000
1001
0110
0000
0000
0010
0000
,
1000
0100
0000
0010
,
0001
0100
0000
0010
,
1000
0000
0100
0000
0110
0000
0000
0110
,
0000
0000
0110
1001
0000
0000
0010
0000
,
0100
0001
0000
1000
,
0100
0010
0000
0100
,
1000
0000
0001
0000
0110
0000
0000
1001
,
0000
0000
0110
1001
0000
0000
0010
0000
,
1000
0100
0000
0010
,
0001
0100
0000
1000
,
0100
0000
0001
0000
1001
0000
0000
0110
,
0000
1001
0010
1000
,
0100
0010
0001
0100
,
0010
1000
1001
1001
,
0010
0100
1000
0100
,
0001
0010
0100
1000
,
0001
0100
0010
1000
,
0100
0010
1001
1001
,
0010
0100
0010
1000
,
0100
0010
0110
0100
,
1000
0001
0100
0010
,
1000
0001
1001
1001
,
0001
0010
0100
1000
,
0001
0100
0110
0010
,
1000
0001
0100
0010
,
1000
0100
0110
0110
,
0100
1000
0001
0100
,
0010
0110
1000
0100
,
0001
0000
0010
1000
0010
0000
0100
0000
,
1000
0000
0001
0100
1000
0000
0100
0000
,
0001
0000
1000
0100
0001
0000
0100
0000
,
1000
0000
0001
0100
1000
0000
0100
0000
,
0001
0000
1000
0100
0001
0000
0100
0000
,
1000
0000
0001
0100
1000
0000
0100
0000
,
0001
0000
1000
0100
0001
0000
0100
0000
,
1000
0000
0001
0000
0100
0010
0100
0010
,
0100
0010
0100
0010
0000
1000
0001
1000
,
0001
1000
0001
1000
0000
0100
0010
0100
,
0010
0100
0010
0100
1001
0000
0000
0110
,
0000
0000
1001
0110
0000
0000
0010
0000
,
1000
0001
0000
0010
,
0001
1000
0000
0100
,
1000
0000
0001
0000
0110
0000
0000
1001
,
0000
0000
1100
0011
0000
0000
0001
0000
,
1000
0100
0000
0010
,
0001
0100
0000
1000
,
0100
0000
0001
0000
0011
0000
0000
0110
,
0000
0000
1100
1001
0000
0000
0010
0000
,
0100
1000
0000
1000
,
0100
0001
0000
0001
,
0010
1000
0110
0001
,
0010
1000
0100
1000
,
0001
0100
0010
1000
,
0110
1000
0100
0010
,
0001
0100
0110
0010
,
1000
0001
0010
0100
,
1001
0010
0100
1000
,
0001
0010
0000
0000
,
0000
0000
0000
2002
,
0000
0000
0000
0000
,
0000
0000
0000
3003
;

//---------------dance-single - ----------------
#NOTES:
     dance-single:
     :
     Hard:
     17:
     0.912325,1.071282,0.694741,0.311743,0.779357,717.000000,639.000000,78.000000,35.000000,0.000000,3.000000,0.912325,1.071282,0.694741,0.311743,0.779357,717.000000,639.000000,78.000000,35.000000,0.000000,3.000000:
0000
0000
0000
0000
0000
0000
0001
1000
2002
0000
0000
0000
0000
0000
0000
0000
,
0000
0000
0000
0000
,
0000
0000
0000
0000
,
0000
0000
0000
0000
3003
0000
0000
0000
0001
0100
0001
0100
0010
1000
0010
1000
,
0100
0010
0100
0010
0001
1000
0001
1000
1001
0000
0010
0000
1000
0000
0100
1000
,
0100
0000
0010
0000
0001
0000
1000
0000
0000
0000
1000
0000
0010
0000
0001
0010
,
0001
0000
1000
0000
0100
0000
0001
0000
0000
0000
1000
0000
0100
0000
0001
0100
,
0001
1000
0010
0100
0110
0100
1000
1010
,
0010
0000
0100
0000
0110
0000
0101
0000
1001
0000
0100
0000
0001
0000
0010
0001
,
0010
0000
0100
0000
1000
0000
0001
0000
0000
0000
0001
0000
0100
0000
1000
0100
,
1000
0000
0001
0000
0010
0000
1000
0000
0000
0000
0001
0000
0010
0000
1000
0010
,
1000
0001
0100
0010
0110
0010
0001
0101
,
0100
0000
0010
0000
0110
0000
1010
0000
0001
0100
0010
0100
0001
0010
0100
0010
,
0001
0100
0010
0100
0001
0010
0100
0010
0001
0100
0010
0100
0001
0010
0100
0010
,
0001
0100
0010
0100
0001
0010
0100
0010
0001
0100
0010
0100
0001
0010
0100
0010
,
0001
0100
0010
0100
0001
0010
0100
0010
1001
0000
0010
0000
0001
0000
1100
0000
,
0010
0000
0100
0000
1001
0000
0101
0000
1000
0010
0100
0010
1000
0100
0010
0100
,
1000
0010
0100
0010
1000
0100
0010
0100
1000
0010
0100
0010
1000
0100
0010
0100
,
1000
0010
0100
0010
1000
0100
0010
0100
1000
0010
0100
0010
1000
0100
0010
0100
,
1000
0010
0100
0010
1000
0100
0010
0100
1001
0000
0010
0000
1000
0000
0110
0000
,
0001
0100
1010
0000
0001
1000
0100
0010
,
1000
0010
0100
0001
1000
0010
0001
1000
,
0010
0100
0001
1001
0000
1001
0000
0000
,
0001
0010
0100
1000
0010
0100
0001
1000
0100
0010
0100
0010
,
0001
0000
1000
0000
0100
0000
0010
0000
0001
0000
1000
0000
1001
0000
0000
0100
0000
0000
1000
0000
0000
0010
0000
0000
,
0100
1000
0001
0010
1000
0100
0010
1000
,
0010
0100
1000
1001
0000
1001
0000
0000
,
0010
1000
0100
1000
0010
0100
0001
0010
0001
0100
0010
1000
,
0100
0000
0010
0000
0001
0000
1000
0000
0001
0000
1000
0000
0110
0000
0000
0100
0000
0000
1000
0000
0000
0001
0000
0000
,
0100
0010
1000
0100
1000
0010
0100
0001
,
0010
0100
0010
1001
0000
1001
0000
0000
,
0010
1000
0001
1000
0100
1000
0001
0010
0001
1000
0001
0100
,
0001
0000
1000
0000
0010
0000
0100
0000
0001
0000
1000
0000
1001
0000
0000
0100
0000
0000
0010
0000
0000
0001
0000
0000
,
0100
1000
0100
0001
0010
1000
0010
0001
,
1000
0010
0001
1001
0000
1001
0000
0000
,
1001
0010
1000
0001
0100
1000
0010
0001
1000
0100
0010
1000
,
0100
0000
0010
0000
1000
0000
0001
0000
0100
0000
0010
0000
1002
0000
0000
0100
0000
0000
2003
0000
0000
3001
0000
0000
,
0200
0310
2000
3200
1300
0020
0230
0301
,
0020
0230
0311
0011
0011
0100
2000
3001
,
0200
0310
2000
3200
0310
2000
3020
0130
,
2000
3020
1031
1001
1001
0010
0200
1300
,
0002
0013
2000
3200
0310
2000
3020
0130
,
2000
3200
1301
1001
1001
0010
0200
1300
,
0002
0000
0013
0000
2000
0000
3200
0000
0310
0001
0010
0001
1000
0100
1000
0100
,
0010
1000
0010
1000
0001
0100
0001
0100
1001
0000
1000
0000
0100
0000
0001
0100
,
0001
0000
1000
0000
0010
0000
0100
0000
0000
0000
0100
0000
1000
0000
0010
1000
,
0010
0000
0100
0000
0001
0000
0010
0000
0000
0000
0100
0000
0001
0000
0010
0001
,
0010
0100
1000
0001
1001
0001
0100
1100
,
1000
0000
0001
0000
1001
0000
0011
0000
0110
0000
0001
0000
0010
0000
1000
0010
,
1000
0000
0001
0000
0100
0000
0010
0000
0000
0000
0010
0000
0001
0000
0100
0001
,
0100
0000
0010
0000
1000
0000
0100
0000
0000
0000
0010
0000
1000
0000
0100
1000
,
0100
0010
0001
1000
1001
1000
0010
0011
,
0001
0000
1000
0000
1001
0000
1100
0000
0010
0001
1000
0001
0010
1000
0001
1000
,
0010
0001
1000
0001
0010
1000
0001
1000
0010
0001
1000
0001
0010
1000
0001
1000
,
0010
0001
1000
0001
0010
1000
0001
1000
0010
0001
1000
0001
0010
1000
0001
1000
,
0010
0001
1000
0001
0010
1000
0001
1000
0110
0000
1000
0000
0010
0000
0101
0000
,
1000
0000
0001
0000
0110
0000
0011
0000
0100
1000
0001
1000
0100
0001
1000
0001
,
0100
1000
0001
1000
0100
0001
1000
0001
0100
1000
0001
1000
0100
0001
1000
0001
,
0100
1000
0001
1000
0100
0001
1000
0001
0100
1000
0001
1000
0100
0001
1000
0001
,
0100
1000
0001
1000
0100
0001
1000
0001
0110
0000
1000
0000
0100
0000
1001
0000
,
0010
0001
1100
0000
1001
1000
0100
1010
,
0001
0010
0101
1000
0100
0110
0001
1000
,
1010
0010
1000
0101
0100
0001
1100
0010
,
1000
0011
0100
0001
1010
0001
1000
0101
,
0010
0001
1010
0100
0010
0101
1000
0100
,
0110
0010
0100
1010
0001
0010
0101
1000
,
0001
1010
0100
2001
0000
3000
0000
0000
,
0110
1010
0101
1002
0000
0000
0000
0000
0000
2003
0000
0000
,
0000
0000
3020
0000
,
0000
0000
0000
0000
,
0000
0000
0000
0030
;

//---------------dance-single - ----------------
#NOTES:
     dance-single:
     :
     Challenge:
     19:
     1.105733,1.080746,0.676927,0.231580,1.349401,869.000000,793.000000,76.000000,26.000000,0.000000,1.000000,1.105733,1.080746,0.676927,0.231580,1.349401,869.000000,793.000000,76.000000,26.000000,0.000000,1.000000:
// measure 0
0000
0000
0000
0000
0000
0000
0010
0100
2002
0000
0000
0000
0000
0000
0000
0000
,  // measure 1
0000
0000
0000
0000
,  // measure 2
0000
0000
0000
0000
,  // measure 3
0000
0000
0000
0000
0000
0000
3003
0000
0001
0100
0001
0100
0010
1000
0010
1000
,  // measure 4
0100
0010
0100
0010
0001
1000
0001
1000
1001
0000
0001
1000
0100
0001
0100
1000
,  // measure 5
0001
0010
0001
1000
0100
0001
0100
1000
0001
0010
0001
1000
0100
0001
0100
1000
,  // measure 6
0001
0010
0001
1000
0100
0001
0100
1000
0001
0010
0001
1000
0100
0001
0100
1000
,  // measure 7
0001
0010
0001
1000
0100
0001
0100
0010
1001
0000
0010
0000
0100
0000
1100
0000
,  // measure 8
1000
0000
0001
0000
1001
0000
0011
0000
0100
0000
1000
0001
0010
1000
0010
0001
,  // measure 9
1000
0100
1000
0001
0010
1000
0010
0001
1000
0100
1000
0001
0010
1000
0010
0001
,  // measure 10
1000
0100
1000
0001
0010
1000
0010
0001
1000
0100
1000
0001
0010
1000
0010
0001
,  // measure 11
1000
0100
1000
0001
0010
1000
0001
0100
1001
0000
0100
0000
0010
0000
0011
0000
,  // measure 12
0001
0000
1000
0000
1001
0000
1010
0000
0100
1000
0001
1000
0100
0001
1000
0001
,  // measure 13
0100
1000
0001
1000
0100
0001
1000
0001
0100
1000
0001
1000
0100
0001
1000
0001
,  // measure 14
0100
1000
0001
1000
0100
0001
1000
0001
0100
1000
0001
1000
0100
0001
1000
0001
,  // measure 15
0100
1000
0001
1000
0100
0001
1000
0001
0110
0000
0001
0000
0100
0000
1010
0000
,  // measure 16
0001
0000
1000
0000
0110
0000
1100
0000
0010
0001
1000
0001
0010
1000
0001
1000
,  // measure 17
0010
0001
1000
0001
0010
1000
0001
1000
0010
0001
1000
0001
0010
1000
0001
1000
,  // measure 18
0010
0001
1000
0001
0010
1000
0001
1000
0010
0001
1000
0001
0010
1000
0001
1000
,  // measure 19
0010
0001
1000
0001
0010
1000
0001
1000
0101
0000
0010
0000
1000
0000
0110
1000
,  // measure 20
0001
0000
0100
0000
1010
0000
0000
0000
0001
1000
0100
0000
0010
0000
0010
0000
,  // measure 21
0001
0000
0010
0000
0100
1000
0001
0000
0010
0000
0010
0000
0001
0000
1000
0000
,  // measure 22
0100
0010
0001
0000
1000
0000
1001
0000
0100
0000
1001
0000
0000
0000
0000
0000
,  // measure 23
0001
0010
0100
1000
0010
0100
0001
1000
0100
0010
0100
0010
,  // measure 24
0001
0000
0000
0000
1000
0000
0000
0000
0100
0000
0000
0000
0010
0000
0000
0000
0001
0000
0000
0000
1000
0000
0000
0000
1001
0000
0000
0010
0000
0000
0100
0000
0000
0000
0000
0000
0001
0000
0000
0000
0000
0000
0001
0000
0000
0000
0000
0000
,  // measure 25
0010
0000
0100
0000
1000
0100
0010
0000
0001
0000
0001
0000
1000
0000
0100
0000
,  // measure 26
0010
0001
1000
0000
0100
0000
1001
0000
0010
0000
1001
0000
0000
0000
0000
0000
,  // measure 27
0010
1000
0100
1000
0010
0100
0001
0010
0001
0100
0010
1000
,  // measure 28
0100
0000
0000
0000
0010
0000
0000
0000
0001
0000
0000
0000
1000
0000
0000
0000
0001
0000
0000
0000
1000
0000
0000
0000
0110
0000
0000
0001
0000
0000
1000
0000
0000
0000
0000
0000
0100
0000
0000
0000
0000
0000
0100
0000
0000
0000
0000
0000
,  // measure 29
0010
0000
0001
0000
1000
0100
0001
0000
1000
0000
1000
0000
0010
0000
0001
0000
,  // measure 30
1000
0010
0100
0000
0001
0000
1001
0000
0100
0000
1001
0000
0000
0000
0000
0000
,  // measure 31
0010
1000
0001
1000
0100
1000
0001
0010
0001
1000
0001
0100
,  // measure 32
0001
0000
0000
0000
1000
0000
0000
0000
0010
0000
0000
0000
0100
0000
0000
0000
0001
0000
0000
0000
1000
0000
0000
0000
0110
0000
0000
1000
0000
0000
0001
0000
0000
0000
0000
0000
0010
0000
0000
0000
0000
0000
0010
0000
0000
0000
0000
0000
,  // measure 33
0100
0000
1000
0000
0100
0010
0001
0000
0010
0000
0010
0000
0100
0000
1000
0000
,  // measure 34
0100
1000
0010
0000
0100
0000
1001
0000
0010
0000
1001
0000
0000
0000
0000
0000
,  // measure 35
1001
0010
1000
0001
0100
1000
0010
0001
1000
0100
0010
1000
,  // measure 36
0100
0000
0010
0000
1000
0000
0001
0000
0100
0000
0010
0000
1002
0000
0000
0100
0000
0000
2003
0000
0000
3001
0000
0000
,  // measure 37
0200
0310
2000
3200
1300
0020
0230
0301
,  // measure 38
0020
0230
0311
0011
0011
0100
2000
3001
,  // measure 39
0200
0000
0310
0000
2000
0000
3200
0000
0310
0001
0010
0001
0100
0010
0100
0010
,  // measure 40
1000
0100
1000
0100
1001
0000
1001
0000
1001
0000
0010
0000
0200
0000
1300
0000
,  // measure 41
0002
0000
0013
0000
2000
0000
3200
0000
0310
0001
0010
0001
0100
0010
0100
0010
,  // measure 42
1000
0100
1000
0100
1001
0000
1001
0000
1001
0000
0010
0000
0200
0000
1300
0000
,  // measure 43
0002
0000
0013
0000
2000
0000
3200
0000
0310
0001
0010
0001
1000
0100
1000
0100
,  // measure 44
0010
1000
0010
1000
0001
0100
0001
0100
1001
0000
1000
0001
0010
1000
0010
0001
,  // measure 45
1000
0100
1000
0001
0010
1000
0010
0001
1000
0100
1000
0001
0010
1000
0010
0001
,  // measure 46
1000
0100
1000
0001
0010
1000
0010
0001
1000
0100
1000
0001
0010
1000
0010
0001
,  // measure 47
1000
0100
1000
0001
0010
1000
0010
0100
1001
0000
1000
0000
0001
0000
0101
0000
,  // measure 48
0100
0000
0010
0000
0110
0000
1010
0000
0001
0000
0001
1000
0100
0001
0100
1000
,  // measure 49
0001
0010
0001
1000
0100
0001
0100
1000
0001
0010
0001
1000
0100
0001
0100
1000
,  // measure 50
0001
0010
0001
1000
0100
0001
0100
1000
0001
0010
0001
1000
0100
0001
0100
1000
,  // measure 51
0001
0010
0001
1000
0100
0001
1000
0010
1001
0000
0001
0000
1000
0000
1010
0000
,  // measure 52
0010
0000
0100
0000
1001
0000
1100
0000
0010
0001
1000
0001
0010
1000
0001
1000
,  // measure 53
0010
0001
1000
0001
0010
1000
0001
1000
0010
0001
1000
0001
0010
1000
0001
1000
,  // measure 54
0010
0001
1000
0001
0010
1000
0001
1000
0010
0001
1000
0001
0010
1000
0001
1000
,  // measure 55
0010
0001
1000
0001
0010
1000
0001
1000
0110
0000
1000
0000
0010
0000
0101
0000
,  // measure 56
1000
0000
0001
0000
0110
0000
0011
0000
0100
1000
0001
1000
0100
0001
1000
0001
,  // measure 57
0100
1000
0001
1000
0100
0001
1000
0001
0100
1000
0001
1000
0100
0001
1000
0001
,  // measure 58
0100
1000
0001
1000
0100
0001
1000
0001
0100
1000
0001
1000
0100
0001
1000
0001
,  // measure 59
0100
1000
0001
1000
0100
0001
1000
0001
0110
0000
1000
0000
0100
0000
1001
0000
,  // measure 60
0010
0001
1100
0000
1001
1000
0100
1010
,  // measure 61
0001
0010
0101
1000
0100
0110
0001
1000
,  // measure 62
1010
0010
1000
0101
0100
0001
1100
0010
,  // measure 63
1000
0011
0100
0001
1010
0001
1000
0101
,  // measure 64
0010
0000
0001
0000
1010
0000
0100
0000
0010
0000
0101
1000
0001
1000
0001
1000
,  // measure 65
0110
0010
0100
1010
0001
0010
0101
1000
,  // measure 66
0001
0100
1001
0100
0001
0100
2001
0000
0000
0000
3000
0000
0000
0000
0000
0000
,  // measure 67
0110
1010
0101
1002
0000
0000
0000
0000
0000
2003
0000
0000
,  // measure 68
0000
0000
0000
0000
0000
0000
0000
0000
0000
0000
0000
0000
3010
0100
0010
0100
0010
0100
0001
1000
0001
1000
0001
1000
,  // measure 69
0001
1000
0100
0010
0001
1000
0100
0010
0001
1000
0100
0010
,  // measure 70
0001
0000
0100
0000
0010
0000
0000
1000
0000
0000
0001
0000
0000
0000
0001
0000
,  // measure 71
0000
1000
0000
0001
0000
0000
0000
0000
;
