#TITLE:Quiero gritar que te amo;
#SUBTITLE:Slam Dunk Opening Latino;
#ARTIST:Adrian Barba;
#TITLETRANSLIT:;
#SUBTITLETRANSLIT:;
#ARTISTTRANSLIT:;
#CREDIT:Magna Trick;
#BANNER:QGQTABN.png;
#BACKGROUND:QGQTAB.png;
#LYRICSPATH:;
#CDTITLE:Magna Trick title!.png;
#MUSIC:Quiero gritar que te amo.mp3;
#OFFSET:0.040;
#SAMPLESTART:68.000;
#SAMPLELENGTH:11.000;
#SELECTABLE:YES;
#BPMS:0.000=142.930,132.000=71.465,140.500=142.930;
#STOPS:;
#BGCHANGES:0.063=Quiero gritar que te amo.avi=1.000=0=0=1,
235.500=QGQTAB.png=1.000=0=0=1,
99999=-nosongbg-=1.000=0=0=0 // don't automatically add -songbackground-
;

//---------------dance-single - ----------------
#NOTES:
     dance-single:
     :
     Challenge:
     16:
     0.675,0.871,1.000,0.069,0.553:
0000
0000
0000
0000
,
0000
0000
0000
0000
,
0000
0000
0000
0000
,
0000
0000
0000
0000
,
0000
0000
0000
0000
,
0000
0000
0000
0000
,
0000
0000
0000
0000
,
0000
0000
0000
0000
0000
0000
0000
1000
0002
0000
0000
0000
0000
0000
0000
0000
0000
0000
0000
0000
0000
0000
0000
0000
2003
0000
0000
0000
0000
0000
0000
0000
0000
0000
0000
0000
0000
0000
0000
0000
0000
0000
0000
0000
0000
0000
0000
0000
3002
0000
0000
0000
0000
0000
0000
0000
0000
0000
0000
0000
0000
0000
0000
0000
,
0003
0210
0000
0320
0000
0000
0032
0000
,
0003
0000
0000
0000
0000
0000
0000
0000
0000
0000
0000
0000
0000
0000
0000
0000
0000
0000
0000
0000
0000
0000
0001
0000
1000
0000
0000
0000
0000
0000
0000
0000
0000
0000
0000
0000
0000
0000
0000
0000
0000
0000
0000
0000
0000
0000
0000
0000
0100
0000
0000
0000
0000
0000
0000
0000
0000
0000
0000
0000
0000
0000
0000
0000
0000
0000
0000
0000
0000
0000
0000
0000
0001
0000
0000
0000
0000
0000
0000
0000
0000
0000
0000
0000
0000
0000
0000
0000
0000
0000
0000
0000
0000
0000
0000
0000
0100
0000
0000
0000
0000
0000
0000
0000
0000
0000
0000
0000
0000
0000
0000
0000
0000
0000
0000
0000
0000
0000
0000
0000
0000
0000
0000
0000
0000
0000
0000
0000
0000
0000
0000
0000
0000
0000
0000
0000
0000
0000
0000
0000
0000
0000
0000
0000
0001
0000
0000
0000
0000
0000
0000
0000
0000
0000
0000
0000
0000
0000
0000
0000
0000
0000
0000
0000
0000
0000
0000
0000
0100
0000
0000
0000
0000
0000
0000
0000
0000
0000
0000
0000
0000
0000
0000
0000
0000
0000
0000
0000
0000
0000
0000
0000
,
1000
0000
1001
0000
0000
0000
1001
0000
1100
0000
1001
0000
0101
0000
0000
0001
,
0100
1000
0110
0000
0000
0000
1001
0000
1010
0000
1001
0000
1010
0000
0000
0000
,
0000
1001
0110
1001
0110
1001
0000
0000
,
0001
0001
1000
0000
0000
0000
0110
0000
1010
0000
0110
0000
0011
0000
0000
0000
,
0010
0000
0100
1000
0100
0001
0100
0000
1001
0000
0000
0000
0000
0000
0011
0000
,
0000
1100
0000
0110
0010
1010
1000
1000
,
0001
0010
0010
1100
1100
0101
0101
0110
,
0100
1001
0020
2030
3001
0101
0010
0100
,
0010
1001
0100
1000
0100
0011
1000
0010
,
1000
0000
0101
0000
0010
0100
0010
0000
0100
0000
1001
0000
0100
0000
1000
0000
,
0100
0011
0100
0001
0100
1001
0010
1000
,
0010
0000
0101
0000
0001
1000
0001
0000
0100
0000
1010
0000
0001
0000
0100
0000
,
0001
0000
0110
0000
0001
1000
0001
0000
0010
0000
1100
0000
0001
0000
1000
0000
,
0001
0000
0110
0000
1000
0100
1000
0000
0100
0000
0011
0000
1000
0001
1000
0000
,
0001
0000
0110
0000
0001
0010
0001
0000
0100
0000
1010
0000
0001
1000
0001
0000
,
1100
1100
0101
0101
0000
1010
0100
0010
,
0100
1001
0010
0001
0010
1100
0001
0100
,
0001
0000
1010
0000
0100
0010
0100
0000
0010
0000
1001
0000
0010
0000
0001
0000
,
0010
1100
0010
1000
0010
1001
0100
0001
,
0100
0000
1010
0000
1000
0001
1000
0000
0010
0000
0101
0000
1000
0000
0010
0000
,
1000
0000
0110
0000
1000
0001
1000
0000
0100
0000
0011
0000
1000
0000
0001
0000
,
1000
0000
0110
0000
0001
0010
0001
0000
0010
0000
1100
0000
1000
0000
1000
0000
,
0001
0001
0002
2003
0000
0010
3000
0001
,
0101
0101
1000
0101
1010
1001
0000
0000
0001
1000
1001
1100
1001
0101
0000
0001
,
0100
0100
0010
0000
1000
0000
1100
0000
0101
0000
1001
0000
0000
0000
0000
0000
0001
0000
1000
0001
1000
0001
1000
0000
1001
0000
0000
0000
0000
0000
1001
0000
,
0000
0110
0000
0000
1001
0000
0010
0000
0100
0000
0001
0000
0100
0000
0010
0000
,
0100
0000
0001
0100
0010
0000
1000
0000
0100
0000
0010
0000
0100
0000
1000
0000
,
0100
0000
0010
0001
1000
0000
0010
0000
0100
0000
0001
0000
1000
0000
0010
0000
,
0100
0000
0000
0000
0000
0000
0001
0000
0000
0000
0000
0000
1000
0000
0000
0000
0000
0000
0001
0000
0010
0000
0100
0000
1000
0000
0000
0000
0000
0000
0000
0000
0000
0000
0000
0000
0001
0000
0000
0000
0000
0000
1000
0000
0000
0100
0000
0000
,
0010
0001
1001
1000
0001
1001
0010
1000
,
1001
0001
1001
0100
1000
1001
0100
0010
,
0011
0010
0110
0100
1100
1000
1010
0010
,
0110
0100
0101
0001
0010
0100
2000
3002
,
0203
0310
0110
0010
1010
1000
1001
0001
,
0011
0011
0010
0110
1000
0100
0100
1000
,
1000
1000
1010
0010
0110
0110
0010
0011
,
1010
0000
1001
0000
1000
0000
0001
1000
0001
1000
0001
1000
0001
0000
0010
0000
,
1001
0010
0011
0001
1000
1001
0001
0100
,
0110
0010
1010
1000
0001
1001
0001
0010
,
0110
0100
1100
1000
1010
0010
0110
0010
,
1010
0011
1002
1000
1000
1000
1003
0010
,
1000
0001
1001
0001
1001
1001
0001
1000
,
0010
0100
0110
0010
0110
0110
0010
1000
,
0001
1000
0110
0101
0110
1001
0010
1100
,
0110
0100
1100
0001
1000
0010
0100
0001
,
1000
0010
0100
0001
1000
0000
1010
0000
1010
0000
1010
0000
1100
0000
1100
0000
,
1100
0110
0110
0011
0110
1001
1100
0110
,
1001
0110
1001
1001
1001
0110
0110
0110
,
1010
1010
0101
0101
1001
0220
0330
0000
;

//---------------dance-single - ----------------
#NOTES:
     dance-single:
     :
     Hard:
     13:
     0.616,0.875,0.378,0.163,0.417: // measure 1
0000
0000
0000
0000
,  // measure 2
0000
0000
0000
0000
,  // measure 3
0000
0000
0000
0000
,  // measure 4
0000
0000
0000
0000
,  // measure 5
0000
0000
0000
0000
,  // measure 6
0000
0000
0000
0000
,  // measure 7
0000
0000
0000
0000
,  // measure 8
0000
2001
0000
3002
0000
0000
2003
0000
,  // measure 9
3000
0120
0000
0230
0000
0000
2300
0000
,  // measure 10
3000
1001
0010
1000
0010
0000
1000
0010
,  // measure 11
0001
1001
0000
1000
0100
0010
0001
0000
,  // measure 12
0001
0100
0001
0000
0000
0000
0100
0000
0100
0000
0100
0000
0100
0000
0000
0000
,  // measure 13
0000
0010
0010
0010
0010
0010
0000
0000
,  // measure 14
1000
0010
1000
0000
0000
0000
0001
0000
0001
0000
0001
0000
0001
0000
0000
0000
,  // measure 15
0010
0000
0001
0010
0100
1000
0001
0000
0110
0000
0000
0000
0000
0000
0110
0000
,  // measure 16
0000
0110
0000
1001
0001
0001
0010
0100
,  // measure 17
0100
1000
0010
0010
1000
0001
0001
0100
,  // measure 18
0100
0100
0001
1001
0000
0000
0001
0001
,  // measure 19
0100
0010
0100
0002
1003
0100
0100
0010
,  // measure 20
0001
0000
0001
0000
1000
0100
1000
0000
0000
0000
0000
0000
0010
0000
0010
0000
,  // measure 21
1000
0100
0100
0010
0001
0100
0100
0001
,  // measure 22
1000
0000
1000
0000
0001
0010
0001
0000
0000
0000
0000
0000
0010
0000
0010
0000
,  // measure 23
0010
0000
0001
0000
0010
0100
0010
0000
0000
0000
0000
0000
0000
0000
0010
0000
,  // measure 24
0010
0000
1000
0000
0010
0100
0001
0000
0100
0000
0010
0000
0100
0000
1001
0000
,  // measure 25
0100
0010
0001
1001
1000
0100
0010
0010
,  // measure 26
0001
0001
0010
0110
0000
1001
0010
0010
,  // measure 27
0010
1000
1000
0001
0100
0010
0010
1000
,  // measure 28
0100
0000
0100
0000
0010
0001
0010
0000
0000
0000
0000
0000
0001
0000
0001
0000
,  // measure 29
1000
0001
0100
0010
0010
1000
1000
0100
,  // measure 30
0010
0000
0010
0000
0001
1000
0001
0000
0000
0000
0000
0000
1000
0000
1000
0000
,  // measure 31
0010
0100
0010
1000
1000
0100
0001
0001
,  // measure 32
0100
0010
0010
0010
0010
0001
1000
0001
,  // measure 33
0100
0100
0001
2000
0000
0010
0000
3001
,  // measure 34
0001
0100
0010
1010
0101
1001
0000
0000
1000
0001
1001
0011
1001
1010
0000
1000
,  // measure 35
0010
0010
0100
0000
0001
0000
0011
0000
1010
0000
1001
0000
0000
0000
0000
0000
1000
0000
0010
0100
0001
0010
0100
0000
1001
0000
0000
0000
0000
0000
1001
0000
,  // measure 36
0000
0110
0000
0000
1001
0000
0100
0000
0010
0000
1000
0000
0010
0000
0100
0000
,  // measure 37
0010
0000
1000
0010
0100
0000
0001
0000
0010
0000
0100
0000
0010
0000
0001
0000
,  // measure 38
0010
0000
0100
1000
0001
0000
0100
0000
0010
0000
1000
0000
0001
0000
0100
0000
,  // measure 39
0010
0000
0000
0000
0000
0000
1000
0000
0000
0000
0000
0000
0001
0000
0000
0000
0000
0000
1000
0000
0001
0000
1000
0000
0001
0000
0000
0000
0000
0000
0000
0000
0000
0000
0000
0000
1000
0000
0000
0000
0000
0000
0001
0000
0000
0010
0000
0000
,  // measure 40
0100
1000
1001
0001
1000
1001
0100
0001
,  // measure 41
1001
1000
1001
0010
0001
1001
0010
0100
,  // measure 42
2000
3010
0200
0301
0020
0130
2000
3001
,  // measure 43
0200
0310
2000
3100
0010
0001
0002
2003
,  // measure 44
3020
0130
0002
0103
0020
1030
0200
0310
,  // measure 45
0002
0013
0200
1300
0002
0013
0010
0001
,  // measure 46
0001
0002
2003
3100
0020
0032
0103
0020
,  // measure 47
0230
0000
0302
0000
1003
0000
1000
0001
1000
0001
1000
0001
1000
0000
0100
0000
,  // measure 48
1001
0010
1001
1000
0001
1001
1000
0010
,  // measure 49
0110
0100
0101
0001
1000
1001
1000
0100
,  // measure 50
0020
0032
2003
3020
0230
0302
0023
0230
,  // measure 51
2300
3020
2031
0000
0001
0000
0000
3000
,  // measure 52
0001
1000
1001
0000
0001
1001
0000
1000
,  // measure 53
1010
0010
0200
0000
0301
2000
0000
3000
,  // measure 54
0001
1000
0100
0100
0010
0010
0000
0001
,  // measure 55
0001
0022
0000
0033
,  // measure 56
0001
1000
0001
1000
0001
0000
0010
0000
1000
0000
0001
0000
0100
0000
1000
0000
,  // measure 57
0010
0001
1000
0100
0010
0010
1000
1000
,  // measure 58
0100
0100
0001
0001
0001
0100
0100
0100
,  // measure 59
0010
0010
1000
1000
1000
2002
0000
0000
,  // measure 60
3003
0000
0000
0000
;

//---------------dance-single - ----------------
#NOTES:
     dance-single:
     :
     Medium:
     10:
     0.419,0.875,0.086,0.365,0.202:
0000
0000
0000
0000
,
0000
0000
0000
0000
,
0000
0000
0000
0000
,
0000
0000
0000
0000
,
0000
0000
0000
0000
,
0000
0000
0000
0000
,
0000
0000
0000
0000
,
0000
2000
0000
3002
0000
0000
2003
0000
,
3000
0020
0000
0230
0000
0000
0302
0000
,
0003
1000
0001
0100
0010
0000
0010
0100
,
0010
0000
0000
0010
1000
0010
1000
0000
,
0001
0010
0000
0001
1000
0001
1000
0000
,
0000
1000
0001
1000
0001
1000
0000
0000
,
0001
1000
0000
0001
0100
0001
0100
0000
,
1000
0100
1000
0000
1001
0000
0000
0011
,
0000
1100
0000
0001
1000
0010
0100
0001
,
1000
0100
0010
0001
0010
0100
1000
0001
,
0100
0010
1000
1001
0000
0000
0001
1000
,
0002
0000
0000
1003
0000
0010
0100
0000
,
0001
0010
0200
0000
0300
0000
1000
0001
,
0100
0010
2000
0000
3000
0010
0100
0000
,
0001
0100
0020
0000
0030
0000
1000
0010
,
0100
0001
0020
0000
0000
0030
0000
0100
,
1000
0001
0100
0020
0000
0000
0030
2000
,
0000
0000
3000
0001
0000
0010
0200
0000
,
0000
0000
0300
0000
0000
0000
1000
0001
,
1000
0001
2000
0000
0000
3001
0020
0000
,
0031
1000
0020
0000
0000
0030
0100
0001
,
0020
0000
0000
0130
0000
1000
0001
0000
,
0100
0020
0000
0030
0000
0000
1000
0001
,
0000
0100
0000
0020
0000
0000
2030
0000
,
3000
0001
0010
0200
0000
0300
1000
0000
,
0001
0000
0100
0110
0000
1000
0000
0001
,
0001
0100
0010
1000
1000
1000
0000
0000
1000
0001
0010
0010
0010
0010
0000
1000
,
0010
0100
0010
0000
0100
0000
0100
0000
0100
0000
0100
0000
0000
0000
0000
0000
1000
0000
0001
1000
0001
1000
0001
0000
1000
0000
0000
0000
0000
0000
1100
0000
,
0000
0011
0000
0000
1001
0000
0000
0000
0001
0000
0000
0000
0100
0000
0010
0000
,
1000
0000
0000
0200
0000
0000
0000
0000
0000
0000
0000
0000
0000
0000
0000
0300
0000
0000
0010
0000
0000
0000
0001
0000
,
0000
0100
0000
0020
0000
0000
0000
0000
0000
0000
0000
0000
,
0000
0000
2030
0000
3000
0001
0001
0010
,
0100
0010
0020
0000
0000
0230
0000
0300
,
0100
0010
0200
0000
0000
0320
0000
0030
,
0010
0001
0020
0000
0230
0000
2300
0000
,
3020
0000
0230
0000
0300
0000
0100
0010
,
0100
0010
2000
0000
3200
0000
0320
0000
,
0130
0020
0000
0032
0000
0000
0000
0000
,
0000
0103
0020
0000
1030
0200
0000
0310
,
0002
2003
0000
0000
3000
1000
0001
1000
,
0001
0010
0200
0000
0000
2300
0000
0000
,
3001
0100
0002
0000
0000
2003
0000
0000
,
3001
0100
0010
0100
0001
0100
0200
0000
,
0310
2000
0000
0000
0000
0000
0000
3000
,
0100
0010
0200
0000
1300
0020
0000
0000
,
0030
0100
0001
0000
0001
0200
0000
0000
,
0300
0010
1000
0100
1000
0100
1000
0100
,
1000
0022
0000
0000
,
0000
0033
1000
0001
0001
0001
1000
1000
,
1000
0010
0010
0100
0010
0010
1000
1000
,
0100
0100
0010
0010
0010
0001
0001
0001
,
1000
1000
0010
0010
0010
2002
0000
0000
,
3003
0000
0000
0000
;

//---------------dance-single - ----------------
#NOTES:
     dance-single:
     :
     Easy:
     6:
     0.253,0.547,0.413,0.071,0.085:
0000
0000
0000
0000
,
0000
0000
0000
0000
,
0000
0000
0000
0000
,
0000
0000
0000
0000
,
0000
0000
0000
0000
,
0000
0000
0000
0000
,
0000
0000
0000
0000
,
0000
1000
0000
0001
0000
0000
1000
0000
,
0000
0001
0000
1000
0000
0000
0001
0000
,
0000
1000
0001
1000
0001
0000
0001
1000
,
0001
0000
0000
1000
1000
1000
1000
0000
,
0000
0001
0000
1000
1000
1000
1000
0000
,
0000
0000
0001
0001
0001
0001
0000
0000
,
0000
0000
0000
0010
0010
0010
0010
0000
,
0100
0100
0100
0000
0100
0000
0000
0100
,
0000
0100
0000
0110
0000
0000
0000
0000
,
0000
0000
0000
0000
,
0000
0000
0000
0000
0000
0001
0000
0000
,
0000
1010
0000
0000
0000
0101
0000
0000
,
0000
1001
0000
0000
0000
0011
0000
0000
,
0000
1010
0000
0000
0000
0110
0000
0000
,
0000
1100
0000
0000
0000
0101
0000
0000
,
0000
0011
0000
0000
0000
1010
0000
0000
,
0000
0110
0000
0000
0000
1100
0000
0000
,
0000
0101
0000
0000
0000
0011
0000
0000
,
0000
1010
0000
0000
0000
1001
0000
0000
,
0000
0101
0000
0000
0000
1100
0000
0000
,
0000
1001
0000
0000
0000
0011
0000
0000
,
0000
1010
0000
0000
0000
0110
0000
0000
,
0000
0101
0000
0000
0000
1100
0000
0000
,
0000
0011
0000
0000
0000
1010
0000
0000
,
0000
1001
0000
0000
0000
0110
0000
0000
,
0000
1001
0000
1001
0000
0000
0000
0001
,
0001
1000
0001
0000
1000
0001
0000
0000
1000
0001
1000
0000
0000
0000
0000
1000
,
0001
1000
0001
0000
0010
0100
0000
0000
1000
0001
0010
0000
1001
0000
0000
1100
,
0000
0011
0000
0000
1001
0000
0000
0000
0001
0000
0000
0000
0100
0000
0010
0000
,
1000
0000
0000
0200
0000
0000
0000
0000
0000
0000
0000
0000
0000
0000
0000
0300
0000
0000
0010
0000
0000
0000
0001
0000
,
0000
0100
0000
0020
0000
0000
0000
0000
0000
0000
0000
0000
,
0000
2030
3000
0000
,
0101
0000
1010
0000
,
0101
0000
0011
0000
,
1100
0000
0110
0000
,
1010
0000
0000
0000
0101
0000
0001
1000
,
0001
1000
1000
0001
,
0001
0000
0100
0010
0100
0000
0000
0000
,
0000
0010
0010
1000
,
1000
0000
0001
0010
0001
0000
1000
0000
,
1000
0000
0100
1000
0100
1000
0100
0000
,
1000
0000
0001
0100
0001
0100
0001
0000
,
1000
1000
0001
0001
,
0010
0200
0000
0300
,
1000
0000
0001
0000
0000
0100
0000
0000
,
0000
0000
0010
0000
0000
1000
0000
0000
,
0000
0001
0100
0001
,
1000
0200
0000
0000
,
0000
0300
0000
0000
,
0000
0000
0000
0000
,
0000
0000
1010
0000
0000
0011
0000
0000
,
1100
0000
0101
0000
0000
2002
0000
0000
,
3003
0000
0000
0000
;
