#TITLE:Q;
#SUBTITLE:Digimon Adventure 2020 Ending 2;
#ARTIST:Reol;
#TITLETRANSLIT:;
#SUBTITLETRANSLIT:;
#ARTISTTRANSLIT:;
#GENRE:;
#CREDIT:;
#BANNER:QBN.jpg;
#BACKGROUND:QBG.jpg;
#LYRICSPATH:;
#CDTITLE:cdtitle_ukiarrow.png;
#MUSIC:Q.mp3;
#OFFSET:0.402351;
#SAMPLESTART:22.180000;
#SAMPLELENGTH:12.000000;
#SELECTABLE:YES;
#BPMS:0.000000=180.000000
;
#STOPS:
;
#BGCHANGES:0.000=Q.avi=1.000=0=0=1=====,
180.000=Q-bg.jpg=1.000=0=0=1=====,
99999=-nosongbg-=1.000=0=0=0 // don't automatically add -songbackground-
;
#KEYSOUNDS:;
#ATTACKS:;

//---------------dance-single - ----------------
#NOTES:
     dance-single:
     :
     Hard:
     12:
     0.704116,0.749313,0.183165,0.233120,0.016651,296.000000,285.000000,11.000000,14.000000,0.000000,1.000000,0.704116,0.749313,0.183165,0.233120,0.016651,296.000000,285.000000,11.000000,14.000000,0.000000,1.000000:
0000
0000
0000
0000
,
1000
0000
0100
0010
0001
0010
0000
0001
,
1000
0001
0000
0100
0000
0010
1000
0001
,
1000
0000
0100
0010
0000
0010
0000
0001
,
1000
0100
0000
0010
0000
0001
1000
0001
,
0100
0000
0001
0100
0010
0100
0000
0010
,
1000
0001
0000
1000
0000
0001
0100
0010
,
1000
0000
0001
1000
0100
0010
0001
1000
,
0002
0100
0000
0100
0000
2000
3003
0000
,
0001
0010
0100
1000
0000
0001
0100
0000
,
0010
1000
0100
0010
0001
0010
0100
0000
,
1000
0001
0100
0010
0000
0010
0100
0000
,
0001
0010
0100
1000
0100
0010
0001
1000
,
0000
0010
0100
0001
0000
1000
0100
0000
,
0010
0001
0100
1000
0100
0001
0010
0001
,
1000
0000
0001
0100
0010
1000
0001
0000
,
1000
0100
0000
0010
0001
1000
0001
0000
,
0100
0010
1000
0001
0000
0001
0010
0000
,
0100
1000
0010
0001
0010
1000
0100
0000
,
0010
0001
1000
0100
0000
0100
0010
0000
,
0100
1000
0001
0100
0010
1000
0001
0000
,
1000
0010
0100
0001
0000
1000
0100
0000
,
0010
1000
0010
0001
1000
0010
0100
0010
,
0000
1000
0100
0010
0001
1000
0001
1001
,
0000
0100
0010
0010
0010
0010
1000
0000
,
1100
0010
0001
0100
0010
0100
0001
0001
,
0010
0100
1000
1000
0000
0100
0010
0010
,
0002
0000
0103
0010
0100
0001
1000
0010
,
0001
0010
1000
0100
0000
0010
0001
0000
,
1000
0100
0010
0001
1000
0010
0100
0001
,
1000
0100
0010
0100
0000
0010
0100
0010
,
0001
1000
0020
0000
0030
0100
0001
1000
,
0100
0010
0200
0000
1300
0001
1001
0000
,
0001
0100
0010
0100
0010
1000
0010
0100
,
0001
0010
0100
1000
0000
0100
1000
0100
,
0010
0100
0010
0000
0001
0100
0010
0100
,
0001
0010
0100
1000
0000
0010
0100
0000
,
0001
0010
0100
1000
0001
0100
0010
1000
,
0001
0100
0010
0100
0000
0010
0100
0010
,
1000
0100
1001
0000
0100
0100
0010
0010
,
2000
0010
3002
0000
,
2003
3100
1002
0103
,
1001
1001
0020
0000
1030
0010
0110
0000
,
2001
0100
0100
0100
3002
0000
0103
0010
,
1000
0100
1000
0000
0001
1000
0001
0000
0201
0000
0000
0000
1320
0000
1000
0000
,
0030
0000
0000
0000
;

//---------------dance-single - ----------------
#NOTES:
     dance-single:
     :
     Medium:
     10:
     0.563769,0.524519,0.000000,0.349679,0.000000,237.000000,237.000000,0.000000,21.000000,0.000000,0.000000,0.563769,0.524519,0.000000,0.349679,0.000000,237.000000,237.000000,0.000000,21.000000,0.000000,0.000000:
0000
0000
0000
0000
,
1000
0000
0001
0100
0020
0000
0030
0000
,
1000
0001
0000
0100
0000
0010
1000
0000
,
0001
0000
0100
0010
2000
0000
3000
1000
,
0100
0010
0000
0020
0000
0000
0000
0030
,
0001
0000
0100
0010
2000
0000
3000
0010
,
1000
0001
0000
1000
0000
0001
0000
0000
,
1000
0000
0001
0100
0010
0000
0010
1000
,
0002
0100
2000
3003
,
0001
0000
0100
0010
0000
1000
0100
0000
,
0010
0001
0010
0100
0000
1000
0001
0000
,
1000
0000
0001
0100
0000
0100
0010
0000
,
1000
0010
0100
0001
0000
0001
0100
0000
,
0010
0000
1000
0100
0000
0010
0001
0000
,
0001
0100
0010
0100
0000
0001
0010
0000
,
0100
0000
1000
0001
0100
0010
1000
0000
,
0001
0010
0100
1000
0000
0001
1000
0000
,
0001
0000
0010
0100
0000
0100
0001
0000
,
0100
0001
0100
0000
0100
1000
0100
0000
,
1000
0000
0010
0100
0000
0100
1000
0000
,
0100
1000
0100
0010
0100
0001
0100
0000
,
0001
0000
1000
0010
0000
0100
0001
0000
,
0010
0001
0010
0100
1000
0001
1000
0000
,
0001
0000
0100
0010
0000
1000
0001
0100
,
0000
0020
0000
0000
0000
0000
0030
0000
,
0100
0010
1000
0000
0100
0010
0001
0000
,
1000
0100
0010
0001
0000
0100
0010
0000
,
1000
0010
0100
0000
0001
0010
0100
0000
,
1000
0100
0010
0001
0000
1000
0001
0000
,
0001
0100
0001
1000
0001
0000
0010
0000
,
0100
1000
0001
0010
0000
0100
1000
0000
,
0001
1000
0002
0000
0103
0000
0010
1000
,
0010
0100
0001
1000
,
0001
0100
0010
0000
0010
1000
0010
0000
,
0010
0100
0001
0010
0000
0010
0100
0000
,
0100
1000
0001
0000
0001
0100
0010
0000
,
0010
1000
0001
0100
0000
0100
0001
0000
,
1000
0100
0010
0001
1000
0000
0001
0010
,
0100
1000
0001
1000
0000
0001
1000
0000
,
0010
1000
0100
0000
0010
0001
0100
0000
,
0020
2030
3002
0000
,
2003
3200
0302
0203
,
1300
0100
0001
0100
2000
0000
3002
0000
,
1003
0100
0100
0100
0002
0000
0203
0000
,
1300
0100
0001
0100
2000
0000
3010
0020
,
0030
0000
0000
0000
;

//---------------dance-single - ----------------
#NOTES:
     dance-single:
     :
     Challenge:
     15:
     0.946751,0.896678,0.299725,0.299725,0.549496,398.000000,380.000000,18.000000,18.000000,0.000000,1.000000,0.946751,0.896678,0.299725,0.299725,0.549496,398.000000,380.000000,18.000000,18.000000,0.000000,1.000000:
0000
0000
0000
0000
,
0001
0010
0100
1000
0001
1000
0000
0001
,
1000
0001
0100
0010
0000
0010
1000
1000
,
0001
0000
0100
0010
1000
0010
0000
0010
,
0100
0000
0100
0000
0000
0000
0010
0000
1000
0100
1000
0001
1000
0100
0010
0001
,
1000
0000
0001
0100
0010
0100
0000
0010
,
1000
1000
0000
0001
0000
1000
0100
0010
,
0002
0023
0230
2300
3100
0010
0011
1100
,
2000
0001
0000
0001
0000
3001
1000
1000
,
0001
0000
0010
0100
0010
0000
0100
0000
1000
0000
0001
0000
0100
0000
0000
0000
,
0010
0000
1000
0100
1000
0000
0100
0000
0010
0000
0001
0010
0001
0000
0010
0000
,
0100
0000
1000
0001
1000
0000
0010
0000
0100
0000
0001
0000
1000
0000
0000
0000
,
1000
0000
0100
0010
0100
0000
1000
0000
0100
0000
0010
0001
0010
0001
1000
0010
,
0100
0000
0010
0100
0001
0000
0100
0000
0000
0000
0010
0000
1000
0000
0010
0000
,
0100
0000
0001
0100
0001
0000
0100
0000
1000
0000
0100
0010
0100
0000
0001
0000
,
0010
0000
0100
0010
0100
0000
0010
0001
1000
0000
0001
0000
0200
0000
0000
0000
,
0310
1000
0001
0000
0010
0100
1000
0000
0001
0000
0100
0000
0010
0000
0000
0000
,
0100
0000
0010
0100
0010
0000
1000
0000
0001
0000
0010
0100
1000
0000
0000
0000
,
0100
1000
0001
0000
0100
0001
1000
0000
0010
1000
0001
0000
0010
0001
1000
0000
,
0010
0000
0100
0001
0100
0000
0010
0000
1000
0000
0100
1000
0100
0000
0000
0000
,
0010
0001
1000
0000
0010
1000
0001
0000
0100
0001
1000
0100
1000
0010
1000
0001
,
1000
0010
0100
0002
1000
1000
0203
0000
,
0310
0000
1000
0010
0100
0000
0001
0000
1000
0000
0010
0100
0010
0000
2000
0000
,
0000
0000
3100
0010
0100
0000
0010
0000
0001
0000
1000
0001
0100
0000
1001
0000
,
0000
0000
0110
0000
0010
0000
0010
0000
0010
0000
0010
1000
0100
0000
0000
0000
,
1001
0010
0011
0000
1100
0010
1010
0100
,
0001
0001
0010
0110
0000
0100
0110
0010
,
0012
0000
0103
0010
0100
0001
1000
0010
,
0001
0000
0010
0000
1000
0000
0100
0000
0010
0000
0001
0000
1000
0100
1000
0100
,
0010
0100
0010
0001
1000
0010
0100
0001
,
1000
0000
0100
0000
0010
0000
0100
0010
0100
0000
0010
0000
0100
0000
0010
0000
,
0001
1000
0100
0000
0020
0000
0000
0000
0130
0000
0010
0100
1000
0000
1000
0000
,
0100
0000
0010
0000
0100
0001
0100
0010
0100
0000
1000
0000
1001
0000
0000
0000
,
0001
0000
0100
0000
0010
0000
0100
0000
0010
0000
1000
0000
0010
0000
0100
0001
,
0010
0000
0100
0000
1000
0001
1000
0100
1000
0000
0100
0000
1000
0000
0100
0000
,
0010
0100
0010
0000
0001
0000
0100
0000
0010
0000
0100
0000
0001
0000
0100
0000
,
0001
0000
0010
0000
0100
1000
0100
1000
0001
0000
0100
0000
0010
1000
0010
1000
,
0001
0000
0010
0000
0100
0000
1000
0000
0001
0000
0100
0000
0010
0000
1000
0001
,
0100
0000
0010
0000
0100
0001
0100
0001
0100
0000
0010
0000
0100
0000
0010
0000
,
1000
0100
0010
0000
0001
0000
0100
0000
0010
0000
1000
0000
0100
0010
0001
0010
,
2000
3020
0032
0000
,
2003
3100
0102
0103
,
1100
1100
1020
0000
1130
0010
0001
0000
,
2001
0000
0010
0000
0010
0000
0010
0000
3001
0100
0001
0100
0010
0000
0010
0000
,
1000
0100
1000
0010
0100
0001
1000
0100
0010
0000
0100
1000
0001
0000
0001
0000
;

//---------------dance-single - ----------------
#NOTES:
     dance-single:
     :
     Easy:
     8:
     0.504300,0.523062,0.166514,0.499542,0.000000,212.000000,202.000000,10.000000,30.000000,0.000000,0.000000,0.504300,0.523062,0.166514,0.499542,0.000000,212.000000,202.000000,10.000000,30.000000,0.000000,0.000000:
0000
0000
0000
0000
,
1000
0000
2002
3003
,
0001
0001
0000
0000
0200
0000
0300
0000
,
0010
0000
0220
0330
,
1000
1000
0000
0000
0002
0000
0000
0000
,
0103
0000
2020
3030
,
1000
1000
0000
0000
0002
0000
0003
0000
,
1000
0100
0010
0001
,
2002
0000
0000
3003
,
0001
0000
0100
0001
0000
0100
0000
0000
,
0010
0100
0000
0010
0000
0100
0000
0000
,
0010
0000
1000
0010
0000
1000
0000
0000
,
0001
0100
0000
0001
0000
0100
0001
0000
,
1000
0000
0001
1000
0000
0001
0000
0000
,
1000
0100
0000
1000
0000
0100
1000
0000
,
0001
0000
0100
0010
0000
0100
0010
0000
,
1000
0010
0100
0010
0000
0100
0001
0000
,
1000
0000
0100
0010
0000
0010
0001
0000
,
0010
0001
0010
0000
0100
1000
0100
0000
,
1000
0000
0100
0010
0000
0010
0001
0000
,
1000
0100
1000
0000
0001
0010
0001
0000
,
1000
0000
0010
1000
0000
1000
0010
0000
,
0100
0001
0100
0000
0010
1000
0010
0000
,
0100
0000
0001
0100
0000
0010
1000
0010
,
0000
2000
0000
0000
0000
0000
3000
0000
,
0100
0000
0010
0000
0001
0010
0001
0000
,
1000
0100
0010
0001
0000
0010
0001
0000
,
1000
0000
0010
0000
0100
0001
0100
0000
,
0001
0100
0010
1000
0000
0010
1000
0000
,
0001
0100
0001
0000
1000
0010
1000
0000
,
0001
0010
0100
1000
0000
0100
1000
0000
,
0011
2002
3003
1100
,
1001
0011
2002
3003
,
0001
0000
0100
0000
0010
1000
0010
0000
,
1000
0010
0100
0001
0000
0100
0001
0000
,
1000
0010
1000
0000
0100
1000
0100
0000
,
1000
0100
0010
0001
0000
0010
0001
0000
,
1000
0001
1000
0000
0001
1000
0001
0000
,
1000
0010
0100
0001
0000
0100
0001
0000
,
0010
0100
0020
0000
0130
0000
0010
0100
,
0020
0032
2003
0000
,
3001
0200
0320
2030
,
3001
0100
0020
0000
2030
0000
3002
0000
,
1003
0100
2000
0000
3200
0000
0320
0000
,
0031
0100
0010
1000
0002
0000
0013
0001
;
