#TITLE:Pray;
#SUBTITLE:Gintama Opening 1;
#ARTIST:Tomoko Kawase;
#TITLETRANSLIT:;
#SUBTITLETRANSLIT:;
#ARTISTTRANSLIT:;
#GENRE:;
#CREDIT:Magna Trick;
#BANNER:PRAYBN.jpg;
#BACKGROUND:PRAYBG.jpg;
#LYRICSPATH:;
#CDTITLE:Magna Trick title!.png;
#MUSIC:Pray Gintama.mp3;
#OFFSET:0.226829;
#SAMPLESTART:54.680000;
#SAMPLELENGTH:14.000000;
#SELECTABLE:YES;
#BPMS:0.000000=178.039993
;
#STOPS:
;
#BGCHANGES:0.188=Pray.avi=1.000=0=0=1=====,
258.500=PRAYBG.jpg=1.000=0=0=1=====,
99999=-nosongbg-=1.000=0=0=0 // don't automatically add -songbackground-
;
#KEYSOUNDS:;
#ATTACKS:;

//---------------dance-single - ----------------
#NOTES:
     dance-single:
     :
     Hard:
     12:
     0.651968,0.703583,0.456378,0.282520,0.021732,420.000000,378.000000,42.000000,26.000000,0.000000,0.000000,0.651968,0.703583,0.456378,0.282520,0.021732,420.000000,378.000000,42.000000,26.000000,0.000000,0.000000:
0000
0000
0001
1000
0001
1000
1001
0000
,
0100
0000
0001
0100
0010
0100
0001
0100
,
0020
0000
0000
0030
2000
0000
0000
3000
0002
0000
0000
0003
0110
0000
0000
0000
,
0010
0000
0100
1000
0001
0010
0110
0000
,
0020
0000
0000
0030
0002
0000
0000
0003
2000
0000
0000
3000
0110
0000
0000
0000
,
0010
0000
1000
0010
0100
0010
0001
0010
,
0200
0000
0000
0300
0002
0000
0000
0003
2000
0000
0000
3000
0110
0000
0000
0000
,
0001
0000
0100
0001
0010
0001
2000
0000
,
0010
0000
3200
0000
0001
0300
1001
0000
,
0010
1000
0100
0000
1000
0000
0001
0010
,
0001
0010
0001
0100
0010
1000
0100
0000
,
1000
0100
1000
0000
0010
0000
0101
0000
,
0010
0000
1100
1000
0001
0000
1001
0000
,
1000
0010
0100
0010
0001
1000
0100
0001
,
0010
0100
1000
0010
0100
0000
1001
0000
,
0001
0010
0100
0010
0001
0000
0101
0000
,
0010
1100
0010
1001
,
0100
0010
0001
0100
0010
1000
0100
1000
,
0001
0010
0001
0100
0010
1000
1001
0000
,
0010
0100
0010
0000
0001
0000
0010
0001
,
0100
0010
1000
0001
1000
0100
0001
0000
,
1000
0000
0010
0001
1000
0000
0010
1000
,
0001
0100
0010
1000
0001
0010
0100
0000
,
1000
0000
0010
1000
0100
0000
0101
0000
,
0010
0000
1100
0000
0010
1000
0100
0000
,
1001
0000
0010
0000
0001
0100
0010
0000
,
1001
0000
0100
0000
1000
0100
0010
0000
,
1001
0000
0010
0000
0100
0001
0020
0000
,
0230
0000
2300
0000
3001
0100
0010
0000
,
1001
0000
0100
0000
1000
0001
0010
0000
,
1001
0000
0010
0000
0100
0001
0010
0000
,
1001
0000
0010
0000
1000
0100
0020
0000
,
0032
0000
0203
0000
0301
0100
0001
0100
,
1000
0010
0001
0100
1000
0010
0001
0100
,
1000
0010
0001
0100
0001
0100
1000
0010
,
0001
0100
1000
0010
0001
0100
1000
0010
,
0001
0000
1010
0000
0011
0000
1001
0100
,
0001
0010
1000
0100
0001
0010
1000
0100
,
0001
0010
1000
0100
0001
0100
1000
0000
,
0101
0000
1100
0000
1001
0100
0010
1000
,
0100
0000
0010
0000
0001
0000
1000
0100
1000
0000
0001
0100
0001
0000
0100
0000
,
0001
0100
0010
1000
0010
1000
0100
0010
,
0001
0010
0100
1000
0001
0100
1000
0100
,
0001
0000
0010
0000
0001
0010
1000
0000
,
0010
0000
0100
1000
0001
0000
0110
0000
,
0010
0000
0100
0001
0101
0000
0010
0000
,
1000
0001
1000
0000
0110
0000
1001
0000
,
0001
0000
0100
0000
0010
1000
0001
0000
,
1001
0000
0000
0000
0100
0000
0010
0100
0010
0000
0100
0010
0100
0000
0010
0000
,
0100
0010
0001
0100
1000
0001
0010
0000
,
1000
0000
0010
1000
0010
0000
0110
0000
,
1001
0000
0001
0000
0100
0010
0100
0000
,
0001
0000
2000
0000
0010
0000
3001
0100
,
0010
1000
0100
0010
0001
0100
0020
0000
,
1000
0030
0001
0000
1001
0000
0100
0010
,
0100
0001
0100
0010
1000
0001
0010
0100
,
1000
0100
0010
0100
0001
0100
1000
0010
,
1000
0100
0001
0010
1000
0010
1010
0000
,
0100
0000
0011
0100
0010
0000
1001
0000
,
0100
0010
1000
0010
0100
0010
1000
0010
,
0200
0000
0000
0300
0002
0000
0000
0003
2000
0000
0000
3000
0110
0000
0000
0000
,
0100
0000
0010
0001
1000
0100
0120
0000
,
0000
0000
2030
0000
0000
3000
0202
0000
,
0000
0000
0000
0000
,
0000
0000
0000
0303
;

//---------------dance-single - ----------------
#NOTES:
     dance-single:
     :
     Challenge:
     14:
     0.802542,0.809120,0.510709,0.249921,0.141260,517.000000,470.000000,47.000000,23.000000,0.000000,0.000000,0.802542,0.809120,0.510709,0.249921,0.141260,517.000000,470.000000,47.000000,23.000000,0.000000,0.000000:
// measure 0
0000
0000
1000
0001
1000
0001
1001
0000
,  // measure 1
0010
0000
0000
0000
1000
0000
1000
0000
0010
0000
0010
1000
0001
0000
0010
0000
,  // measure 2
0200
0000
1000
0300
0002
0000
1000
0003
0010
0000
0100
0001
1000
0000
0100
0000
,  // measure 3
0010
0100
1000
1000
0010
0010
1010
0000
,  // measure 4
0200
0000
0001
0300
2000
0000
0000
3000
0002
0000
0000
0003
0110
0000
0000
0000
,  // measure 5
0100
0000
0100
0000
0001
0000
0001
0000
0010
0000
0100
1000
0001
0000
0100
0000
,  // measure 6
0020
0000
1000
0030
0002
0000
1000
0000
0103
0000
0010
0001
1000
0000
0010
0000
,  // measure 7
1000
0000
0100
0000
0010
0000
0010
0000
0100
0000
0100
0000
2000
0000
0000
3000
,  // measure 8
1100
0000
0000
0000
0020
0000
0001
0130
1000
0000
0100
0000
0001
0000
1000
0000
,  // measure 9
0001
1000
0010
1000
0100
1000
0001
1000
,  // measure 10
0100
1000
0001
0010
0100
1000
0020
0000
,  // measure 11
0130
0001
1000
0100
0010
0000
1010
1000
,  // measure 12
0010
0000
0011
0001
0010
0000
1001
0000
,  // measure 13
0001
0100
0010
0100
1000
0001
0010
1000
,  // measure 14
0100
0010
0001
0100
0010
1000
1001
0000
,  // measure 15
1000
0100
0010
0100
1000
0010
1010
0000
,  // measure 16
0100
0000
0011
0001
0100
0001
1001
0000
,  // measure 17
0010
0100
1000
0010
0100
0001
0010
0001
,  // measure 18
1000
0100
1000
0010
0100
0001
1001
0000
,  // measure 19
0100
0010
0100
0001
1000
0001
0100
1000
,  // measure 20
0100
0000
0001
0000
0010
0000
1000
0000
0001
0000
0100
1000
0001
0000
0010
0000
,  // measure 21
0001
0010
0100
0010
1000
0010
0100
0001
,  // measure 22
1000
0000
0010
0000
0100
0000
0010
0000
0001
0000
0100
0010
1000
0000
0000
0000
,  // measure 23
0001
1000
0100
0001
0010
1000
1010
0000
,  // measure 24
0100
0000
0000
0000
0001
1000
0001
1000
0100
0000
0010
0001
1000
0000
0100
0000
,  // measure 25
1001
0010
0100
0001
1010
0100
0010
0100
,  // measure 26
1001
0010
1000
0100
0011
1000
0001
0100
,  // measure 27
1001
0000
0010
0000
0100
0000
1000
0000
0110
0000
1000
0000
0200
0000
0001
0300
,  // measure 28
0020
0000
1000
0030
0002
0000
0100
0003
1000
0000
0010
0100
1000
0000
0100
0000
,  // measure 29
1001
0010
1000
0100
0011
1000
0100
0010
,  // measure 30
1001
0100
0010
0001
0110
1000
0100
0010
,  // measure 31
1001
0000
0010
0000
0100
0000
1000
0000
0001
0000
0010
0000
0200
0000
0010
0300
,  // measure 32
2000
0000
0001
3000
0020
0000
0100
0030
1000
0000
0010
0100
1000
0000
0010
0000
,  // measure 33
0001
0100
1000
0010
0001
0100
1000
0010
,  // measure 34
0001
0100
0010
1000
0010
1000
0001
0100
,  // measure 35
1000
0010
0001
0100
1000
0010
0001
0100
,  // measure 36
1000
0010
0101
0000
1100
0000
1001
0010
,  // measure 37
1000
0100
0001
0010
1000
0100
0001
0010
,  // measure 38
1000
0100
0001
0010
1000
0010
0011
0000
,  // measure 39
1100
0000
0101
0000
1001
0010
0100
0001
,  // measure 40
0010
0000
0100
0000
1000
0000
0001
0010
1000
0000
1000
0010
0001
0000
0010
0000
,  // measure 41
1000
0010
0100
0001
0100
1000
0010
0100
,  // measure 42
1000
0100
0010
0100
1000
0001
0010
1000
,  // measure 43
0100
0000
0100
0000
1000
0100
0001
0000
,  // measure 44
0100
0000
0010
0001
1000
0000
0110
0000
,  // measure 45
0100
0000
0010
1000
1010
0000
0100
0000
,  // measure 46
0001
1000
0001
0000
0110
0000
1001
0000
,  // measure 47
1000
0000
0001
0010
0100
1000
0010
0000
,  // measure 48
1001
0000
0000
0000
1000
0000
0001
0100
1000
0000
1000
0100
0001
0000
0100
0000
,  // measure 49
0010
0100
1000
0010
0001
1000
0100
0010
,  // measure 50
0001
1000
0100
0001
0100
1000
0110
0000
,  // measure 51
1001
1000
1010
0101
,  // measure 52
1001
0000
0000
0000
0002
0000
0000
0000
0103
0000
0010
1000
0001
0000
0010
0000
,  // measure 53
0100
1000
0010
0100
0001
0010
0200
0000
,  // measure 54
0001
0300
1000
0000
1001
1000
0010
0100
,  // measure 55
0010
1000
0010
0100
0001
1000
0100
0010
,  // measure 56
0001
0010
0100
0010
1000
0010
0001
0100
,  // measure 57
0001
0010
1000
0100
0001
0100
0101
0000
,  // measure 58
0010
0000
0000
0000
1100
0000
0010
0100
0001
1000
0100
0010
1001
0000
0000
0000
,  // measure 59
0010
0000
0100
0000
0001
0000
0100
0000
0010
0000
0100
0001
1000
0000
0100
0000
,  // measure 60
0020
0000
0000
0030
2000
0000
0000
3000
0002
0000
0010
0103
1000
0000
0000
0000
,  // measure 61
0010
0000
0100
0000
0100
0000
0001
0000
0001
0000
0010
0000
0110
0000
0001
1000
,  // measure 62
0001
0000
0010
0100
1000
0000
0001
0100
0010
0000
1000
0001
2020
0000
0000
0000
,  // measure 63
0000
0000
0000
0000
,  // measure 64
0000
0000
0000
3030
;

//---------------dance-single - ----------------
#NOTES:
     dance-single:
     :
     Medium:
     6:
     0.411361,0.486803,0.162992,0.065197,0.000000,265.000000,250.000000,15.000000,6.000000,0.000000,0.000000,0.411361,0.486803,0.162992,0.065197,0.000000,265.000000,250.000000,15.000000,6.000000,0.000000,0.000000:
0000
0000
0000
1001
,
0010
1000
0001
0010
,
0001
1000
0001
0000
1000
0000
0001
0000
,
0100
0010
1000
0001
,
0010
0100
0010
0000
0001
0000
0010
0000
,
0100
1000
0001
1000
,
0010
0100
0010
0000
0001
0000
1000
0000
,
0010
0100
0001
0100
,
0100
0010
0010
1001
,
0010
1000
0010
1000
,
0001
0100
0001
0100
,
0010
1000
0100
1000
,
0100
0010
0001
0010
,
0001
1000
0010
0100
,
0010
0100
0010
1000
,
0001
1000
0001
0010
,
0010
0100
0100
1001
,
0010
0100
0100
0010
,
0010
1000
0001
0001
,
1000
0100
0010
0001
,
0001
1000
1000
0010
,
0100
0010
0100
0001
,
0001
1000
1000
0100
,
0010
0100
1000
0002
,
0000
0103
0010
1000
,
1001
0000
0100
0010
,
1001
0000
0010
0100
,
1001
0000
0100
0100
,
0100
0010
0001
0001
,
1001
0000
1000
1000
,
1001
0000
0010
0010
,
0110
0000
0100
0010
,
0100
0110
1000
0100
,
0001
0010
1000
0100
,
0001
0001
0100
1000
,
0010
0001
0100
1000
,
0010
0010
0001
1000
,
0010
0100
0001
1000
,
0100
0010
0001
1001
,
0000
0110
0010
1000
,
0001
0000
0001
0000
1000
0000
0010
1000
,
0010
1000
0010
0000
1000
0000
0001
0000
,
0100
0010
1000
1001
,
0110
0000
0000
0000
0010
0100
0001
0000
,
0100
0010
1000
0100
,
0000
0010
0020
0000
,
0031
1000
0010
0200
,
0300
0010
0100
0001
,
1000
0000
0100
1000
0100
0000
0010
0001
,
0010
0001
0010
0001
0010
0001
0010
0000
,
0100
1000
0001
0100
,
0100
0000
0010
0100
,
0000
0001
0000
1000
,
0100
0010
0001
2000
,
0000
0000
3010
0100
,
0001
0010
0100
1000
,
0010
0100
0001
1000
,
1000
0001
0001
0010
,
0100
0010
0100
1000
,
0001
0100
0001
0100
0001
0100
0001
0100
,
0010
1000
0010
1000
,
0100
1000
0100
1000
0100
1000
0001
0000
,
1000
0010
1000
2002
,
0000
0000
0000
0000
,
3003
0000
0000
0000
;

//---------------dance-single - ----------------
#NOTES:
     dance-single:
     :
     Easy:
     2:
     0.304252,0.317835,0.010866,0.021732,0.000000,196.000000,195.000000,1.000000,2.000000,0.000000,0.000000,0.304252,0.317835,0.010866,0.021732,0.000000,196.000000,195.000000,1.000000,2.000000,0.000000,0.000000:
0000
0000
0000
0000
,
0000
0000
0000
0000
,
1000
1000
1000
0000
,
0000
0000
0000
0000
,
0001
0001
0001
0000
,
0000
0000
0000
0000
,
0100
0100
0100
0000
,
0000
0000
0000
0010
,
0000
0010
0000
0010
,
1000
0001
1000
0010
,
1000
0001
0010
0000
,
0001
0010
0001
1000
,
0001
0010
0001
0000
,
0100
0001
0100
0010
,
0100
0001
0100
0000
,
1000
0100
0010
0100
,
0000
1000
0000
0001
,
0100
0010
0100
0001
,
1000
0001
1000
0000
,
0100
0010
0100
0010
,
0001
1000
0010
0000
,
1000
0100
1000
0010
,
1000
0001
0010
0000
,
0001
0100
0001
0010
,
0000
0001
1000
0010
,
1000
0000
0001
0100
,
0001
0000
1000
0100
,
1000
0000
0001
0001
,
0001
1000
0010
0100
,
0010
0000
0100
0001
,
0100
0000
0001
0010
,
0001
0000
1000
1000
,
0001
0010
0100
1000
,
0100
1000
0100
1000
,
0100
1000
0000
0001
,
0100
0001
0100
0001
,
0100
0001
0000
1000
,
1000
0001
0001
1000
,
0001
1000
0001
1000
,
0000
0001
0001
1000
,
0001
1000
0000
0010
,
0010
0100
0100
0010
,
0100
0010
0100
0010
,
0010
0000
1000
0001
,
0000
1000
0000
0001
,
0000
0001
0001
0000
,
0010
0100
0010
0100
,
0000
1000
1000
0001
,
0001
0100
0000
0010
,
0010
1000
1000
0001
,
0100
0001
0100
0010
,
0010
0000
1000
0100
,
0000
0010
0000
0001
,
0001
0010
0001
1000
,
0000
0000
0010
1000
,
0010
0100
0001
0100
,
0001
1000
0001
0010
,
0010
0100
1000
0001
,
1000
1000
0010
0100
,
0001
1000
0001
1000
,
0001
0001
0001
0010
,
0100
1000
0001
1000
,
0000
1000
0000
2002
,
0000
0000
0000
0000
,
0000
0000
0000
0000
,
3003
0000
0000
0000
;
