#TITLE:Pray;
#SUBTITLE:Angels of Death Ending;
#ARTIST:Haruka Chisuga with DECO*27 & Yuxuki Waga;
#TITLETRANSLIT:;
#SUBTITLETRANSLIT:;
#ARTISTTRANSLIT:;
#GENRE:;
#CREDIT:Magna Trick;
#BANNER:PBN.jpg;
#BACKGROUND:PBG.jpg;
#LYRICSPATH:;
#CDTITLE:Magna Trick title!.png;
#MUSIC:Pray.mp3;
#OFFSET:0.093837;
#SAMPLESTART:48.000000;
#SAMPLELENGTH:15.000000;
#SELECTABLE:YES;
#BPMS:0.000000=160.029999
,2.500000=80.014999
,3.000000=160.029999
,3.500000=80.014999
,5.500000=160.029999
,8.000000=80.014999
,8.500000=160.029999
,9.000000=80.014999
,12.000000=160.029999
,12.500000=80.014999
,13.000000=160.029999
,13.500000=80.014999
,15.500000=160.029999
,18.000000=80.014999
,18.500000=160.029999
,19.000000=80.014999
,22.000000=160.029999
,38.500000=80.014999
,39.000000=160.029999
,54.000000=80.014999
,54.500000=160.029999
,61.500000=80.014999
,62.000000=160.029999
,69.000000=80.014999
,69.500000=160.029999
,76.500000=80.014999
,77.000000=160.029999
,83.500000=80.014999
,85.000000=160.029999
,111.000000=80.014999
,112.500000=160.029999
,175.500000=158.500000
,188.000000=160.029999
,189.500000=80.014999
,190.000000=160.029999
,197.000000=80.014999
,197.500000=160.029999
,204.500000=80.014999
,205.000000=160.029999
,212.000000=80.014999
,212.500000=160.029999
;
#STOPS:111.000000=0.187000,
189.000000=1.100000
;
#BGCHANGES:0.083=Pray.avi=1.000=0=0=1=====,
213.000=PBG.jpg=1.000=0=0=1=====,
99999=-nosongbg-=1.000=0=0=0 // don't automatically add -songbackground-
;
#KEYSOUNDS:;
#ATTACKS:;

//---------------dance-single - ----------------
#NOTES:
     dance-single:
     :
     Challenge:
     11:
     0.502059,0.501802,0.033259,0.376940,0.138581,317.000000,314.000000,3.000000,34.000000,0.000000,0.000000,0.502059,0.501802,0.033259,0.376940,0.138581,317.000000,314.000000,3.000000,34.000000,0.000000,0.000000:
// measure 0
0000
0000
0000
0000
0000
0200
0301
1000
,  // measure 1
0000
0000
0000
0000
1000
0001
0100
0000
,  // measure 2
0020
1030
0001
0000
0000
0000
0000
0000
,  // measure 3
0000
0020
0031
1000
0000
0000
0000
0000
,  // measure 4
0001
1000
0100
0000
0020
0031
1000
0000
,  // measure 5
0000
0000
0000
0000
0000
0100
0000
0001
,  // measure 6
1000
0010
0000
0100
0001
0000
1000
0100
,  // measure 7
0000
0000
0001
0010
0100
1000
0000
0001
,  // measure 8
0100
0000
0010
1000
0000
0001
0100
0001
,  // measure 9
0000
0001
1000
0000
0001
0000
0000
0000
0100
0000
0020
0000
1030
0000
0001
0000
,  // measure 10
0100
0000
0010
1000
0000
0100
0010
0000
,  // measure 11
0001
0010
0100
1000
0001
0000
1000
0001
,  // measure 12
0000
0000
0100
0000
0010
0000
0000
0000
1000
0000
0100
0000
1000
0000
0000
0001
,  // measure 13
0100
0001
0000
1000
0020
1030
0001
0010
,  // measure 14
0000
0100
0001
0000
0100
1000
0000
0100
,  // measure 15
0010
0000
0001
0000
1000
0001
0200
0000
0301
0000
1000
0000
0000
0000
0100
0000
,  // measure 16
0010
0000
0000
0000
0001
0000
1000
0000
0001
0000
0000
0100
0010
0000
1000
0000
,  // measure 17
0001
0100
0020
1030
0001
0100
0000
1000
,  // measure 18
0100
0000
0001
0010
0000
0001
0010
0100
,  // measure 19
0000
0020
0031
1000
0000
0100
0010
0000
,  // measure 20
0001
0000
1000
0000
0001
0000
0000
0100
0010
0000
1000
0000
0000
0000
0001
0100
,  // measure 21
0000
0010
1000
0000
0000
0000
0100
0000
0010
0000
0000
0000
0001
0000
0010
0000
,  // measure 22
0100
1000
1000
0001
0001
0100
0000
0010
,  // measure 23
0100
0101
0001
1000
0000
0100
0010
0001
,  // measure 24
1000
0100
1000
0000
0100
0000
0010
0000
0000
0000
0002
0000
0000
0000
2003
0000
,  // measure 25
0000
3020
0000
0230
0000
0001
0300
0020
,  // measure 26
0000
0230
0000
2300
0000
0010
0000
3020
,  // measure 27
0000
0000
0230
0000
0000
0000
0302
0000
0003
0000
1001
0000
1001
1000
0010
0100
,  // measure 28
0001
1000
0020
0000
0000
0000
1000
0000
0000
0000
0100
0000
0000
0000
1000
0000
,  // measure 29
0000
0000
0130
0000
0000
0000
1000
0000
0000
0100
0010
0000
0001
0000
1000
0000
,  // measure 30
0000
0010
0000
0100
0010
0000
0001
2000
,  // measure 31
0000
3010
0000
0100
0000
1000
0100
0001
,  // measure 32
1000
0010
0100
0100
0001
0000
1000
0100
,  // measure 33
1000
0000
0001
0010
0002
1000
0003
0000
,  // measure 34
1000
0010
0000
0100
0001
0000
1000
0100
,  // measure 35
0010
0001
0010
0000
0001
0000
1000
0000
0010
0000
0100
0000
0001
0000
1000
0000
,  // measure 36
0100
0020
0000
0001
0000
0100
0030
0001
,  // measure 37
1000
0100
0000
0010
0000
0001
1000
0001
,  // measure 38
0001
1000
0000
0001
1000
0000
0100
1000
,  // measure 39
0002
0100
0003
0010
0000
0100
0000
0001
,  // measure 40
0001
0000
1000
0100
1000
0000
0010
0100
,  // measure 41
0002
0000
1003
0010
0200
0000
0300
0000
,  // measure 42
0001
1000
0000
0010
0100
0000
1000
0001
,  // measure 43
0010
0100
0010
0000
0100
0000
0100
0000
0100
0000
0100
0000
0100
0000
0001
0000
,  // measure 44
1000
0000
0100
0010
0002
0000
1003
0100
,  // measure 45
0020
0000
0031
0010
0200
0000
0300
0000
,  // measure 46
1000
0001
0000
1000
0100
0000
1000
0001
,  // measure 47
0200
0000
0000
0000
0300
0000
0020
0000
1030
0000
0001
0000
0000
0000
0000
0010
,  // measure 48
0100
0010
0100
0000
0000
0000
0100
1000
0100
0000
0000
0000
0010
0000
0001
0000
,  // measure 49
1000
0000
0000
1000
0200
0000
1300
0000
0001
0000
0000
0000
0000
1000
0001
1000
,  // measure 50
0001
0000
0000
0000
0010
0001
0010
0000
0000
0100
1000
0000
0001
0000
0000
0000
,  // measure 51
0010
0000
0200
0000
1300
0000
0001
0000
0000
0000
0000
0100
0010
1000
0001
0000
,  // measure 52
0000
0000
0100
0010
0100
0000
0000
0000
0010
0000
1000
0000
0001
0000
0000
0000
,  // measure 53
0200
0301
1000
0000
0000
0000
0000
0000
;

//---------------dance-single - ----------------
#NOTES:
     dance-single:
     :
     Hard:
     8:
     0.397529,0.472284,0.022173,0.476718,0.027716,251.000000,249.000000,2.000000,43.000000,0.000000,0.000000,0.397529,0.472284,0.022173,0.476718,0.027716,251.000000,249.000000,2.000000,43.000000,0.000000,0.000000:
0000
0000
0000
0000
0000
0020
1030
0001
,
0000
0000
0000
0000
0001
1000
0010
0000
,
0200
0301
1000
0000
0000
0000
0000
0000
,
0000
0200
1300
0001
0000
0000
0000
0000
,
1000
0001
0010
0000
0200
1300
0001
0000
,
0000
0000
0000
0000
0000
0010
0000
1000
,
0001
0100
0000
0010
1000
0000
0001
0010
,
0000
0000
1000
0100
0010
0001
0000
1000
,
0010
0000
0100
0002
0000
0000
0003
0000
,
0000
0000
0000
0000
0010
0200
0301
1000
,
0010
0000
0100
0001
0000
0010
0100
0000
,
1000
0100
0010
0001
1000
0000
0001
1000
,
0000
0010
0200
0000
0000
0000
0300
0000
,
0000
0000
0000
0001
0200
0301
1000
0100
,
0000
0010
1000
0000
0010
0001
0000
0010
,
0100
1000
0000
0020
1030
0001
0000
0010
,
0200
0000
0300
0000
,
0010
0010
0200
0301
1000
0010
0000
0001
,
0010
0000
1000
0100
0000
0000
0100
0010
,
0001
0200
0301
1000
0000
0010
0200
0000
,
0000
0000
0300
0000
0000
0000
0000
0000
0000
0000
0000
0000
0000
0000
1000
0010
,
0000
0100
0001
0000
0000
0000
0010
0000
0100
0000
0000
0000
1000
0000
0100
0000
,
0020
0000
0000
0030
0001
1000
0000
0100
,
0010
0000
0001
1000
0000
0010
0100
0000
,
0001
0001
0010
0100
0000
2000
0000
3002
,
0000
0203
0000
0320
0000
1000
0030
0200
,
0000
0320
0000
0032
0000
0100
0000
0203
,
0000
0000
0320
0000
0000
0000
2030
0000
3000
0000
1001
0000
1001
0001
0100
0010
,
1000
0001
0200
0000
0000
0000
0001
0000
0000
0000
0010
0000
0000
0000
0001
0000
,
0000
0310
0000
0001
0000
0001
1000
0001
,
0000
0100
0000
0010
0100
0000
1000
0002
,
0000
0103
0000
0010
0000
1000
0010
0100
,
0002
0000
0013
0100
0002
0000
0013
0100
,
2000
0000
3010
0100
2000
0000
3000
0000
,
0001
0100
0000
0010
1000
0000
0001
0010
,
0100
0100
1000
0001
0100
0010
1000
0001
,
0010
0200
0000
1000
0000
0010
0300
1000
,
0002
0000
0003
0100
0000
0010
1000
0100
,
0010
0001
0000
1000
0001
0000
0010
0001
,
2000
0000
3000
0100
0000
0010
0000
0001
,
0001
0000
0001
0010
0001
0000
0100
0010
,
2000
0000
3001
0100
0020
0000
0030
0000
,
1000
0001
0000
0100
0010
0000
0001
1000
,
0100
0100
0010
0010
0010
0010
0010
0001
,
1000
0000
0010
0100
2000
0000
3001
0010
,
0200
0000
1300
0100
0020
0000
0030
0000
,
0001
1000
0000
0001
0010
0000
0001
1000
,
0020
0000
0030
0200
1300
0001
0000
0000
,
0000
0000
0000
0000
0000
0000
1000
0001
,
0100
0000
0020
1030
0001
0000
0000
0000
,
0000
0000
0000
0000
,
0000
0200
0301
1000
0000
0000
0000
0000
,
0000
0000
0000
0000
1000
0001
0100
0000
,
0020
1030
0001
0000
0000
0000
0000
0000
;

//---------------dance-single - ----------------
#NOTES:
     dance-single:
     :
     Medium:
     6:
     0.337346,0.442766,0.022173,0.521064,0.016630,213.000000,211.000000,2.000000,47.000000,0.000000,0.000000,0.337346,0.442766,0.022173,0.521064,0.016630,213.000000,211.000000,2.000000,47.000000,0.000000,0.000000:
0000
0000
0000
0000
0000
0002
1003
0001
,
0000
0000
0000
0000
0001
1000
0001
0000
,
2000
3001
1000
0000
0000
0000
0000
0000
,
0000
0002
1003
0001
0000
0000
0000
0000
,
1000
0001
1000
0000
0002
1003
0001
0000
,
0000
0000
0000
0000
0000
0001
0000
1000
,
0001
0000
0000
0000
,
0000
1000
0001
1000
0000
0001
0000
1000
,
0001
0000
0000
0000
,
0000
0000
0000
0000
0000
2000
3001
1000
,
0010
0000
0100
0001
0000
0010
0100
0000
,
1000
0100
0010
0000
0001
0000
1000
0001
,
0000
0010
0200
0000
0000
0000
0300
0000
,
0000
0000
0000
0000
2000
3001
1000
0001
,
0000
0000
0001
0000
0000
0100
0000
0010
,
0100
0001
0000
0002
1003
0001
0000
0010
,
0200
0000
0300
0000
,
0000
0000
0200
0301
1000
0010
0000
1000
,
0001
0000
1000
0100
0000
0000
0100
0010
,
0000
0002
1003
0001
0000
0010
0200
0000
,
0000
0000
0300
0000
0000
0000
0000
0000
0000
0000
0000
0000
0000
0000
1000
0010
,
0000
0100
0001
0000
0000
0000
0000
0000
0100
0000
0000
0000
1000
0000
0000
0000
,
0020
0000
0000
0030
0001
1000
0000
0100
,
0010
0000
0001
1000
0000
0010
0000
0100
,
0000
0001
0010
0100
0000
2000
0000
3002
,
0000
0203
0000
0320
0000
1000
0030
0200
,
0000
0320
0000
0032
0000
0100
0000
0203
,
0000
0320
0000
2030
3000
0001
1000
0000
,
1000
0001
0200
0000
0000
0000
0001
0000
0000
0000
0010
0000
0000
0000
0001
0000
,
0000
0310
0000
0001
0000
0001
1000
0001
,
0000
0200
0000
0000
0320
0000
0030
2000
,
0000
3100
0000
0010
0000
0001
1000
0001
,
0002
0023
0230
0320
,
0032
0203
0320
0030
,
1000
0100
0000
0010
0001
0000
0001
0010
,
0100
0000
0000
0000
0001
0100
0001
0100
,
0001
0200
0000
1000
0000
0010
0300
0001
,
0002
0000
0000
0103
0000
0010
0000
0100
,
0010
1000
0000
0001
1000
0000
1000
1000
,
2000
0000
3000
0100
0000
0010
0000
0001
,
0001
0100
0010
1000
,
2000
3001
0002
0003
,
1000
0001
0000
0100
0010
0000
1000
0001
,
1000
1000
0001
0001
0001
0001
0001
1000
,
0001
0000
0010
0100
2000
0000
3001
0000
,
0200
0000
0310
1000
0020
0000
0030
0000
,
0000
1100
0000
0000
0000
0101
0000
0000
,
0020
0000
0030
0200
1300
0001
0000
0000
,
0000
0000
0000
0000
0000
0000
0001
1000
,
0100
0000
0020
0031
1000
0000
0000
0000
,
0000
0000
0000
0000
,
0000
0200
1300
0001
0000
0000
0000
0000
,
0000
0000
0000
0000
0001
1000
0100
0000
,
0020
0031
1000
0000
0000
0000
0000
0000
;

//---------------dance-single - ----------------
#NOTES:
     dance-single:
     :
     Easy:
     5:
     0.267659,0.413248,0.022173,0.487805,0.016630,169.000000,167.000000,2.000000,44.000000,0.000000,0.000000,0.267659,0.413248,0.022173,0.487805,0.016630,169.000000,167.000000,2.000000,44.000000,0.000000,0.000000:
0000
0000
0000
0000
0000
2000
3001
1000
,
0000
0000
0000
0000
1000
0001
1000
0000
,
0002
1003
0001
0000
0000
0000
0000
0000
,
0000
2000
3001
1000
0000
0000
0000
0000
,
0001
1000
0001
0000
2000
3001
1000
0000
,
0000
0000
0000
0000
0000
1000
0000
0001
,
1000
0000
0000
0000
,
0000
0001
1000
0001
0000
1000
0000
0001
,
1000
0000
0000
0000
,
0000
0000
0000
0000
0000
0002
1003
0001
,
0000
0000
0000
0000
,
0001
1000
0001
0000
1000
0000
0001
1000
,
0000
0000
0000
0000
,
0000
0000
0000
0000
0002
1003
0001
0000
,
0000
0000
0000
0000
0000
0000
0000
0001
,
1000
0001
0000
2000
3001
1000
0000
0000
,
0000
0000
0000
0000
,
0000
0000
0002
1003
0001
0000
0000
0000
,
0000
0000
0000
0000
0000
0001
1000
0001
,
0000
2000
3001
1000
0000
0000
0000
0000
,
0000
0000
0000
0000
0000
0000
0000
0000
0000
0000
0000
0000
0000
0000
0001
1000
,
0000
0001
1000
0000
0000
0000
0010
0000
0000
0000
0100
0000
0000
0000
0001
0000
,
0000
1000
0000
0100
0000
0010
0000
0001
,
0000
0010
0000
0100
0000
1000
0000
0001
,
0000
0100
0000
0001
0000
0002
0000
2003
,
0000
3020
0000
0230
0000
0001
0300
0020
,
0000
0230
0000
2300
0000
0010
0000
3020
,
0000
0230
0000
0302
0003
1000
0001
0000
,
0001
1000
0020
0000
0000
0000
0000
0000
0000
0000
0000
0000
0000
0000
0000
0000
,
0000
0030
0000
0000
1000
0001
0000
1000
,
0000
0020
0000
0000
0230
0000
0300
0002
,
0000
0003
0000
0000
0000
0000
0000
0000
,
2000
3200
0320
0230
,
2300
3020
0230
0300
,
0001
0010
0000
0100
1000
0000
1000
0001
,
1000
0000
0000
0000
1000
0001
1000
0001
,
1000
0002
0000
0000
0000
0000
0003
1000
,
2000
0000
0000
3000
0000
0000
0000
0010
,
0100
0010
0000
1000
0001
0000
1000
0001
,
2000
0000
3000
0000
0000
0000
0000
1000
,
1000
0010
0100
0001
,
0002
1003
2000
3000
,
0001
1000
0000
0010
0100
0000
0001
1000
,
0002
0000
1003
1000
1000
1000
1000
0001
,
1000
0001
0002
1003
,
0020
0130
0200
0300
,
0000
0011
0000
0000
0000
1010
0000
0000
,
0200
0000
0300
0200
1300
0001
0000
0000
,
0000
0000
0000
0000
,
0000
0000
0020
0031
1000
0000
0000
0000
,
0000
0000
0000
0000
,
0000
0200
1300
0001
0000
0000
0000
0000
,
0000
0000
0000
0000
,
0020
0031
1000
0000
0000
0000
0000
0000
;
