#TITLE:Place To Try;
#SUBTITLE:Naruto Shippuden Ending 19;
#ARTIST:Totalfat;
#TITLETRANSLIT:;
#SUBTITLETRANSLIT:;
#ARTISTTRANSLIT:;
#GENRE:;
#CREDIT:;
#BANNER:PTTBN.jpg;
#BACKGROUND:PTT.jpg;
#LYRICSPATH:;
#CDTITLE:cdtitleitachi.png;
#MUSIC:Naruto Shippuden Ending 19 Place to Try HD.ogg;
#OFFSET:-0.081000;
#SAMPLESTART:47.139999;
#SAMPLELENGTH:14.000000;
#SELECTABLE:YES;
#BPMS:0.000000=225.000000
;
#STOPS:
;
#BGCHANGES:0.063=Naruto Shippuden Ending 19 Place to Try HD.avi=1.000=0=0=1=====,
334.000=PTT.jpg=1.000=0=0=1=====,
99999=-nosongbg-=1.000=0=0=0 // don't automatically add -songbackground-
;
#KEYSOUNDS:;
#ATTACKS:;

//---------------dance-single - ----------------
#NOTES:
     dance-single:
     :
     Challenge:
     14:
     0.661090,0.921395,0.632347,0.919778,0.076648,483.000000,417.000000,66.000000,96.000000,0.000000,2.000000,0.661090,0.921395,0.632347,0.919778,0.076648,483.000000,417.000000,66.000000,96.000000,0.000000,2.000000:
// measure 0
0000
0000
0000
0000
2002
3003
0000
0010
,  // measure 1
0000
0100
0000
0002
0000
0000
0003
0000
,  // measure 2
0000
1000
1001
0000
,  // measure 3
0110
0000
0000
0000
1001
0000
0100
1000
,  // measure 4
0010
0100
0001
0000
1001
0000
0000
0110
,  // measure 5
0000
0101
0000
0002
0000
0000
0000
0003
,  // measure 6
1000
0100
1000
0010
0200
0000
0000
0300
,  // measure 7
0002
0000
0000
0003
0200
0000
0000
0300
,  // measure 8
0020
0000
0000
0030
2001
0000
0001
0000
,  // measure 9
3120
0000
0100
0000
0231
0000
0001
0300
,  // measure 10
0102
0000
1000
0003
1000
0100
1000
0010
,  // measure 11
0100
0000
0001
0000
0010
0000
0001
0000
0010
0001
0010
0000
0001
0000
0100
0000
,  // measure 12
0010
0100
0010
0000
1002
0000
1003
0000
,  // measure 13
1001
0010
0100
0001
,  // measure 14
1001
0010
1001
0000
,  // measure 15
1010
0000
0101
0000
,  // measure 16
1010
0000
2000
3000
,  // measure 17
0010
0010
1000
0010
,  // measure 18
0010
0001
1010
0000
,  // measure 19
1010
0000
0101
0000
,  // measure 20
1010
0000
0110
0010
,  // measure 21
0100
0001
1000
0010
,  // measure 22
1000
0000
0001
0000
0100
0010
0100
0001
,  // measure 23
0100
0000
0010
1000
0001
0000
1000
0000
,  // measure 24
0110
0000
1001
0000
0001
0100
0000
0010
,  // measure 25
0100
0000
0001
0100
0010
1000
0001
0100
,  // measure 26
0000
0000
0000
0000
1100
0000
0000
0000
0001
1000
0010
0000
0000
0000
0010
0100
,  // measure 27
0001
0000
0100
1000
0100
0010
0100
1000
,  // measure 28
0100
0000
0000
0000
0002
2003
3002
0203
,  // measure 29
0302
2003
3002
0203
0302
2003
3020
0230
,  // measure 30
0302
2003
3020
0230
0302
2003
3002
2003
,  // measure 31
3020
2030
3020
2030
3200
0302
0203
0302
,  // measure 32
0203
2300
3020
0230
0320
0230
2300
3200
,  // measure 33
0320
0230
2300
3200
0320
0230
0302
0203
,  // measure 34
0320
0230
0302
2003
3020
0230
2300
3200
,  // measure 35
0320
0000
0230
0000
0320
0000
0230
0000
2300
0000
3200
0000
0310
0100
0010
0100
,  // measure 36
0010
0100
0010
0100
0010
0000
0000
0000
1001
0000
0000
0000
0000
0000
0000
0000
,  // measure 37
0020
0000
0000
0030
0200
0000
0000
0000
,  // measure 38
0301
0000
0000
0000
0110
0000
0000
1002
,  // measure 39
0000
0000
2003
0000
3020
0000
0000
0230
,  // measure 40
0000
0000
0302
0000
1003
0100
0001
0100
,  // measure 41
1000
0010
0100
1000
0100
0010
1000
0100
,  // measure 42
0001
0100
1000
0100
0010
0100
1000
0000
,  // measure 43
1000
0000
0010
0000
1000
0000
0001
0010
,  // measure 44
0100
1000
0001
0100
0001
0000
0010
0000
,  // measure 45
0110
1000
1001
0010
,  // measure 46
0100
0001
0101
0001
,  // measure 47
1001
0010
0110
0001
,  // measure 48
1001
0100
1000
0100
,  // measure 49
1100
0000
0000
0000
0020
0030
0200
0300
,  // measure 50
0002
0003
1000
0000
0010
0000
1000
0000
,  // measure 51
0001
0000
2002
3003
0000
0000
0020
0030
,  // measure 52
0200
0300
0001
0000
2001
0000
3001
0000
,  // measure 53
1020
0130
0210
0310
,  // measure 54
0120
1030
1002
1003
,  // measure 55
1001
0010
0100
0010
,  // measure 56
0110
0001
1000
1000
,  // measure 57
0010
0010
0100
0001
,  // measure 58
0100
0010
1000
0001
,  // measure 59
1000
0000
0000
0000
0001
1000
0001
1000
0001
0000
0100
0000
0010
0000
0000
0000
,  // measure 60
1000
0001
1001
1001
,  // measure 61
0110
0110
1001
1001
,  // measure 62
1100
1100
1010
1010
,  // measure 63
0101
0000
0000
0000
0110
0000
0000
0000
1000
0001
0100
0000
0010
0000
1000
0000
,  // measure 64
0010
1000
0001
0000
2002
0000
0000
0003
,  // measure 65
0010
0000
3010
0100
,  // measure 66
0001
2002
0000
0000
,  // measure 67
3003
0000
0000
0000
0000
0000
0000
0000
0001
0100
0010
0000
1000
0000
0000
0000
,  // measure 68
1001
0000
0000
0000
1000
0010
0100
0001
,  // measure 69
0010
1000
0010
0001
1000
0010
0100
1000
,  // measure 70
0100
0010
0100
0001
1000
0100
0001
0100
,  // measure 71
1000
0100
1000
0010
0100
0001
0010
0100
,  // measure 72
1000
0001
1000
0010
0100
1000
0100
0010
,  // measure 73
1000
0010
0100
0001
0010
1000
0010
0001
,  // measure 74
0100
0010
1000
0001
0100
0010
0001
0010
,  // measure 75
1000
0000
0010
0000
0001
0000
0010
0000
0100
0000
0010
0100
0010
0000
0100
0010
,  // measure 76
0100
0010
0100
0010
1000
0001
0100
0000
1001
0000
0000
0000
0010
0000
0000
0000
,  // measure 77
0100
0001
1000
0100
,  // measure 78
1000
0000
0010
0000
1010
0000
0000
0101
,  // measure 79
0000
0000
0110
0000
0101
0000
0000
1010
,  // measure 80
0000
0000
1001
0000
1000
0100
1000
0100
,  // measure 81
0010
0001
0010
0001
1000
0100
1000
0100
,  // measure 82
0010
0001
0010
0100
2000
0000
0000
0000
,  // measure 83
0000
0000
0000
0000
0000
3000
0000
0000
;

//---------------dance-single - ----------------
#NOTES:
     dance-single:
     :
     Medium:
     6:
     0.258688,0.360007,0.047905,0.344917,0.000000,189.000000,184.000000,5.000000,36.000000,0.000000,0.000000,0.258688,0.360007,0.047905,0.344917,0.000000,189.000000,184.000000,5.000000,36.000000,0.000000,0.000000:
0000
0000
0000
0000
,
0000
0000
0000
0000
,
0000
0000
0000
0000
,
0000
0000
0000
0000
,
0000
0000
0000
0000
1000
0000
0000
0010
,
0000
0010
0000
0020
0000
0000
0000
0030
,
0000
0000
1000
0000
,
0010
0000
0100
0000
,
0001
0000
0000
0000
2000
0000
0000
3000
,
0200
0000
0000
0300
0020
0000
0000
0030
,
0002
0000
0000
0003
1000
0000
0000
0000
,
0100
0000
1000
0010
,
0100
0001
2000
0000
,
3000
0000
0000
0000
,
0000
0000
0010
0000
,
0100
0000
0001
0000
,
1000
0000
1001
0000
,
0000
0000
0000
0000
,
0000
0000
0100
0000
,
0010
0000
1000
0000
,
0001
0000
0200
0000
,
0000
0300
0000
0000
0000
0000
0000
0000
,
0000
0000
0010
1000
,
0010
0000
0100
0000
,
0100
0000
0000
0000
0100
0000
0000
0010
,
0000
1000
0000
0001
,
1000
0000
0000
0000
0100
0000
0000
0010
,
0000
0001
0010
0100
,
1000
0000
0010
0100
,
0001
0000
0000
2000
0000
0000
3000
0000
,
0000
0000
0002
0003
2000
3000
0000
0000
,
0020
0000
0030
0000
2002
3003
0000
0000
,
0002
0003
1000
0000
0001
0000
1000
0000
,
0100
0000
0000
0020
0000
0030
0000
0000
,
0000
0002
0023
0030
,
0200
0300
2000
3000
,
0020
0030
0010
0000
,
0100
0000
0001
0000
,
1000
0000
0000
0000
0100
0000
0000
0010
,
0000
0000
0001
0000
0010
0000
0000
0100
,
0000
1000
2000
0000
,
3000
0000
0020
0000
0000
0030
0000
0000
,
0100
0000
0020
0000
,
0000
0030
0000
0000
1000
0000
0000
0000
,
0000
0000
2002
0000
,
0000
0000
0000
0000
0000
3003
0000
0000
,
1001
2002
0000
3003
,
0001
0000
0100
0000
,
0010
0000
1000
0100
,
1000
0000
0010
0100
,
0001
0200
0000
0300
,
0000
0010
0000
1000
,
1000
0000
0020
0000
,
0000
0000
0000
0000
0000
0030
0000
0000
,
0010
0000
0020
0000
0000
0000
0000
0030
,
0000
1000
1000
2000
,
0000
3000
0000
0000
0001
0000
1000
0000
,
0001
0000
0100
0010
,
0100
0020
0000
0000
,
0030
0000
2000
0000
,
3000
0000
0001
1000
,
0010
0100
0001
1000
,
0100
1000
0010
0100
,
0001
1000
0100
1000
,
0010
0100
0002
0000
,
0003
0000
1000
0010
,
1000
0020
0000
0000
,
0000
0030
0000
0000
1000
0000
0010
0000
,
0100
0000
0001
1000
,
0010
1000
0010
0100
,
0001
0100
0001
1000
,
0010
0100
0001
1000
,
0010
1000
0010
1000
,
0100
1000
0010
0100
,
0001
0010
0001
1000
,
0100
1000
0010
0100
,
0001
1000
0010
0000
,
1000
0000
0010
0000
,
0100
0000
0000
0000
0001
0000
0000
0001
,
0000
0000
0001
0000
1000
0000
0000
1000
,
0000
1000
1000
0010
,
0100
0001
1000
0100
,
0010
0001
2000
0000
,
0000
0000
3000
0000
;

//---------------dance-single - ----------------
#NOTES:
     dance-single:
     :
     Hard:
     12:
     0.531062,0.717858,0.459889,0.373660,0.000000,388.000000,340.000000,48.000000,39.000000,0.000000,0.000000,0.531062,0.717858,0.459889,0.373660,0.000000,388.000000,340.000000,48.000000,39.000000,0.000000,0.000000:
0000
0000
0000
0000
,
0000
0000
0000
0000
,
0000
0000
0000
0000
,
0000
0000
0000
0000
,
0000
0000
0000
0000
1000
0000
0000
0010
,
0000
0010
0000
0020
0000
0000
0000
0000
,
0030
0000
0100
0000
0002
0000
0000
0003
,
2000
0000
3200
0000
,
2300
0000
3001
0110
,
1001
1010
0110
1010
,
0110
1001
1100
1001
,
1100
0000
1001
0000
0001
1000
0010
1000
,
0001
1000
0002
0003
2002
0000
3003
0000
,
0100
0000
0001
0000
1000
0100
0010
0000
,
0001
0010
0100
0000
,
1001
0000
1000
0000
,
1100
0000
0001
1000
,
0001
0010
0001
0000
0010
0000
1000
0000
,
0010
0001
0010
0000
1001
0000
0000
0000
,
0101
0000
1001
0000
,
0100
0000
1000
0010
,
0100
0010
0100
0000
0001
0000
1000
0000
,
0100
1000
0010
0000
1000
0100
1000
0000
,
0010
0100
0001
1000
,
0100
0000
1000
0000
0100
1000
0000
0010
,
0100
0000
0001
0010
0000
0100
1000
0010
,
0000
0100
0010
0000
0010
0001
0000
0010
,
0100
0000
0001
0010
0000
0001
0010
0100
,
0000
0000
1001
0000
0100
1000
0010
1000
,
0100
1000
0010
1000
0100
1000
0010
1000
,
0100
1000
0010
1000
0010
1000
0010
1000
,
0001
1000
0001
0100
0001
0100
0001
0100
,
0010
1000
0010
1000
0010
0100
0010
0100
,
0001
0100
0010
0100
0001
0100
0010
0100
,
0001
0100
0010
0100
0001
0010
0001
0010
,
0100
1000
0100
1000
0100
0010
0001
0010
,
0100
1000
0001
0000
1001
0000
0000
0000
,
1010
0000
0010
0000
,
0100
0000
0000
0000
1001
0000
0000
0100
,
0000
0000
1000
0000
0010
0000
0000
0100
,
0000
0000
0000
0000
0001
0000
0000
0000
1000
0000
0000
0000
0002
0003
0020
0030
,
0200
0300
2000
3000
0001
0000
0000
0000
2000
3000
0200
0300
0020
0030
0002
0003
,
1000
0001
1000
0100
,
1000
0000
0010
0000
0100
0000
0001
0100
,
0001
0100
0001
0000
0201
0000
0001
0000
,
0001
0000
0001
0000
0001
0000
0001
0300
,
0001
0100
0000
0010
,
1000
0001
0100
0010
,
0100
0001
1000
0001
,
1001
0000
0010
1000
,
0001
0000
1000
0000
0200
0300
0020
0030
,
0002
0003
2000
0000
0000
3000
0020
0030
,
0200
0300
0002
0003
1000
0000
0010
0000
,
0100
0001
1000
0100
,
1000
1001
0000
0000
,
0010
0000
0200
0300
0002
0003
2000
3000
,
0000
0000
1000
0100
,
0010
0000
1000
0100
,
0010
0001
0010
0100
,
1000
0000
0010
0000
0100
0001
0100
0000
,
0010
1000
1100
1010
,
1001
1010
1100
1010
,
0101
0101
0110
1100
,
0110
0000
0011
0000
1010
0000
0100
1000
,
0100
1000
0100
0000
2000
0000
0000
0000
,
0010
3000
0000
0000
0001
0000
0100
0000
,
0010
0100
2020
0000
,
3030
0000
0000
0000
0001
0010
0100
1000
,
0010
0000
0000
0000
1000
0010
1000
0001
,
1000
0010
1000
0001
1000
0010
1000
0001
,
1000
0010
1000
0000
0002
0000
0000
0000
,
0203
0000
0320
0000
,
2030
0000
3100
0000
1000
0100
1000
0010
,
1000
0100
1000
0010
1000
0100
1000
0010
,
1000
0100
1000
0010
1000
0000
0000
0000
,
1010
0101
2002
3003
,
0220
0330
0101
0000
,
1001
0000
1100
0000
,
0110
0000
0000
0000
1000
0000
0000
0100
,
0000
0000
0010
0000
0001
0000
0000
1000
,
0000
0000
0100
0000
1000
0000
0100
1000
,
0100
1000
0010
0000
0100
0010
0100
0010
,
0100
1001
0201
0000
,
0000
0300
0000
0000
;

//---------------dance-single - ----------------
#NOTES:
     dance-single:
     :
     Easy:
     2:
     0.119078,0.237130,0.009581,0.182039,0.000000,87.000000,86.000000,1.000000,19.000000,0.000000,0.000000,0.119078,0.237130,0.009581,0.182039,0.000000,87.000000,86.000000,1.000000,19.000000,0.000000,0.000000:
0000
0000
0000
0000
,
0000
0000
0000
0000
,
0000
0000
0000
0000
,
0000
0000
0000
0000
,
0000
0000
0000
0000
,
0000
0000
0000
0000
,
0000
0000
0000
0000
,
0000
0000
0000
0000
,
0000
0000
0000
0000
,
0000
0000
0000
0000
,
0000
0000
0000
0000
,
0000
0000
0000
0000
,
0000
0000
1000
0000
,
0000
0000
0000
0000
,
0000
0000
0010
0000
,
0010
0000
0010
0000
,
0010
0000
0020
0000
,
0030
0000
0000
0000
,
0000
0000
0100
0000
,
0100
0000
0100
0000
,
0100
0000
0200
0000
,
0300
0000
0000
0000
,
0000
0000
0001
0001
,
0001
0000
0001
0000
,
0001
0000
0002
0000
,
0000
0000
0003
0000
,
0000
0000
0000
0000
,
0000
0000
0000
0000
,
0000
0000
2000
3000
,
2000
0000
3000
2000
0000
0000
0000
0000
,
0000
3000
0000
0000
0001
0000
0000
0000
,
0100
0000
0001
0000
,
1000
0000
0002
0003
,
0002
0000
0003
0002
0000
0000
0000
0000
,
0003
0000
0001
0000
,
0001
0000
0001
0000
,
0001
0000
1000
0000
,
0001
0000
1000
0000
,
0001
0000
1000
0000
,
0000
0000
0010
0000
,
0000
0000
0200
0000
,
0000
0000
0000
0000
,
0000
0000
0000
0300
0000
0000
0000
0000
,
0000
0000
0000
0000
,
0000
0000
2002
0000
,
0000
0000
0000
0000
,
0000
0000
0000
3003
0000
0000
0000
0000
,
1000
0000
0000
0000
,
0001
0000
0000
0000
,
1000
0000
0000
0000
,
0010
0000
0000
0000
,
1000
1000
0000
0000
,
2000
3000
0020
0000
,
0000
0000
0030
0000
,
0010
0010
0000
0000
,
0000
0000
0100
0000
,
0000
0000
0100
0000
,
0000
0000
0100
0000
,
0000
0100
0000
0000
,
0010
0000
0100
0000
,
0000
0000
0001
0000
,
1000
0000
0001
0000
,
1000
0000
0001
0000
,
1000
0000
0001
0000
,
0001
0000
0001
0000
,
0000
0000
0100
0000
,
0200
0300
0200
0000
,
0300
0000
0000
0000
,
0000
0000
0001
0000
,
0000
0000
0000
0002
0000
0000
0000
0003
,
0000
0000
1000
0000
,
1000
0000
1000
0000
,
1000
0000
0010
0000
,
0000
0000
0000
0020
0000
0000
0000
0000
,
0030
0000
0100
0000
,
0100
0000
0100
0000
,
0100
0000
0010
0000
,
0010
0000
0010
0000
,
0010
0000
0010
0000
,
0000
0000
0010
0000
,
0000
0000
0020
0000
,
0000
0000
0000
0000
,
0000
0000
0030
0000
;
