#TITLE:Pegasus Forever;
#SUBTITLE:Saint Seiya Hades Opening 2;
#ARTIST:Marina del Ray;
#TITLETRANSLIT:;
#SUBTITLETRANSLIT:;
#ARTISTTRANSLIT:;
#GENRE:;
#CREDIT:Magna Trick;
#BANNER:PFBN.jpg;
#BACKGROUND:PFBG.jpg;
#LYRICSPATH:;
#CDTITLE:Magna Trick title!.png;
#MUSIC:Pegasus Forever.mp3;
#OFFSET:-0.006734;
#SAMPLESTART:64.160004;
#SAMPLELENGTH:14.000000;
#SELECTABLE:YES;
#BPMS:0.000000=82.500000
,22.000000=330.000000
,25.000000=165.000000
;
#STOPS:184.000000=0.180000,
184.500000=0.180000,
185.000000=0.180000,
185.500000=0.190000
;
#BGCHANGES:0.063=Pegasus Forever.avi=1.000=0=0=1=====,
219.000=PFBG.jpg=1.000=0=0=1=====,
99999=-nosongbg-=1.000=0=0=0 // don't automatically add -songbackground-
;
#KEYSOUNDS:;
#ATTACKS:;

//---------------dance-single - ----------------
#NOTES:
     dance-single:
     :
     Hard:
     10:
     0.523004,0.662119,0.296840,0.604675,0.236373,333.000000,306.000000,27.000000,55.000000,0.000000,0.000000,0.523004,0.662119,0.296840,0.604675,0.236373,333.000000,306.000000,27.000000,55.000000,0.000000,0.000000:
0000
0000
0000
0000
0000
0000
0000
0000
0000
0002
0000
0100
0000
0010
0000
0100
,
0000
0010
0000
0100
0000
0010
0000
0103
0000
2000
0000
0010
0000
0100
0000
0010
,
0000
0100
0000
0010
0000
0100
0000
3010
0000
0200
0000
0001
0000
1000
0000
0001
,
0000
1000
0000
0001
0000
1000
0000
0301
0000
0020
0000
1000
0000
0001
0000
1000
,
0000
0001
0000
1000
0000
0001
0000
1030
0000
0002
0000
0100
0000
1000
0000
0100
,
0000
1000
0000
0100
0000
1000
0000
0003
0220
0000
0000
0000
0000
0000
0000
0000
,
0000
0000
0000
0000
0330
0000
0001
1000
0000
0000
0100
0010
0000
0000
0220
0000
,
0000
0000
0000
0330
0100
1000
0001
0210
,
0000
0000
0000
0000
0310
1000
0100
0120
,
0000
0000
0001
0000
0031
0000
1000
0000
0001
1000
0001
0000
0100
0000
0210
0000
,
0000
0000
0000
0000
0310
0100
0001
0020
,
0000
0000
0000
0230
0000
0000
0300
1000
,
0200
0000
0000
0300
0010
0001
0100
0010
,
0000
1000
0100
0010
0000
0001
1000
0020
,
0000
0000
0130
0000
0001
1000
0100
1000
,
0002
0023
0230
2300
,
3020
0000
1000
1000
2030
0000
3010
0000
,
1000
0100
0010
0002
0000
0103
0010
1000
,
0200
0000
0010
0010
0320
0001
0030
0100
,
0010
0000
0010
1000
0100
1000
0010
0100
,
0002
0000
0100
0003
2000
0000
0010
3000
,
0100
0010
0010
0001
0001
0010
0100
1000
,
1001
0000
0100
0000
0010
0100
0001
1000
,
0200
0000
0001
0300
0020
0000
1000
0030
,
0001
0000
1000
0010
0200
0001
0301
1000
,
1000
0100
1000
0001
0100
0010
0010
0100
,
0020
0000
1030
0100
0001
0100
0000
1000
,
0100
0000
0010
0001
0100
0010
1000
0001
,
0200
0000
0010
0300
0002
0000
1000
0003
,
0100
0010
0010
0010
0001
0001
0010
0100
,
1100
0000
0001
0000
1000
0010
0000
1100
,
0000
0101
0000
1100
0000
0001
0010
1000
,
0010
0000
0002
0000
2003
0000
3020
0030
,
0110
0000
1000
0100
0002
0000
0013
0000
,
0110
0000
0001
1000
0010
0100
0001
0010
,
0100
0010
0001
0200
0000
0310
0100
0000
,
0100
0001
0100
0010
1000
0100
0010
0000
,
0002
1000
0000
1000
,
1003
0000
0000
1000
0000
0000
0220
0000
0000
0000
0330
0000
1001
0000
0000
0000
,
1010
0000
0011
0000
0110
0010
0000
2000
,
0000
3002
0000
0023
0000
0000
0000
0030
,
1100
0000
0101
0000
0110
0100
0000
0020
,
0000
2030
0000
3002
0000
0013
0001
0100
,
0020
0000
1000
0030
0000
1100
1000
0100
,
0001
0100
1000
1100
0000
0010
0200
0000
,
2300
0000
0000
0000
3002
0000
0000
0003
,
1010
1100
0011
0101
0010
1000
0001
1000
,
0010
1000
0001
0010
0001
1000
0001
0100
,
0110
0000
0010
0000
0100
0001
0100
1000
,
0100
0010
1000
0100
0010
0001
0010
0100
,
1000
0001
0200
0000
0320
0000
1030
0000
,
0001
0100
0010
0100
0001
0001
1000
0000
,
0100
0010
0000
0001
0020
0000
0100
0000
,
1000
0000
0031
0000
0100
0100
0100
0100
,
0000
0010
0010
0020
0000
0000
0030
0000
;

//---------------dance-single - ----------------
#NOTES:
     dance-single:
     :
     Challenge:
     16:
     0.749168,0.993178,0.340817,0.340817,0.588184,477.000000,446.000000,31.000000,31.000000,0.000000,0.000000,0.749168,0.993178,0.340817,0.340817,0.588184,477.000000,446.000000,31.000000,31.000000,0.000000,0.000000:
// measure 0
0000
0000
0000
0000
0000
0000
0000
0000
0000
1000
0100
0010
0001
1000
0100
0010
,  // measure 1
0001
0100
1000
0100
0001
0100
1000
0100
0001
0010
0100
1000
0001
0010
0100
1000
,  // measure 2
0001
0010
1000
0010
0001
0010
1000
0010
0001
1000
0010
0100
0001
1000
0010
0100
,  // measure 3
0001
0100
1000
0100
0001
0100
1000
0100
0001
0010
0100
1000
0001
0010
0100
1000
,  // measure 4
0001
1000
0010
0100
0001
1000
0010
0100
0001
1000
0001
0010
0100
1000
0010
0100
,  // measure 5
0001
1000
0100
0020
0000
0000
0030
0000
0220
0000
0000
0000
0000
0000
0000
0000
,  // measure 6
0000
0000
0000
0000
0000
0000
0330
0000
0000
1000
0001
0000
0000
0000
0000
0010
0100
0000
0000
0000
0000
0220
0000
0000
,  // measure 7
0000
0000
0000
0330
0010
0001
1000
0120
,  // measure 8
0000
0000
0000
0000
0130
0001
0010
0210
,  // measure 9
0000
0000
1000
0000
1300
0000
0001
0000
1000
0001
1000
0000
0010
0000
0120
0000
,  // measure 10
0000
0000
0000
0000
0100
0000
0000
0000
0130
0000
0010
0000
1000
0000
0100
0010
,  // measure 11
0100
0000
0010
0000
0001
0000
0010
0100
0010
0000
0100
0000
1000
0000
0001
0000
,  // measure 12
0020
0000
0000
0000
0100
0000
1030
0100
1000
0000
0010
0000
0100
0000
0002
0000
,  // measure 13
0000
1003
0010
0100
0001
0001
0001
2000
,  // measure 14
0000
0000
0000
0000
3010
0000
1000
0001
1000
0000
0001
0000
0010
0000
0001
0000
,  // measure 15
1000
0000
0000
1000
0100
0000
0000
0100
0010
0000
0000
0010
0001
0000
0000
0001
,  // measure 16
0100
0000
0010
0000
1000
0000
0001
0000
0001
1000
0010
0000
0100
0000
0001
1000
,  // measure 17
0001
0010
0100
2000
0000
3010
0100
0001
,  // measure 18
0020
0000
0000
0000
0100
0000
0130
0000
1000
0001
1000
0000
0010
0000
0100
0000
,  // measure 19
0001
1000
0001
0000
1000
0000
0002
0000
0000
0000
0013
0000
0010
0000
0100
0000
,  // measure 20
1000
0000
0010
0000
0100
0000
0001
0100
0001
0000
0010
0000
0100
0000
1000
0000
,  // measure 21
0010
0000
0100
0010
0100
0001
0100
0010
1000
0100
0010
0001
1000
0000
0100
0010
,  // measure 22
1001
0000
0000
0000
0001
0000
0100
0001
0100
0010
1000
0000
0100
0000
0010
0001
,  // measure 23
0010
0000
0000
0010
0100
0000
0000
0100
1000
0000
0000
1000
0001
0000
0000
0001
,  // measure 24
0100
0000
0010
0000
1000
0100
1000
0000
0010
0000
1000
0001
1000
0000
0001
0000
,  // measure 25
0001
0010
0100
0000
1000
0000
0002
0000
0000
0000
0103
0000
0100
0000
0010
0000
,  // measure 26
0100
0000
0001
0100
0001
0000
0010
0000
1000
0010
1000
0000
0010
0000
0001
0010
,  // measure 27
0001
0000
0010
0000
0100
1000
0002
0000
0000
0000
1000
0000
1003
0000
1000
0000
,  // measure 28
0010
0000
0000
0010
0100
0000
0000
0100
0001
0000
0000
0001
1000
0000
0000
1000
,  // measure 29
0100
0000
0010
0001
0010
0001
0010
0100
1000
0000
0001
0000
0100
0010
0100
0001
,  // measure 30
1001
0000
0000
1000
0100
0000
0000
0100
0010
0000
0000
0010
0001
0000
0011
0000
,  // measure 31
0000
1010
0000
0011
0000
1000
0100
0001
,  // measure 32
0100
0000
0000
0100
1000
0000
0000
1000
0001
0000
0000
0001
0010
0000
0000
0000
,  // measure 33
0110
0000
0000
0000
0001
0000
0010
0000
2000
0000
0000
0000
3010
0000
0001
1000
,  // measure 34
0001
0000
1000
0001
0100
0010
1000
0100
,  // measure 35
0010
0100
1000
0020
0000
0130
0010
1010
,  // measure 36
1000
0000
0010
0000
0100
0000
0001
0000
0010
0100
0010
0000
0100
0000
0000
0000
,  // measure 37
2000
0000
0001
0000
0000
0000
0001
3000
,  // measure 38
1100
0000
0000
0101
0000
0000
0220
0000
0000
0000
0330
0000
1001
0000
0000
0000
,  // measure 39
0001
0000
0000
0001
0010
0000
0000
0010
1000
0000
0010
0000
0001
0000
1000
0000
,  // measure 40
0100
0001
1000
0020
0001
0000
0130
0000
,  // measure 41
1000
0000
0000
1000
0100
0000
0000
0100
0001
0000
1000
0000
0010
0000
0001
0000
,  // measure 42
1000
0100
0001
2000
0100
3010
0010
0001
,  // measure 43
0200
0000
0000
0000
0001
0000
0300
0000
0010
0100
0010
0000
0001
0000
0100
0000
,  // measure 44
0010
0010
1000
1010
0000
0100
0020
0000
,  // measure 45
2030
0000
0000
0000
3002
0000
0000
0003
,  // measure 46
0101
0000
0011
0000
1100
0000
1010
0000
0100
0000
0001
0000
1000
0000
0001
0100
,  // measure 47
0010
0100
0001
0000
1000
0000
0100
1000
0100
0000
0010
0000
0001
0000
0010
0100
,  // measure 48
0010
0000
0100
0000
1000
0000
0000
0000
0010
0000
1000
0000
0010
0000
0001
0010
,  // measure 49
0100
0010
0001
0000
0010
0000
1000
0100
1000
0000
0100
0000
0010
0000
0001
0010
,  // measure 50
0001
0000
1000
0000
0020
0000
0000
0000
0230
0000
0000
0000
0301
0000
1000
0100
,  // measure 51
1000
0010
0100
0010
1100
1100
1001
0001
,  // measure 52
0010
0100
1000
1000
0200
0000
0010
0000
,  // measure 53
0001
0000
0000
0000
1300
0100
1000
0000
0110
0000
1010
0000
0110
0000
1010
0000
,  // measure 54
0000
0110
0101
0210
0000
0000
0300
0000
;

//---------------dance-single - ----------------
#NOTES:
     dance-single:
     :
     Medium:
     7:
     0.408352,0.511637,0.208888,0.329823,0.219882,260.000000,241.000000,19.000000,30.000000,0.000000,0.000000,0.408352,0.511637,0.208888,0.329823,0.219882,260.000000,241.000000,19.000000,30.000000,0.000000,0.000000:
0000
0000
0000
0000
0000
0000
0000
0000
0000
0001
0000
0100
0000
0010
0000
0100
,
0000
0010
0000
0100
0000
0010
0000
0100
0000
0001
0000
0010
0000
0100
0000
0010
,
0000
0100
0000
0010
0000
0100
0000
0010
0000
1000
0000
0100
0000
0010
0000
0100
,
0000
0010
0000
0100
0000
0010
0000
0100
0000
0001
0000
0010
0000
0100
0000
0010
,
0000
0100
0000
0010
0000
0100
0000
0010
0000
0001
0000
0100
0000
0010
0000
0100
,
0000
0010
0000
0100
0000
0010
0000
0000
0220
0000
0000
0000
0000
0000
0000
0000
,
0000
0000
0330
0001
0000
1000
0000
0220
,
0000
0000
0000
0330
0001
1000
0000
0200
,
0000
0000
0000
0300
0010
0001
0010
0002
,
0000
0000
0003
2000
0000
3001
0010
0200
,
0000
0000
0000
0000
0310
0100
1000
0020
,
0000
0000
0000
0230
0000
0000
0300
0000
,
2000
0000
0000
0000
3010
0100
0010
0100
,
0000
0001
1000
0001
0000
1000
0001
2000
,
0000
3000
0001
0000
1000
0000
0010
0000
,
0100
0001
1000
0100
,
0010
0000
0100
0010
0100
0000
0010
0000
,
0001
1000
0010
0001
,
0010
1000
0100
0001
,
0100
1000
0010
1000
,
0100
0100
1000
1000
,
0001
0100
0001
0100
0001
0100
0001
0100
,
0010
0100
0001
1000
,
0100
0010
0001
0010
,
0100
0000
1000
0001
1000
0000
0010
0000
,
0100
0000
0001
0000
1000
0000
0100
0010
,
0100
0000
1000
0001
1000
0000
0001
0000
,
0100
0000
0010
0000
0001
0000
0001
0010
,
1000
0100
1000
0001
,
0010
0100
0010
0100
0010
0100
0010
0100
,
1000
0000
0001
0000
0100
0001
0000
0100
,
0000
0010
0000
1000
0000
0100
1000
0100
,
1000
0001
0010
0100
,
2000
0000
3002
0000
,
0103
0010
0100
0001
,
2000
0000
0000
3100
0000
0010
0001
0000
,
2000
0000
0000
0000
0000
3000
0001
0000
,
0002
1000
0000
1000
,
1003
0000
0000
1000
0000
0000
2000
0000
0000
0000
3000
0000
1001
0000
0000
0000
,
1010
0000
0011
0000
0110
0000
0000
1100
,
0000
0101
0000
0220
0000
0330
0000
0000
,
1100
0000
0101
0000
0110
0000
0000
1010
,
0000
0011
0000
0110
0000
0010
0001
0000
,
2000
0000
0000
3000
0000
0000
1000
0000
,
0001
0000
1000
0200
0000
0300
0200
0000
,
2300
0000
0000
0000
3002
0000
0000
0003
,
1001
0110
1001
0110
0001
0000
1000
0000
,
0100
1000
0000
0001
0000
0001
0000
0020
,
0000
0030
0100
1000
,
0001
0100
0000
0010
0000
0010
0000
2000
,
0000
3001
0020
0000
,
0030
0100
1000
0000
0001
0100
0001
0100
,
0010
0100
0000
0001
0020
0000
0100
0000
,
1000
0000
0031
0000
0100
0100
0100
0100
,
0000
0010
0010
0020
0000
0000
0030
0000
;

//---------------dance-single - ----------------
#NOTES:
     dance-single:
     :
     Easy:
     4:
     0.230876,0.452475,0.076959,0.329823,0.005497,147.000000,140.000000,7.000000,30.000000,0.000000,0.000000,0.230876,0.452475,0.076959,0.329823,0.005497,147.000000,140.000000,7.000000,30.000000,0.000000,0.000000:
0000
0000
0000
0000
,
0000
0000
0000
0000
,
0000
0000
0000
0000
,
0000
0000
0000
0000
,
0000
0000
0000
0000
,
0000
0000
0220
0000
,
0000
0000
0330
1000
0000
1000
0000
0002
,
0000
0000
0000
0000
0013
0000
0100
2000
,
0000
0000
0000
0000
3001
0000
0100
0020
,
0000
0000
0000
1030
0000
0001
0000
1000
,
0000
0000
0000
0000
0001
0000
0010
0200
,
0000
0000
0000
2300
0000
0000
0000
3000
,
0002
0000
0000
0000
0103
0010
0000
0100
,
0000
0001
0000
1000
0000
0001
1000
0002
,
0000
0000
0003
0000
,
1000
1000
0001
0001
,
0200
0000
0320
0000
,
0000
0030
0000
0000
,
2000
0000
3002
0000
,
0000
0003
0000
0000
0000
0000
0010
0000
,
0200
0000
0000
0000
2300
0000
0000
3000
,
0002
0000
0000
0000
0000
0000
0000
0003
,
0100
0000
0000
0000
0000
0010
0100
0000
,
0010
0100
0001
1000
,
0200
0000
0320
0000
,
0000
0030
0000
0000
0000
0000
0001
0000
,
2000
0000
0000
3000
0020
0000
0000
0000
,
0000
0030
0000
0000
0000
0000
0100
0000
,
0002
0000
0023
0000
,
0230
0000
0000
0300
,
1000
1000
0001
0001
,
1000
0001
1000
0010
,
0100
0010
0010
0100
,
0100
0010
0100
0000
,
0000
0001
1000
0100
,
0010
0000
0010
0001
,
2000
0000
0000
0001
,
3002
1000
1000
1003
,
0100
0000
0000
0100
0000
0000
0200
0000
0000
0000
0300
0000
0000
0000
0000
0000
,
0010
0100
0010
0100
,
0001
0001
0001
0000
,
0010
0100
0010
0100
,
1000
1000
1000
0001
,
2000
0000
0000
0000
0000
3000
0010
0000
,
0100
0001
1000
0100
,
0110
0000
1001
0000
,
0110
0110
0110
0110
0010
0000
1000
0000
,
0001
0100
0010
0010
,
0010
0000
1000
0100
,
0010
0001
1000
1000
,
1000
0001
0200
0000
,
0300
0000
0010
0100
,
0001
1000
0000
0001
2000
0000
0000
0000
,
0000
0000
0000
3000
0010
0010
0010
0010
,
0000
0100
0100
0200
0000
0000
0000
0300
;
