#TITLE:Pegasus Fantasy;
#SUBTITLE:Saint Seiya Opening;
#ARTIST:Make-Up;
#TITLETRANSLIT:;
#SUBTITLETRANSLIT:;
#ARTISTTRANSLIT:;
#GENRE:;
#CREDIT:Magna Trick;
#BANNER:PFANBN.jpg;
#BACKGROUND:PFANBG.jpg;
#LYRICSPATH:;
#CDTITLE:Magna Trick title!.png;
#MUSIC:Pegasus Fantasy.mp3;
#OFFSET:-0.114346;
#SAMPLESTART:55.950001;
#SAMPLELENGTH:14.000000;
#SELECTABLE:YES;
#BPMS:0.000000=163.309998
,137.500000=326.600006
,140.500000=163.309998
,155.000000=326.600006
,158.000000=163.309998
,172.500000=326.600006
,175.500000=163.309998
,190.000000=326.600006
,192.000000=163.309998
,195.000000=326.600006
,197.000000=163.309998
,217.000000=160.000000
;
#STOPS:198.500000=0.195000
;
#BGCHANGES:0.063=Pegasus Fantasy.avi=1.000=0=0=1=====,
233.000=PFANBG.jpg=1.000=0=0=1=====,
99999=-nosongbg-=1.000=0=0=0 // don't automatically add -songbackground-
;
#KEYSOUNDS:;
#ATTACKS:;

//---------------dance-single - ----------------
#NOTES:
     dance-single:
     :
     Hard:
     12:
     0.622136,0.754946,0.187310,0.362913,0.081948,372.000000,356.000000,16.000000,31.000000,0.000000,0.000000,0.622136,0.754946,0.187310,0.362913,0.081948,372.000000,356.000000,16.000000,31.000000,0.000000,0.000000:
0000
0000
0000
0000
,
0001
1000
0100
1000
0000
0001
0100
0001
,
0000
1000
0100
1000
0000
0001
0100
0000
,
0001
0010
0001
0010
0000
0100
1000
0200
,
0000
0000
0000
0000
0000
0000
0010
0000
0000
0000
0000
1000
0000
0000
0300
0000
,
1000
0001
0100
0001
0000
1000
0100
1000
,
0000
0001
0010
0001
0000
1000
0010
0000
,
1000
0010
0100
0001
0000
0001
0010
0100
,
1000
0001
1000
0001
1000
0000
0010
0100
0000
0100
0010
0000
1000
0001
1000
0000
,
0100
0010
0100
0010
0001
0000
2000
0000
0000
0000
3010
0000
0010
0000
0100
0000
,
0001
0010
1000
0010
0001
0010
1000
0010
,
0001
0010
1000
0010
0010
0001
0100
0100
,
0010
1000
0100
0010
0001
0010
1000
0010
,
0001
0010
1000
0010
0001
0010
0010
0100
,
1000
0010
1000
0100
1000
0010
0100
0001
,
0100
0010
0100
0001
0100
0010
0010
0100
,
0001
0001
0002
0000
0103
0010
1000
0200
,
0010
0000
0310
0000
0001
0100
0010
1000
,
0100
0010
1000
0010
0001
0010
1000
0010
,
0001
0010
1000
0010
0001
0100
0010
1000
,
0001
0010
1000
0010
0001
0010
1000
0010
,
0001
0010
1000
0010
0001
0010
0100
1000
,
0100
0010
0001
0020
0000
0130
1000
0001
,
0100
1000
0100
0001
0010
1000
0010
0001
,
1000
0010
0100
0001
1000
0010
0100
2001
,
0000
0001
0001
3000
0200
0000
0320
0000
,
2030
0000
3100
0100
1000
0001
0100
0010
,
1000
0000
1000
0100
0000
0010
0001
0010
,
0110
0100
0100
0000
0110
0010
0010
0000
,
0110
0100
0100
0000
0110
0010
0010
0001
,
1000
0100
1000
0001
0100
0010
1000
0001
,
0100
0001
0001
0010
0000
0010
0100
1000
,
0001
0100
0010
1000
0100
1000
0010
0100
,
0001
1000
0000
0001
1000
0001
0000
1000
0001
0000
0000
0000
0020
0000
0000
0000
,
0130
0020
0030
2002
0000
0000
0000
0000
,
0000
3003
0010
0001
0010
1000
0010
0001
,
0010
1000
0010
0001
0010
1000
0100
0010
,
0001
0010
0100
1000
0100
0010
0001
0010
,
0100
1000
0010
0001
0010
1000
2200
0000
,
0000
0000
0000
0000
3300
0100
2000
0000
,
3002
0000
0103
0010
0100
0001
1000
1000
,
1000
1000
0010
0100
0001
0010
0100
0100
,
1000
0002
0000
0103
0010
0100
0001
1000
,
0100
2002
0000
0000
0000
0000
0000
3003
,
0100
2000
0000
3002
0000
0203
0000
0320
,
0000
0130
0200
0000
0302
0000
0000
1000
,
0000
0000
0000
1000
0003
0001
1000
0001
,
0100
0010
1000
0001
0220
0000
0000
0000
,
0330
0010
1000
0100
0010
0001
0220
0000
,
0000
0000
0330
1000
0001
1001
0010
0000
,
0100
0001
0100
0000
0110
0000
0001
1000
,
0100
0000
0000
0010
0000
0000
0001
0000
0010
0000
0000
0000
0100
0000
1000
0000
,
0001
0000
0000
0100
0000
0000
0010
0000
1000
0000
0000
0000
0001
0000
0000
0000
,
0110
0000
0001
0010
0000
0100
1000
0000
,
0001
0100
0001
0000
1100
0010
0100
1001
,
0100
0010
0102
0000
0000
0000
0000
0000
,
0000
0000
0000
0000
,
0000
0000
0000
0000
,
0000
0000
0000
0000
0000
0003
0000
0000
;

//---------------dance-single - ----------------
#NOTES:
     dance-single:
     :
     Challenge:
     14:
     0.705756,0.823578,0.351206,0.456568,0.169749,422.000000,392.000000,30.000000,39.000000,0.000000,0.000000,0.705756,0.823578,0.351206,0.456568,0.169749,422.000000,392.000000,30.000000,39.000000,0.000000,0.000000:
0000
0000
0000
0000
,
1001
0001
0010
0002
0000
1003
0010
2000
,
0000
3001
0010
0002
0000
1003
0010
1001
,
1001
0100
1000
0200
0000
0310
0001
0010
,
0100
1000
0100
1000
0100
1000
0100
0010
0001
1000
0100
0010
0001
0000
0000
0000
,
0001
1000
0010
2000
0000
3001
0010
0002
,
0000
1003
0010
2000
0000
3001
0200
0000
,
0301
0100
0010
1000
0000
1001
1001
0010
,
0001
1000
0100
1000
0001
0000
0100
0010
0000
0010
0100
0000
0001
1000
0001
0000
,
0010
0100
1000
0001
1000
0000
0002
0000
0000
0000
0103
0000
0100
0000
0010
0000
,
1000
0100
0001
0100
2000
3200
0302
0203
,
1300
0100
0001
0100
0100
1000
0010
0010
,
0100
0001
0001
1000
1000
0100
0001
0100
,
1000
0100
0001
0100
1000
0100
0100
0110
,
0001
0100
0001
0010
0001
0100
0100
0110
,
0010
0100
0010
1000
0010
0100
0100
0010
,
1000
1000
2010
0000
3010
0100
0001
0120
,
0100
0000
0130
0000
1000
0010
0100
0001
,
0010
0100
0001
0100
1000
0100
0001
0100
,
1000
0100
0001
0100
1000
0010
0100
0001
,
1000
0100
0001
0100
1000
0100
0001
0100
,
1000
0100
0001
0100
1000
0100
0010
0001
,
0010
0100
1000
0200
0000
0310
0001
1000
,
0010
0001
0010
1000
0100
0001
0100
1000
,
0001
0100
0010
1000
0001
0100
0010
1002
,
0000
0000
1000
0000
1000
0000
0003
0000
0010
0000
0100
1000
0001
0100
0010
1000
,
0002
0000
0013
0010
0001
1000
0010
0100
,
0001
1000
0001
0010
0000
0100
1000
0100
,
0110
0010
0110
0000
0110
0100
0110
0000
,
0110
0010
0110
0000
0110
0100
0110
1000
,
0001
0010
0001
1000
0010
0100
0001
1000
,
0010
1000
1000
0200
0300
0100
0010
0001
,
1100
0010
0100
0011
1000
0010
1001
0100
,
1000
0001
0000
1000
0001
1000
0000
0001
1000
0000
0000
0000
0200
0000
0000
0000
,
0310
0200
0300
2002
0000
0000
0000
0000
,
0000
3003
0100
1000
0100
0001
0100
1000
,
0100
0001
0100
1000
0100
0001
0010
0100
,
1000
0100
0010
0001
0010
0100
1000
0100
,
0010
0000
0001
0000
0100
0000
1000
0000
0100
0001
0010
0000
0022
0000
0000
0000
,
0000
0000
0000
0000
0033
0010
0002
0000
,
2003
0000
3010
0100
0010
1000
0001
0001
,
0001
0001
0100
0010
1000
0100
0010
0010
,
0001
0000
2000
0000
0000
0000
3010
0000
0100
0000
0010
0000
1000
0000
0001
0010
,
0100
2002
0000
0000
0000
0000
0000
3003
,
0010
0002
0010
0203
1000
0302
0010
0203
,
1000
0301
0020
0100
1030
0010
1000
0010
,
1000
0010
1000
0010
1000
0001
0100
0010
,
0010
0000
0100
0000
0001
1000
0010
0000
0220
0000
0000
0000
0000
0000
0000
0000
,
0330
0100
0001
0010
0100
1000
0210
0000
,
0000
0000
0300
0001
1000
1001
0100
0000
,
0010
1000
1010
0000
0110
0000
1000
0001
,
0010
0000
0000
0100
0000
0000
1000
0000
0100
0000
0000
0000
0010
0000
0001
0000
,
1000
0000
0000
0010
0000
0000
0100
0000
0001
0000
0000
0000
1000
0000
0000
0000
,
0110
0000
1000
0100
0000
0010
0001
0000
,
1000
0000
0010
0000
1000
0000
0000
0000
0001
0010
0100
1000
0001
0000
0001
0010
,
0100
1000
0001
0000
2000
0000
0000
0000
0000
0000
0000
0000
0000
0000
0000
0000
,
0000
0000
0000
0000
,
0000
0000
0000
0000
,
0000
0000
0000
0000
0000
3000
0000
0000
;

//---------------dance-single - ----------------
#NOTES:
     dance-single:
     :
     Medium:
     6:
     0.352878,0.481445,0.105362,0.257551,0.000000,211.000000,202.000000,9.000000,22.000000,0.000000,0.000000,0.352878,0.481445,0.105362,0.257551,0.000000,211.000000,202.000000,9.000000,22.000000,0.000000,0.000000:
// measure 0
0000
0000
0000
0000
,  // measure 1
0000
0000
0000
0000
,  // measure 2
0000
0000
0000
0000
,  // measure 3
0000
0000
0000
0000
0000
0000
0000
2000
,  // measure 4
0000
0000
0000
0000
0000
0000
0000
3000
,  // measure 5
0001
0010
0001
0010
0000
0100
0010
0100
,  // measure 6
0000
1000
0100
1000
0000
0010
1000
0000
,  // measure 7
0010
1000
0010
1000
0000
0010
0100
0001
,  // measure 8
0000
0100
0001
0000
0100
0000
0001
0000
,  // measure 9
1000
0001
1000
0000
0001
0000
0010
0000
,  // measure 10
0100
0010
0100
0000
0010
0000
0001
0000
,  // measure 11
1000
0000
0010
0000
0100
0010
0100
0000
,  // measure 12
0001
0100
0001
0000
1000
0000
0100
0000
,  // measure 13
0010
0100
1000
0001
,  // measure 14
1000
0001
1000
0000
0010
0000
0100
0000
,  // measure 15
0010
0100
0010
0000
0100
0000
0001
0000
,  // measure 16
1000
0001
1000
0000
0001
0000
0010
0000
,  // measure 17
0100
0010
0100
0000
1000
0000
0001
0000
,  // measure 18
0100
0100
0010
0010
,  // measure 19
1000
0000
0001
0000
0010
0001
0010
0000
,  // measure 20
0100
1000
0001
0100
,  // measure 21
0010
0000
0100
0000
0001
1000
0001
1000
,  // measure 22
0000
0001
1000
0001
0000
0000
1000
0000
,  // measure 23
0100
0010
0001
0010
,  // measure 24
0100
0000
0100
0000
1000
0000
0001
1000
,  // measure 25
0000
0001
1000
0000
0010
0000
0100
0000
,  // measure 26
0001
0001
1000
1000
,  // measure 27
0001
0000
1000
0100
0000
1000
0001
0000
,  // measure 28
0100
0100
0010
0010
,  // measure 29
0100
0100
0010
0010
,  // measure 30
0100
0001
1000
0100
,  // measure 31
0010
0001
0010
0100
,  // measure 32
2000
0000
3000
0002
0000
0003
0200
0000
,  // measure 33
0000
0000
0300
0010
,  // measure 34
1000
0001
0000
2002
0000
0000
0000
0000
,  // measure 35
3003
0000
0001
1000
0000
1000
0000
0100
,  // measure 36
0000
0100
0000
0020
0000
0000
0032
0000
,  // measure 37
0000
0000
0000
0000
0000
0000
0000
0003
,  // measure 38
0000
0100
0000
0010
0100
0000
2002
0000
,  // measure 39
0000
0000
0000
3003
0000
0001
1000
0000
,  // measure 40
1000
0000
0100
0010
0001
0010
0100
0000
,  // measure 41
1000
0000
0001
0100
0001
0100
0010
0100
,  // measure 42
0000
0010
0000
1000
0001
1000
0001
1000
,  // measure 43
0000
2002
0000
0000
0000
0000
3003
0000
,  // measure 44
0100
1000
0000
0001
0000
0100
0000
0010
,  // measure 45
0000
2000
0000
0000
3200
0000
0000
0000
,  // measure 46
0000
0000
0000
0000
0000
0000
0300
0010
,  // measure 47
0000
0001
0100
0000
2002
0000
0000
0000
,  // measure 48
3003
0001
1000
0001
1000
0000
2002
0000
,  // measure 49
0000
0000
3003
0001
0000
1000
1001
0000
,  // measure 50
1000
0001
1000
0000
0100
0000
0000
0000
,  // measure 51
0010
0000
0001
0000
0200
0000
0000
0300
,  // measure 52
0010
0000
1000
0000
0200
0000
0000
0300
,  // measure 53
0020
0000
0000
0000
,  // measure 54
0000
0000
0000
0030
1001
0000
0000
1001
,  // measure 55
0000
1002
0000
0000
,  // measure 56
0000
0000
0000
0000
,  // measure 57
0000
0000
0000
0000
,  // measure 58
0000
0000
0000
0003
;

//---------------dance-single - ----------------
#NOTES:
     dance-single:
     :
     Easy:
     4:
     0.285982,0.446105,0.175603,0.199017,0.000000,171.000000,156.000000,15.000000,17.000000,0.000000,0.000000,0.285982,0.446105,0.175603,0.199017,0.000000,171.000000,156.000000,15.000000,17.000000,0.000000,0.000000:
0000
0000
0000
0000
,
0000
0000
0000
0000
,
0000
0000
0000
0000
,
0000
0000
0000
0000
,
0000
0000
0000
0000
,
0001
0001
1000
1000
,
0001
0100
0001
0100
,
1000
1000
0001
0001
,
0010
0100
0010
0100
,
0010
0100
0000
0000
,
1000
1000
0000
0001
,
0000
0100
0000
0010
,
0100
0100
0000
0001
,
0000
1000
0000
0100
,
0100
0010
0000
0001
,
0001
1000
0000
0010
,
0010
0100
0000
0001
,
0001
1000
0100
1000
,
0001
0100
0100
0100
,
0100
0010
1000
0001
,
0010
0100
0100
0100
,
0100
0100
0100
1000
,
0001
1000
0010
0000
,
0100
0001
0100
0010
,
1000
1000
0001
0001
,
0010
0100
1000
0001
,
0110
0000
0001
0001
,
1000
1000
0100
0010
,
0001
0110
0001
0110
,
1000
0110
0001
0110
,
0010
1000
0001
0100
,
0010
1000
0100
0010
,
0100
0100
0100
0100
,
0010
0100
0010
0110
,
0001
1000
0000
2002
0000
0000
0000
3003
,
0000
0000
0000
0001
0000
0001
0000
1000
,
0000
1000
0000
0001
0000
0100
0000
0010
,
0000
1000
0000
0001
0000
0010
0000
0100
,
0000
1000
0000
1000
0001
0000
2002
0000
,
0000
0000
0000
3003
0000
0000
0010
0000
,
0010
0100
0100
0002
,
0000
0000
0000
0000
0000
0003
2000
0000
,
0000
0000
3000
0001
,
0000
2002
0000
0000
0000
0000
0000
3003
,
0000
0010
0000
0010
0000
0100
0000
0100
,
0000
0020
0000
0000
0230
0000
0000
0000
,
0000
0000
0000
0000
0000
0000
0300
0001
,
0000
1000
0001
0000
2002
0000
0000
0000
,
3003
0001
0000
1000
0001
0000
2002
0000
,
0000
0000
3003
0001
0000
1001
0000
0000
,
0000
0000
0001
0000
,
1000
0100
0010
0000
,
0001
0100
0010
0000
,
2000
0000
0000
3000
,
0000
0000
0000
0000
1001
0000
0000
1001
,
0000
2002
0000
0000
,
0000
0000
0000
0000
,
0000
0000
0000
0000
,
0000
0000
0000
0000
0000
3003
0000
0000
;
