#TITLE:Peace Sign;
#SUBTITLE:Boku no Hero opening 2;
#ARTIST:Kenshi Yonezu;
#TITLETRANSLIT:;
#SUBTITLETRANSLIT:;
#ARTISTTRANSLIT:;
#GENRE:;
#CREDIT:Magna Trick;
#BANNER:PSBN.jpg;
#BACKGROUND:PSB.jpg;
#LYRICSPATH:;
#CDTITLE:Magna Trick title!.png;
#MUSIC:Peace Sign.mp3;
#OFFSET:0.019903;
#SAMPLESTART:60.000000;
#SAMPLELENGTH:11.000000;
#SELECTABLE:YES;
#BPMS:0.000000=100.019997
,16.000000=200.039993
,282.000000=100.019997
;
#STOPS:
;
#BGCHANGES:0.042=Peace Sign.avi=1.000=0=0=1=====,
281.000=PSB.png=1.000=0=0=1=====,
99999=-nosongbg-=1.000=0=0=0 // don't automatically add -songbackground-
;
#KEYSOUNDS:;
#ATTACKS:TIME=0.750000:LEN=8.850000:MODS=Overhead;

//---------------dance-single - ----------------
#NOTES:
     dance-single:
     :
     Hard:
     11:
     0.555474,0.743544,0.100272,0.144837,0.072419,349.000000,340.000000,9.000000,13.000000,0.000000,2.000000,0.555474,0.743544,0.100272,0.144837,0.072419,349.000000,340.000000,9.000000,13.000000,0.000000,2.000000:
0000
0000
0000
0000
0000
1000
0001
1000
0000
0000
0001
0010
0000
0000
0010
0100
,
1000
0001
0100
0000
0000
0000
0010
0100
0000
0000
0100
0010
0000
0000
0010
1000
,
0001
0100
0010
0000
0000
0000
1000
0010
0000
0000
0010
1000
0000
0000
0001
1000
,
0010
0100
0001
0000
0000
0000
0001
0000
1000
0000
0001
0000
1000
0000
0001
0000
,
1001
0000
0010
0100
0000
0100
0000
0010
,
0000
0010
0000
1000
0000
1000
0000
0001
,
0010
0001
0000
1000
0010
1000
0000
0001
,
0100
0010
1000
0001
0100
0010
0000
0000
,
0000
0000
0010
0100
0000
0100
0000
0001
,
0000
0001
0000
1000
0000
1000
0000
0001
,
0100
0001
0000
1000
0100
1000
0000
0010
,
0100
0001
1000
0100
0010
0001
0000
0001
,
0010
0100
1000
0000
1000
0001
0000
0001
,
0000
0000
1000
0000
0010
0100
0000
0100
,
0001
0100
0010
0000
1000
0000
0001
0000
,
1000
0000
0100
0000
0010
0100
0000
0100
,
0010
0100
0010
0000
0010
0001
0000
0001
,
0000
1000
0001
0000
0001
1000
0000
1000
,
0010
0100
0001
0000
0100
1000
0000
1000
,
0100
0020
0000
0000
0030
0000
0000
0010
,
1000
0100
0010
0000
0010
0001
0000
0001
,
0000
0010
0001
0000
0001
0010
0000
0010
,
0001
0010
0100
0000
1000
0000
0001
0000
,
0100
0000
0010
0000
1000
0001
0000
1000
,
0100
1000
0100
0000
0100
1000
0000
1000
,
0000
0100
0010
0000
0010
0100
0000
0100
,
1000
0001
0100
0000
0100
0010
0000
0010
,
1000
0002
0000
0000
0003
0000
0000
0000
,
0001
1000
0001
0000
0001
0000
0000
0000
,
1000
0001
1000
0000
1000
0000
0000
0000
,
0001
1000
0010
0000
0100
0001
0000
1000
,
0000
0200
0000
0300
0000
0000
0010
0100
,
0100
0001
0100
0000
0001
1000
0000
0001
,
0000
1000
0001
0000
0001
1000
0000
1000
,
0001
1000
0100
0000
0010
0100
0000
0010
,
0000
0002
0000
0000
0003
0000
0000
0000
,
0001
0100
0010
0000
0010
0000
0000
0000
,
0010
1000
0100
0000
0100
0000
0000
0000
,
0010
0001
1000
0000
0010
0100
0000
0001
,
0000
2000
0000
0000
3000
0000
0010
1000
,
0100
0010
0001
0000
0001
0010
0000
0000
,
0100
0000
0010
0000
0001
0100
0000
0000
,
0010
2000
0000
3002
,
0000
0000
0203
0000
0300
0010
2000
0000
,
0000
0000
3011
0011
0000
0110
0000
1100
,
0000
1001
0000
0000
1000
0000
0001
0000
,
1000
0000
1001
0000
0010
0100
0000
0100
,
0000
0001
0000
1000
0001
1000
0001
1000
,
0000
0001
0000
0010
0100
1000
0000
1000
,
0100
0010
0000
0010
0001
0100
0000
0100
,
0000
0000
0010
0000
1000
0001
0000
1000
,
0000
0001
0000
1000
0010
0100
0001
0100
,
0010
2000
0000
0000
0000
0000
0000
0000
,
0000
3000
0010
0010
,
1000
0000
1000
0000
0001
0100
0000
0100
,
0000
0001
0000
0010
0001
0010
0100
1000
,
0000
1000
0000
1000
0100
0010
0000
0010
,
0100
1000
0000
1000
0001
0100
0000
0100
,
0000
0000
0010
0000
0100
0001
0000
0001
,
0000
1000
0000
0001
0010
0100
1000
0001
,
0100
0020
0000
0000
0000
0000
0000
0000
,
0000
0030
0000
0000
,
0010
1000
0010
0000
0100
0001
0000
0001
,
0100
0010
1000
0000
1000
0100
0000
0000
,
0100
0010
0001
0000
1000
0001
0000
1000
,
0000
0001
0000
0200
0000
0000
1301
1001
,
0000
0000
0001
0100
0000
0100
0000
1000
,
0000
1000
0000
0001
0000
0001
0000
0010
,
1000
0100
0000
0100
0010
0001
0000
0010
,
0001
0100
1000
0100
0001
0020
0000
0000
,
0000
0030
0000
0000
;

//---------------dance-single - ----------------
#NOTES:
     dance-single:
     :
     Medium:
     8:
     0.455202,0.547874,0.055707,0.111413,0.000000,286.000000,281.000000,5.000000,10.000000,0.000000,0.000000,0.455202,0.547874,0.055707,0.111413,0.000000,286.000000,281.000000,5.000000,10.000000,0.000000,0.000000:
0000
0000
0000
0002
0000
1003
0000
0002
,
0000
1003
0000
0002
0000
1003
0000
0002
,
0000
1003
0000
0002
0000
1003
0000
0002
,
0000
2003
0000
0000
0000
0000
0000
0000
,
3001
0000
1000
0010
0000
0100
0000
0010
,
0000
1000
0000
0001
0000
0010
0000
0100
,
0010
0100
0000
0010
0000
0001
0000
1000
,
0000
0010
0100
0010
0100
0010
0000
0000
,
0000
0000
0010
1000
0000
1000
0000
0001
,
0000
0001
0000
0100
0000
0100
0000
0010
,
0100
0010
0000
1000
0000
0001
0000
0010
,
0000
0001
0010
0001
0010
0001
0000
0000
,
0000
0001
1000
0000
0001
1000
0000
0001
,
0000
1000
0001
0000
1000
0001
0000
1000
,
0000
0001
1000
0000
1000
0000
0001
0000
,
0001
0000
1000
0000
1000
0001
0000
0000
,
0000
0000
0010
0000
0100
0010
0000
0010
,
0000
0100
0010
0000
0010
0100
0000
0100
,
0010
0100
0010
0000
0100
0010
0000
0010
,
0100
0010
0000
0000
0000
0000
0000
0000
,
0010
1000
0010
0000
0010
1000
0000
1000
,
0000
0010
1000
0000
1000
0010
0000
0000
,
0010
1000
0010
0000
1000
0000
0010
0000
,
1000
0000
0010
0000
1000
0010
0000
0000
,
0000
0000
0001
0000
0010
0001
0000
0001
,
0000
0010
0001
0000
0001
0010
0000
0000
,
0001
0010
0001
0000
0010
0001
0000
0001
,
0010
0001
0000
0000
0000
0000
0000
0000
,
0000
1000
1000
0000
,
0000
0001
0001
0000
,
0000
0100
0010
0100
,
0010
0100
0000
0010
,
0010
1000
0001
0100
,
0010
1000
1000
0100
,
0010
0001
0010
0100
,
1000
0001
0000
0000
,
1000
1000
1000
0000
,
0001
0001
0001
0000
,
0000
1000
0010
0100
,
0001
1000
0000
0001
,
0010
0100
1000
0000
,
1000
0100
0010
0000
,
0010
0001
0000
1000
,
0000
0001
0000
1000
,
0000
0000
0110
0110
0000
0110
0000
0110
,
0000
0110
0000
0000
0010
0000
1000
0000
,
0010
0000
1000
0000
1000
0010
0000
0010
,
0000
1000
0000
0010
1000
0010
1000
0010
,
0000
0001
0000
0001
0010
0001
0000
0001
,
0010
0001
0000
0001
0010
0001
0000
0001
,
0000
0000
1000
0000
0001
1000
0000
1000
,
0000
0001
0000
1000
0001
1000
0001
1000
,
0001
2000
0000
0000
0000
0000
0000
3000
,
0000
0000
0001
0001
,
1000
0000
1000
0000
0010
1000
0000
1000
,
0000
0010
0000
0010
1000
0010
1000
0010
,
0000
0001
0000
0001
0010
0001
0000
0001
,
0010
0001
0000
0001
0010
0001
0000
0001
,
0000
0000
1000
0000
0001
1000
0000
1000
,
0000
0001
0000
0100
0010
0100
0010
0100
,
0010
0200
0000
0000
0000
0000
0000
0000
,
0000
0000
0300
0000
,
0010
1000
0010
0000
1000
0010
0000
0000
,
0001
0010
0001
0000
0010
0001
0000
0000
,
0001
1000
0001
0000
1000
0001
0000
1000
,
0000
0001
0000
1000
0000
0000
0000
0000
,
0000
0000
0010
1000
0000
1000
0000
0001
,
0000
0001
0000
0100
0000
0100
0000
0010
,
0100
0010
0000
0100
0010
0100
0000
0010
,
0100
0010
0100
0010
0100
0020
0000
0000
,
0000
0030
0000
0000
;

//---------------dance-single - ----------------
#NOTES:
     dance-single:
     :
     Easy:
     5:
     0.315140,0.390642,0.011141,0.022283,0.000000,198.000000,197.000000,1.000000,2.000000,0.000000,0.000000,0.315140,0.390642,0.011141,0.022283,0.000000,198.000000,197.000000,1.000000,2.000000,0.000000,0.000000:
0000
0000
0000
0000
,
0000
0000
0000
0000
,
0000
0000
0000
1000
0000
0001
0000
0000
,
0000
0002
0000
0000
0000
0000
0000
0000
,
0003
0000
0001
1000
0000
1000
0000
1000
,
0000
1000
0000
1000
0000
1000
0000
0000
,
0000
0000
0000
0000
,
0000
0000
0000
0000
,
0000
0000
1000
0001
0000
0001
0000
0001
,
0000
0001
0000
0001
0000
0001
0000
0000
,
0000
0000
0000
0000
,
0000
0000
0000
0000
,
0000
0001
0000
1000
,
0000
0010
0000
0100
,
0000
0001
0001
1000
,
1000
0100
0100
0010
,
0000
0001
0000
1000
,
0000
0001
0000
1000
,
0000
0010
0010
0100
,
0100
0001
0000
0000
,
0000
0010
0000
0100
,
0000
1000
0000
0001
,
0000
0100
0100
0010
,
0010
1000
0000
0001
,
0000
0010
0000
0100
,
0000
1000
0000
0010
,
0000
0100
0000
0001
,
0000
1000
0000
0001
,
0000
1000
1000
0000
,
0000
0001
0001
0000
,
0000
1000
0000
0010
,
0000
0100
0000
0010
,
0010
0010
0010
0010
,
0010
1000
1000
1000
,
1000
0001
0001
0001
,
0001
0100
0000
0000
,
0000
0010
0010
0000
,
0000
0100
0100
0000
,
0000
0010
0010
0010
,
0010
0010
0000
1000
,
1000
1000
1000
0000
,
0001
0001
0001
0000
,
1000
0001
0000
1000
,
0000
0001
0000
1000
,
0000
0000
0100
0100
0000
0100
0000
0100
,
0000
0100
0000
0000
1000
0000
0001
0000
,
1000
0001
0001
1000
,
1000
0010
0100
0001
,
1000
0100
0100
0010
,
0010
0001
0001
0010
,
0010
0100
1000
0001
,
0100
1000
0100
0001
,
0010
1000
0100
0001
,
0010
1000
0100
0001
,
1000
0001
0001
1000
,
1000
0010
0100
0001
,
1000
0001
0001
1000
,
1000
0010
0100
0001
,
1000
0100
0100
0010
,
0010
0001
0100
1000
,
0010
0001
0100
1000
,
0010
0001
0100
1000
,
0010
0001
0000
1000
,
0000
0001
0000
1000
,
0000
0010
0010
0100
,
0100
0001
1000
1001
,
0000
0001
0001
1000
,
1000
0010
0100
0001
,
1000
1000
0100
0100
,
0010
0000
0001
1000
0001
2000
0000
0000
,
0000
3000
0000
0000
0000
0000
0000
0000
;

//---------------dance-single - ----------------
#NOTES:
     dance-single:
     :
     Challenge:
     14:
     0.813316,1.138921,0.501359,0.144837,0.194973,511.000000,466.000000,45.000000,13.000000,0.000000,1.000000,0.813316,1.138921,0.501359,0.144837,0.194973,511.000000,466.000000,45.000000,13.000000,0.000000,1.000000:
// measure 0
0000
0000
0000
0000
0000
0001
1000
0001
0000
1000
0001
1000
0000
0001
0010
0100
,  // measure 1
0010
0001
1000
0010
0000
0010
1000
0010
0000
0010
1000
0010
0000
0010
1000
0001
,  // measure 2
0100
0010
1000
0100
0000
0100
0010
0100
0000
0100
0010
0100
0000
0100
0010
0001
,  // measure 3
1000
0010
0100
0001
0000
0001
0100
1000
0000
1000
0100
0001
0010
0100
1000
1000
,  // measure 4
1001
0000
0110
0110
0000
1100
0000
1010
,  // measure 5
0000
0011
0000
0101
0000
1001
0000
1000
,  // measure 6
0100
1000
0000
0001
0100
0001
0000
1000
,  // measure 7
0010
0100
0001
1000
0010
0200
0000
0001
,  // measure 8
0001
0300
0110
0110
0000
0011
0000
0101
,  // measure 9
0000
1010
0000
1100
0000
1001
0000
1000
,  // measure 10
0010
1000
0000
0001
0010
0001
0000
0100
,  // measure 11
0010
1000
0001
0010
0100
2000
0000
3100
,  // measure 12
0100
0010
0001
0000
0001
1000
0000
1000
,  // measure 13
0100
0010
0001
0000
0100
0010
0000
0010
,  // measure 14
1000
0010
0100
0100
0001
0000
1000
1000
,  // measure 15
0001
0000
0010
0000
0100
0010
0000
0010
,  // measure 16
0100
0010
0100
0000
0100
1000
0000
1000
,  // measure 17
0100
0010
0001
0000
1000
0001
0000
0001
,  // measure 18
0100
0010
1000
0000
0010
0001
0000
0001
,  // measure 19
0010
0200
0000
0000
0010
0010
0300
0100
,  // measure 20
0001
0010
0100
0000
0100
1000
0000
1000
,  // measure 21
0001
0100
1000
0000
1000
0100
0000
0100
,  // measure 22
1000
0100
0010
0100
0001
0001
1000
1000
,  // measure 23
0010
0100
0100
0001
1000
0001
0000
0001
,  // measure 24
0010
0001
0010
0000
0010
0001
0000
0001
,  // measure 25
0010
0010
0100
0000
0100
0010
0000
0010
,  // measure 26
0001
1000
0010
0000
0010
0100
0000
0100
,  // measure 27
0001
2000
0000
0000
0001
3001
0000
1000
,  // measure 28
1000
0001
1000
0000
1001
0000
1000
0100
,  // measure 29
0010
0001
0001
0000
1001
0000
0001
0100
,  // measure 30
0010
1000
1000
0000
0010
1010
0000
0011
,  // measure 31
0000
0220
0000
0330
1000
1000
0100
0010
,  // measure 32
0010
1000
0010
0000
1000
0001
0000
1000
,  // measure 33
0000
0001
1000
0000
1000
0001
0000
0001
,  // measure 34
1000
0001
0100
0000
0100
1100
0000
0101
,  // measure 35
0000
2001
0000
0000
3001
0001
0000
1000
,  // measure 36
1000
0010
0100
0000
0110
0000
1000
0001
,  // measure 37
0001
0000
0010
0000
0100
0000
0000
0000
0110
0000
0000
0000
0000
0000
0100
0010
,  // measure 38
0100
1000
0001
0000
0100
0010
0000
1000
,  // measure 39
0001
0002
0000
0000
1003
1000
1000
0001
,  // measure 40
0010
0100
1000
0000
1100
0100
0000
0000
,  // measure 41
0010
0100
0100
0000
0101
0001
0000
0100
,  // measure 42
0100
1000
0002
0000
1000
0000
2003
0000
,  // measure 43
0001
0000
3020
0000
0130
0100
0002
0000
,  // measure 44
0000
0000
1103
1100
0000
0110
0000
0011
,  // measure 45
0000
1001
0000
0000
0001
0000
1000
0000
,  // measure 46
0001
0000
1001
0000
1000
0010
0100
0001
,  // measure 47
0100
1000
0100
0010
1000
0100
0010
0001
,  // measure 48
0010
0100
0001
0100
1000
0100
0010
0100
,  // measure 49
1000
0100
0010
0100
1000
0001
0100
0010
,  // measure 50
0100
0000
0001
0100
1000
0100
0010
1000
,  // measure 51
0100
0010
0001
0010
0100
0010
0001
1000
,  // measure 52
0010
0100
0001
0001
1000
1000
0010
0010
,  // measure 53
0100
0000
0100
0000
0001
0000
0001
0000
1000
0000
0100
0000
0010
0000
1000
0001
,  // measure 54
0100
1000
0100
1000
0001
0000
0100
0000
1000
0000
1000
0000
0100
0000
0001
0000
,  // measure 55
0100
1000
0100
0001
0010
1000
0010
0001
,  // measure 56
1000
0010
0010
0100
0001
0001
1000
0010
,  // measure 57
1000
1000
1000
0100
0010
0001
0001
0001
,  // measure 58
1000
0000
0001
0100
0010
0100
0001
1000
,  // measure 59
0010
0100
0001
1000
0100
0010
0001
0010
,  // measure 60
1000
0010
0001
0001
1000
1000
0010
0010
,  // measure 61
0100
0000
0100
0000
0001
0000
0100
0000
1000
0000
0100
0001
0100
0000
0001
0000
,  // measure 62
0001
0010
0011
0000
0010
0110
0000
0010
,  // measure 63
0100
1000
1001
0000
0001
0101
0000
0100
,  // measure 64
0010
0100
0110
0000
1000
1001
0000
1000
,  // measure 65
0001
1000
0001
1000
0001
1000
1001
1001
,  // measure 66
0000
0000
0110
0110
0000
1100
0000
0101
,  // measure 67
0010
1000
0000
1000
0010
0100
0000
0100
,  // measure 68
0001
0010
0000
0010
0100
1000
0000
1000
,  // measure 69
0001
0100
0010
1000
0001
0100
0010
0010
,  // measure 70
0010
0020
0000
0000
0030
0000
0000
0000
;
