#TITLE:Papermoon;
#SUBTITLE:Soul Eater Opening 2;
#ARTIST:Tomoko Kawase;
#TITLETRANSLIT:;
#SUBTITLETRANSLIT:;
#ARTISTTRANSLIT:;
#GENRE:;
#CREDIT:Magna Trick;
#BANNER:PPMBN.jpg;
#BACKGROUND:PPMBG.jpg;
#LYRICSPATH:;
#CDTITLE:Magna Trick title!.png;
#MUSIC:Papermoon.mp3;
#OFFSET:0.020000;
#SAMPLESTART:62.169998;
#SAMPLELENGTH:14.000000;
#SELECTABLE:YES;
#BPMS:0.000000=164.000000
;
#STOPS:
;
#BGCHANGES:0.063=Papermoon.avi=1.000=0=0=1=====,
242.500=PPMBG.jpg=1.000=0=0=1=====,
99999=-nosongbg-=1.000=0=0=0 // don't automatically add -songbackground-
;
#KEYSOUNDS:;
#ATTACKS:;

//---------------dance-single - ----------------
#NOTES:
     dance-single:
     :
     Hard:
     12:
     0.556315,0.637251,0.250270,0.250270,0.120130,389.000000,364.000000,25.000000,25.000000,0.000000,0.000000,0.556315,0.637251,0.250270,0.250270,0.120130,389.000000,364.000000,25.000000,25.000000,0.000000,0.000000:
0000
0000
0000
0000
0001
1000
0001
1000
,
0001
1000
0001
1000
0001
1000
0001
1000
,
0001
1000
0000
1000
0001
0000
1000
0000
0000
0000
1000
0000
0001
0000
0100
0000
,
0101
0010
0101
0010
,
0101
0001
1000
0200
0000
0300
0010
0000
,
0010
0010
0101
1000
,
0100
0010
0100
0000
0010
0000
0200
0000
0000
0000
0310
0000
0001
0000
0100
0000
,
0101
0010
0101
0010
,
0101
0001
1000
0010
0000
0000
0100
0000
,
1000
0000
0000
0000
0001
0000
0000
0000
0100
0000
0000
0000
0010
0000
0000
0100
,
0001
0000
1000
0000
0001
0000
2000
0000
0000
0000
0000
0000
0000
0000
0000
3000
,
0200
0000
0000
0000
0000
0000
0000
0300
0010
0000
0001
0000
0010
0000
0100
0000
,
1000
0000
0100
0000
0010
0000
0001
0000
0200
0000
0000
0000
0000
0000
0001
0300
,
0002
0000
0000
0003
1000
0010
0100
0001
,
0100
0010
1000
0100
2000
0000
0000
0000
,
0000
0001
0000
3002
0000
0000
1003
0000
,
0000
1000
0000
0001
1000
0000
0100
0010
,
0000
0001
0010
0000
0100
0000
1000
0000
,
0001
0100
0010
0100
0001
0000
1000
0001
,
0000
0010
0000
0100
2000
0000
3002
0000
,
0023
0000
0230
0000
2300
0000
3000
0001
,
0200
0300
0002
2003
,
3200
0320
0032
0000
,
0000
1000
0000
1003
0000
0010
0100
0000
,
0010
0100
0001
0001
0010
0000
0001
0100
,
0000
0001
0000
1000
0100
0000
1000
0000
,
0001
1000
0100
0000
0010
0001
1000
0001
1000
0000
0010
0000
0100
0000
0001
0000
,
1000
0010
0100
0101
0000
0010
0000
1100
,
0000
0010
0000
0101
0001
0000
1000
0000
,
0100
0010
0011
0002
0000
0003
1000
0010
,
0100
0001
1000
0001
1000
0000
0001
1000
0001
0000
1000
0000
0100
0000
0010
0000
,
0001
1000
0100
0020
0000
0000
0031
0000
,
0010
0100
1000
0001
0010
0100
1000
0100
,
1000
0100
0010
0001
1000
0010
1000
0010
,
1000
0100
0001
0100
1000
0000
0001
0100
1000
0000
0001
0000
0010
0000
0100
0000
,
1000
0001
0010
0110
0000
0001
1000
0100
,
0000
0010
0001
1000
0010
0000
0100
0000
,
0001
1000
0100
0110
0000
0001
0000
1000
,
0010
1000
0010
1000
0010
0000
1000
0010
1000
0000
0000
0000
1000
0000
0000
0000
,
0001
0010
0100
1100
0000
0010
0000
1100
,
0000
0001
0000
0010
0100
0000
1000
0000
,
0100
1000
0001
0010
0000
0100
1000
0001
,
0100
0010
0100
0000
0010
0100
0010
0100
0010
0000
0100
0000
0001
0000
1000
0000
,
0100
0010
0001
0011
0000
0100
0000
1000
,
0000
0001
0000
0100
0010
0000
0100
0000
,
1000
0100
0001
0101
0000
0000
0010
0000
,
1000
0001
1000
0001
1000
0000
0001
1000
0001
0000
0100
0000
1000
0000
0100
0000
,
0001
0100
0010
0100
0000
0001
1000
0000
,
0010
1000
0100
0010
0100
1000
0100
0001
,
0100
0010
0100
1000
0010
0000
0100
0000
,
0010
0100
0010
0000
0100
0000
0100
0000
0001
0000
1000
0000
0100
0000
0001
0000
,
0010
1000
0100
0010
1000
0100
0001
0010
,
0010
0001
0001
0101
0000
0000
0001
0000
,
0010
0000
0100
1000
0002
0000
0103
0000
,
0010
0100
0010
0000
0100
0000
0002
0000
0000
0000
1003
0000
0100
0000
0000
0000
,
0010
0001
0010
0100
1100
0000
1000
0000
,
0010
1000
0001
0101
0000
0010
1000
0000
,
0100
1000
0001
0000
1001
0000
0010
0000
,
0110
0010
0100
0110
0000
0010
1000
0000
,
0100
0010
0011
0100
,
1000
0001
0100
0220
0000
0330
0000
0000
;

//---------------dance-single - ----------------
#NOTES:
     dance-single:
     :
     Challenge:
     13:
     0.643552,0.668972,0.440476,0.330357,0.170184,450.000000,406.000000,44.000000,33.000000,0.000000,0.000000,0.643552,0.668972,0.440476,0.330357,0.170184,450.000000,406.000000,44.000000,33.000000,0.000000,0.000000:
// measure 0
0000
0000
0000
0000
1000
0100
1000
0010
,  // measure 1
1000
0100
1000
0010
1000
0100
1000
0010
,  // measure 2
1000
0001
0000
0001
1000
0000
1001
0000
0000
0000
0001
0000
1000
0000
0010
0000
,  // measure 3
1010
0100
1010
0100
,  // measure 4
1010
1000
0001
0020
0000
0030
0100
0000
,  // measure 5
0100
0100
1010
0001
,  // measure 6
0010
0100
0010
0000
0100
0000
0020
0000
0000
0000
0130
0000
1000
0000
0010
0000
,  // measure 7
1010
0100
1010
0100
,  // measure 8
1010
1000
0001
0210
0000
0300
1010
0000
,  // measure 9
1100
0000
0000
0000
0011
0000
0000
0000
0101
0000
0000
0000
0100
0000
0000
0001
,  // measure 10
0010
0100
1000
0000
0001
0000
2000
0000
0000
0000
0000
0000
0010
0000
0000
3000
,  // measure 11
0020
0100
0000
1030
0100
1000
0100
0010
,  // measure 12
0001
0000
0010
0000
0100
0000
1000
0000
0020
0000
0000
0000
1000
0000
1000
0030
,  // measure 13
2000
0001
0000
3000
0001
0100
0010
1000
,  // measure 14
0010
0100
0001
0010
0002
0000
1000
0000
,  // measure 15
0000
1000
0000
2003
0000
0001
3001
0000
,  // measure 16
0100
0001
0000
1000
0001
0000
0110
0100
,  // measure 17
0000
1000
0100
0000
0010
0001
0001
0000
,  // measure 18
1010
0010
0100
0010
1000
0000
1001
1000
,  // measure 19
0000
0100
0010
0010
0002
0000
2003
0000
,  // measure 20
3200
0010
0320
0000
0032
0000
1003
1000
,  // measure 21
0020
0100
0030
0001
2000
0001
3002
0010
,  // measure 22
0023
0100
0230
1000
2300
0000
0001
0000
,  // measure 23
0000
0001
0000
3001
0000
0100
0010
0100
,  // measure 24
0100
0010
1000
1000
0100
0000
1000
0010
,  // measure 25
0000
1000
0000
0001
0010
0000
0001
0000
,  // measure 26
1000
0001
0010
0100
1000
0001
1000
0001
0100
0000
0100
0000
0010
0000
1000
0000
,  // measure 27
0001
0100
0010
1010
0000
0100
0000
0011
,  // measure 28
0000
0100
0000
1010
1000
0001
0001
0010
,  // measure 29
0010
0100
1100
2000
0000
3001
0001
0100
,  // measure 30
0010
1000
0001
1000
0001
0000
1000
0001
1000
0000
0001
0000
0010
0000
0100
0000
,  // measure 31
1000
0001
0010
0200
0000
1000
1300
0000
,  // measure 32
0100
0010
0001
1000
0100
0010
1000
0010
,  // measure 33
0001
0010
0100
1000
0001
0100
1000
0100
,  // measure 34
0001
0010
1000
0010
0001
0010
1000
0010
0001
0000
1000
0000
0100
0000
0010
0000
,  // measure 35
0001
1000
0100
0110
0000
1000
0001
0020
,  // measure 36
0000
0130
1000
0001
0200
0000
0310
0000
,  // measure 37
1000
0001
0010
0110
1000
0100
0010
0001
,  // measure 38
0100
0001
0100
0001
0100
0000
0001
0100
0001
0000
0010
0000
0100
0000
1000
0000
,  // measure 39
0001
0100
0010
0011
0000
0100
0000
0011
,  // measure 40
0010
1000
0000
0100
0010
0000
0001
0000
,  // measure 41
0010
0001
1000
0100
0000
0010
0001
1000
,  // measure 42
0010
0100
0010
1000
0100
0010
0100
0010
0001
0000
0010
0000
1000
0000
0001
0000
,  // measure 43
0100
1000
0001
1100
0000
0010
0000
0001
,  // measure 44
1000
1000
0010
0010
0100
0000
0010
0000
,  // measure 45
0001
0010
1000
2010
0000
0000
3100
0000
,  // measure 46
0001
1000
0001
1000
0001
0100
0010
1000
0001
0000
0010
0000
0001
0000
0010
0000
,  // measure 47
1000
0010
0100
0011
0000
1000
0001
0000
,  // measure 48
0100
0001
0010
0100
0010
0001
0010
1000
,  // measure 49
0010
0100
0010
0002
0100
0000
0013
0000
,  // measure 50
0100
0010
0100
0000
0110
0000
0110
0000
1000
0000
0001
0000
0010
0000
1000
0000
,  // measure 51
0100
0001
0010
0100
0001
0010
1000
0100
,  // measure 52
0100
1000
1000
1020
0000
0030
1100
0000
,  // measure 53
0110
0000
0011
0001
2000
0000
3010
0000
,  // measure 54
1000
0010
0100
0001
0010
0100
2000
0000
0000
0000
3001
0000
0010
0000
0100
0000
,  // measure 55
0100
1000
0100
0010
0011
0000
0001
0000
,  // measure 56
0101
0001
1000
1020
0000
0130
0001
0000
,  // measure 57
0010
0001
1000
0000
1002
0000
0103
0000
,  // measure 58
0100
0010
0100
0000
0110
0000
0110
0000
0000
0000
0100
0000
0101
0000
0000
0000
,  // measure 59
0110
0000
0000
0000
1010
0000
0000
0000
1001
0000
0000
0000
0010
0000
0000
0001
,  // measure 60
1000
0001
1000
0000
0001
0000
0220
0000
0000
0000
0000
0000
0330
0000
0000
0000
;

//---------------dance-single - ----------------
#NOTES:
     dance-single:
     :
     Medium:
     8:
     0.387561,0.515870,0.160173,0.520562,0.000000,271.000000,255.000000,16.000000,52.000000,0.000000,0.000000,0.387561,0.515870,0.160173,0.520562,0.000000,271.000000,255.000000,16.000000,52.000000,0.000000,0.000000:
0000
0000
0000
0000
,
0000
0000
0000
0000
,
0000
0000
0000
1001
0000
1000
0001
0000
,
1010
0100
1010
0100
,
1010
1000
0000
0002
0000
0003
0100
0000
,
0100
0100
1010
0001
,
0010
0010
0100
0020
0000
0030
0000
0000
,
1010
0100
1010
0100
,
1010
1000
0000
0002
0000
0003
0010
0000
,
0001
1000
0010
0100
,
0001
0000
1000
0000
1000
0000
0002
0000
0000
0000
0000
0000
0000
0000
0000
0003
,
0020
0000
0000
0000
0000
0000
0000
0030
0200
0000
0000
0000
2300
0000
0000
0000
,
3020
0000
0000
0000
0230
0000
0000
0000
0320
0000
0000
0000
0000
0000
1000
0030
,
2000
0000
0000
3000
0002
0000
2003
0000
,
3200
0320
0032
0000
,
0000
1000
0000
2003
0000
0000
3001
0000
,
0000
0001
0000
1000
0001
0000
0000
0200
,
0000
0302
0013
0001
,
1000
0010
0100
0001
1000
0000
1000
2000
,
0000
3000
0002
2003
,
3200
0000
0320
0000
0032
0000
0003
1000
,
0020
0030
2000
3002
,
0023
0230
2300
0000
,
0000
0001
0000
3002
0000
0000
0003
0000
,
0000
0020
0000
2030
0000
0000
3001
0002
,
0000
0203
0000
0320
0000
0030
1000
0000
,
1000
0010
0100
0001
0001
0100
0010
1000
,
0001
0100
0010
1000
0000
0100
0000
1001
,
0000
0010
0000
2001
0000
0000
3001
0000
,
0010
0100
0000
2000
0000
3000
0001
0000
,
0001
1000
1000
0001
0001
1000
0010
0100
,
0001
0010
0010
0200
0000
0000
1300
0000
,
0100
0010
0001
1000
0100
0010
0001
0010
,
0001
0010
0100
1000
0001
0100
0001
0100
,
0001
0001
0001
0000
1000
0000
0001
1000
,
0000
0001
0000
0001
0000
0100
0000
0100
,
0000
0010
0000
2000
0000
0000
0000
3000
,
0000
0001
0000
1000
0000
0100
0000
0010
,
0000
0001
0000
0200
0000
0000
0000
0000
,
0300
0010
0000
0100
0000
0001
0000
1000
,
0000
0100
0000
0020
0000
0000
0000
0000
,
0030
0001
0000
2000
0000
0000
3000
0200
,
0000
0000
0320
0000
0031
0000
1000
0010
,
0000
0100
0000
0001
0000
1000
0000
0100
,
0000
0010
0000
0002
0000
0000
0000
0000
,
0000
0013
0000
0010
0000
0000
0100
0000
,
1000
0100
1000
0100
1000
0001
0010
0001
,
1000
0001
0100
0001
0000
1000
0001
0000
,
1000
0001
0100
1000
0100
0001
0100
1000
,
0100
0001
0100
1000
0100
0000
0010
0000
,
0100
0100
0010
0010
1000
0000
0001
0100
,
0000
0001
0000
0010
0000
0100
0000
1000
,
0000
0001
0000
0200
0000
0000
0310
0000
,
1000
0000
0001
0001
2000
0000
3010
0000
,
0100
0100
0010
2000
0000
3001
0010
0000
,
0100
0100
0011
0001
,
0100
0001
0000
1010
0000
0100
0001
0000
,
0010
0001
1001
0100
,
0010
0100
0000
0110
0000
0100
0001
0000
,
0010
0100
1100
0010
,
0001
1000
0001
0220
0000
0330
0000
0000
;

//---------------dance-single - ----------------
#NOTES:
     dance-single:
     :
     Easy:
     5:
     0.266002,0.398555,0.110119,0.090097,0.000000,186.000000,175.000000,11.000000,9.000000,0.000000,0.000000,0.266002,0.398555,0.110119,0.090097,0.000000,186.000000,175.000000,11.000000,9.000000,0.000000,0.000000:
0000
0000
0000
0000
,
0000
0000
0000
0000
,
0000
0000
0000
1000
0000
0000
0000
0000
,
0001
0000
0100
0000
,
0010
0000
0000
0100
0000
0000
0000
0000
,
0000
0000
0001
0000
,
0010
0000
0000
0100
0000
0000
0000
0000
,
1000
0000
0001
0000
,
0100
0000
0000
0010
0000
0000
0000
0000
,
0000
0000
1000
0000
,
0000
0001
0000
1000
0000
0000
0000
0000
,
0100
0000
0010
0010
,
0001
0001
2000
0000
,
3001
0000
0100
0100
,
0010
0010
2000
0000
,
0000
0001
0000
0001
0000
3000
0000
0000
,
0000
0001
0000
0000
0010
0000
0000
0100
,
0000
1000
0001
0000
,
0000
0100
0000
0010
0000
0000
0100
0001
,
0000
0000
1000
1000
,
0001
0001
0020
0000
,
0230
0000
0000
0300
1000
0000
0100
0000
,
1000
0001
0020
0000
,
0000
0001
0000
0001
0000
0030
0000
0000
,
0000
0100
0000
0100
0000
0000
0010
1000
,
0000
0001
0000
0100
0000
0000
0001
0000
,
1000
0100
0010
0010
,
0100
0100
1000
0001
,
0100
0010
1000
0010
,
1000
0001
0100
0001
,
0100
0010
1000
0100
,
0010
0001
1000
0100
,
0010
0001
0100
0001
,
0100
0010
1000
0001
,
1000
0100
0010
0000
,
0001
0000
1000
0000
,
0010
0000
0110
0000
,
0000
0001
0000
0001
0000
1000
0000
1000
,
0000
0001
0000
1000
0000
0000
0000
0000
,
0000
0100
0000
0100
0000
0010
0000
0010
,
0000
0100
0000
0010
0000
0000
0000
0000
,
0000
0001
0000
1000
0000
0000
0000
0010
,
0000
0100
0001
1000
,
0001
0100
0010
0100
,
0001
1000
0100
0000
,
0000
0010
0000
0010
0000
0000
0000
0000
,
0000
0001
0000
2000
0000
0000
0000
0000
,
0000
0010
0000
0010
3000
0000
0000
0000
,
0000
0100
0000
0100
0000
0001
0000
0001
,
0000
0010
0000
0200
0000
0000
0000
0000
,
0000
0300
0010
0010
,
0001
0001
1000
1000
,
0010
0100
0000
0110
0000
0000
0010
0000
,
0100
0001
1000
1000
,
0001
0000
0001
0010
0000
0000
0100
0000
,
1000
0001
0110
0001
,
0110
0000
0001
0110
0000
0000
0010
0000
,
1000
0100
0110
0001
,
0110
0000
0001
0110
0000
0000
0001
0000
,
1000
0100
0110
0001
,
0110
0000
0001
0220
0000
0000
0000
0000
,
0000
0330
0000
0000
;
