#TITLE:Oversoul;
#SUBTITLE:Shaman King Opening 1 Latino;
#ARTIST:Gabriela Vega;
#TITLETRANSLIT:;
#SUBTITLETRANSLIT:;
#ARTISTTRANSLIT:;
#GENRE:;
#CREDIT:;
#BANNER:OSBN.jpg;
#BACKGROUND:OSBG.jpg;
#LYRICSPATH:;
#CDTITLE:cdtitleitachi.png;
#MUSIC:Shaman King Opening 1 Espaņol Latino.mp3;
#OFFSET:-0.040000;
#SAMPLESTART:42.000000;
#SAMPLELENGTH:35.569851;
#SELECTABLE:YES;
#BPMS:0.000000=136.000000
;
#STOPS:
;
#BGCHANGES:0.063=Shaman King Opening 1 Espaņol Latino.avi=1.000=0=0=1=====,
201.000=OSBG.jpg=1.000=0=0=1=====,
99999=-nosongbg-=1.000=0=0=0 // don't automatically add -songbackground-
;
#KEYSOUNDS:;
#ATTACKS:;

//---------------dance-single - ----------------
#NOTES:
     dance-single:
     :
     Challenge:
     13:
     0.628392,0.668122,0.686958,0.310239,0.443199,397.000000,335.000000,62.000000,28.000000,0.000000,0.000000,0.628392,0.668122,0.686958,0.310239,0.443199,397.000000,335.000000,62.000000,28.000000,0.000000,0.000000:
// measure 0
0000
0000
0000
0000
,  // measure 1
0000
0000
0000
0000
0000
0000
0000
0000
1000
0000
0001
0000
1000
0001
1000
0000
,  // measure 2
0001
0000
0100
0000
0001
0100
0001
1000
0010
0000
0100
0000
0010
0000
1000
0000
,  // measure 3
0001
0000
0010
0002
0000
0003
1000
0010
1000
0000
0001
0000
0100
0000
0010
0000
,  // measure 4
1010
0000
0010
1000
0000
0000
0000
0000
1001
0000
0000
0000
0110
0000
0000
0000
,  // measure 5
1100
0000
0000
0000
0110
0000
0000
0000
1001
0000
0110
0000
1001
0000
0100
1000
,  // measure 6
0000
0100
0000
0010
0000
0001
0000
0000
0100
0000
0001
0000
1001
0000
0100
0000
,  // measure 7
1000
0000
0010
0000
0100
0000
0001
1000
0001
0000
1000
0000
0100
0000
0010
0001
,  // measure 8
0000
1000
0010
0000
0100
0000
0001
0000
1000
0000
0100
0000
1100
0000
0010
0100
,  // measure 9
0000
0000
1001
0000
1000
0000
0010
0000
0100
0000
1000
0000
0100
0000
0010
1000
,  // measure 10
0000
0000
1001
0000
0000
0000
1000
0100
0001
0000
0100
0000
1000
0000
0100
1000
,  // measure 11
0000
0010
0000
0100
0000
0000
0001
0100
1000
0000
0100
0000
0001
0000
0001
1000
,  // measure 12
0000
0100
0000
0100
0000
0000
0000
0000
0001
0000
0100
0000
0110
0000
0010
1000
,  // measure 13
0000
0001
1001
1000
0011
0001
1100
1000
,  // measure 14
0110
0000
1001
0000
0000
0000
0010
0010
,  // measure 15
0000
1002
0000
2003
0000
3000
1000
0100
,  // measure 16
0000
0011
0110
2100
0000
3000
0001
1000
,  // measure 17
0001
0010
1000
0010
0001
0000
1001
0000
,  // measure 18
0110
0000
0000
0000
1001
0000
0000
0000
2010
0000
0000
0001
0000
0000
3010
0000
,  // measure 19
0120
0000
0000
1000
0000
0000
0130
0000
0201
0000
0000
0010
0000
0000
1000
0300
,  // measure 20
0120
0000
0000
2000
0030
0000
3100
0000
0120
0000
0001
0000
1000
0000
0031
0000
,  // measure 21
1000
0000
0010
0000
0100
0000
0001
0000
1001
0000
1010
0000
0010
0000
0100
0010
,  // measure 22
0000
1000
0010
0000
1000
0010
0100
0000
0000
0000
0000
0000
0000
0000
0000
0000
,  // measure 23
0000
0000
1001
0010
0100
1000
0001
0100
,  // measure 24
0001
0000
0010
1000
0000
0000
0010
0001
0100
0000
1000
0000
0001
0000
0001
0000
,  // measure 25
1000
0000
0100
0001
0000
0000
0000
0000
0101
0000
0100
0000
1001
0000
0010
0100
,  // measure 26
1000
0100
0010
1000
0100
0001
0101
2002
,  // measure 27
0000
0000
3003
0000
0000
0000
1000
0100
0001
0000
0100
0000
1100
0000
1001
0000
,  // measure 28
1000
0000
0010
1000
0000
0000
0001
0100
1000
0000
0100
0000
0010
0000
1000
0000
,  // measure 29
0100
0000
1000
0100
0000
0000
0010
0000
0100
0000
1001
0000
1000
0000
0100
0000
,  // measure 30
1001
0000
0010
0000
1000
0000
0001
0000
0011
0000
0110
0000
1100
0000
0010
0100
,  // measure 31
0000
0001
0000
0010
0000
0100
1000
0010
1000
0000
0001
0000
0100
0000
0010
0000
,  // measure 32
1000
0000
0100
0010
0000
0000
0001
1000
0010
0000
0100
0000
0010
0000
1000
0000
,  // measure 33
0001
0000
1000
0100
0000
0000
0000
0000
1000
0000
0100
0000
0011
0000
0100
0000
,  // measure 34
1000
0000
0001
0000
1010
0000
2002
0000
0003
0000
0000
0000
0000
0000
0000
3000
,  // measure 35
0000
0000
0000
0000
0000
0000
1000
0100
0020
0000
0000
0000
0000
0000
0030
0000
,  // measure 36
1020
0000
0000
0000
0000
0000
0000
0000
0031
0000
1001
0000
0010
0000
0100
0010
,  // measure 37
0000
0100
0010
0000
1000
0000
0001
1000
0002
0000
0000
0000
0000
0000
0000
0000
,  // measure 38
0020
0000
0000
0000
0000
0033
0000
0000
0011
0000
0001
0000
1000
0000
0010
1000
,  // measure 39
0000
1000
0010
0000
0100
0000
0001
0100
0002
0000
0000
0000
1000
0000
0003
0000
,  // measure 40
2020
0000
3000
0000
0100
0000
0000
0030
0010
0000
0100
0000
0001
0000
0100
0010
,  // measure 41
0000
0010
0100
0000
0001
0000
1000
0000
2001
0000
0000
0000
0000
0000
3000
0000
,  // measure 42
0220
0000
0000
0000
0000
0000
0330
0000
0010
0000
1000
0000
0001
0000
0010
0100
,  // measure 43
1000
0001
0010
0100
0010
0001
1000
0100
0022
0000
0000
0000
0000
0000
0000
0000
,  // measure 44
0000
0000
0030
0000
0003
0000
1000
0010
0100
0000
1000
0000
0100
0000
1000
0000
,  // measure 45
0100
0000
0010
0100
0000
0000
1000
0000
0110
0000
0000
0000
1010
0000
0000
0000
,  // measure 46
0110
0000
0000
0000
1001
0000
0000
0000
0100
0000
0001
0000
1000
0000
0100
0001
,  // measure 47
0000
0100
0000
1000
0000
0001
0000
0100
0000
1000
0000
0001
0000
0010
0000
1000
,  // measure 48
0000
0100
0000
0001
0000
0010
0000
1000
0000
0100
0000
1100
0000
1001
0000
0110
,  // measure 49
0000
2002
0000
0000
,  // measure 50
0000
3003
0000
0000
;

//---------------dance-single - ----------------
#NOTES:
     dance-single:
     :
     Medium:
     4:
     0.177279,0.249299,0.066480,0.398879,0.000000,112.000000,106.000000,6.000000,36.000000,0.000000,0.000000,0.177279,0.249299,0.066480,0.398879,0.000000,112.000000,106.000000,6.000000,36.000000,0.000000,0.000000:
0000
0000
0000
0000
,
0000
0000
2000
0000
,
0000
3000
0000
0000
2000
0000
0000
3000
,
0000
0000
0020
0000
,
0030
0000
0100
0100
,
0100
0000
0100
0000
0200
0000
0000
0300
,
0000
0000
0010
0000
,
0010
0000
1000
0000
,
1000
0000
0010
0010
,
0010
0000
0100
0100
,
0100
0000
0010
0000
,
0010
0000
1000
0000
,
1000
0000
0010
0010
,
0010
0000
1000
1000
,
0001
0001
2000
0000
,
0000
3000
0000
0000
0020
0000
0000
0000
,
0000
0030
0000
0000
0200
0000
0000
0000
,
0000
0300
0000
0000
0020
0000
0000
0000
,
0000
0030
0000
0000
2000
0000
3000
0000
,
0020
0000
0000
0030
0200
0000
0300
0000
,
0002
0000
0003
0000
2002
0000
0000
3003
,
0000
1001
2002
0000
,
0000
0000
0000
3003
0000
0000
0000
0000
,
0000
0010
0010
1000
,
0010
0100
0001
0001
,
1000
0000
0010
0100
,
0001
0000
1000
0000
0100
0000
0000
0200
,
0000
0300
0000
0000
1000
0000
0010
0000
,
0100
0100
0010
1000
,
0001
0001
1000
0010
,
0100
0001
2000
0000
,
0000
3000
0010
0100
,
0001
0001
1000
0010
,
0100
0000
0200
0300
0010
0000
0100
0000
,
0001
0000
0001
0002
0000
0000
0000
0000
,
0003
0000
2000
3000
,
0010
0000
0200
0000
,
0000
0300
0000
0000
0002
0000
0003
0000
,
2000
0000
0000
3000
0020
0000
0000
0000
,
0030
0000
0200
0300
,
0020
0030
0200
0000
,
0000
0300
0000
0000
0020
0000
0000
0030
,
2000
3000
2002
0000
,
0000
0000
0003
3000
0020
0000
0000
0000
,
0000
0000
0030
0000
0200
0000
0000
0300
,
0010
0000
1000
0001
,
1000
0001
0100
0100
,
0100
0010
0000
1000
,
0000
1001
0000
0000
,
0000
0000
2002
0000
0000
0000
0000
3000
,
0003
0000
0000
0000
;

//---------------dance-single - ----------------
#NOTES:
     dance-single:
     :
     Hard:
     9:
     0.421039,0.610922,0.365639,0.376719,0.210519,266.000000,233.000000,33.000000,34.000000,0.000000,0.000000,0.421039,0.610922,0.365639,0.376719,0.210519,266.000000,233.000000,33.000000,34.000000,0.000000,0.000000:
0000
0000
0000
0000
,
0000
0000
0000
0000
1000
0100
0010
0010
,
0001
1000
0001
0010
0001
0000
1000
0000
,
0100
0000
1000
0010
0000
0000
0000
0000
0100
0000
0001
0000
1000
0000
0000
0000
,
0010
0000
0100
0001
0000
0000
0000
0000
1000
0000
0000
0000
0011
0000
0000
0000
,
0110
0000
0000
0000
1100
0000
0000
0000
1000
0000
0001
0000
1000
0000
0010
0100
,
0000
0010
0000
1000
0000
0001
0000
0000
0100
0000
0000
0000
0001
0000
1000
0000
,
0100
0000
0000
0000
0000
0000
0000
0000
1000
0000
0010
0000
0100
0000
0000
1001
,
0000
0000
0000
0000
0010
0100
0001
0000
,
1000
0000
0100
0000
1000
0000
0000
0000
0010
0000
0100
0000
0001
0000
0000
0010
,
0000
0000
1001
0000
0000
0000
0000
0000
0001
0000
1000
0000
0100
0000
0000
1001
,
0000
0000
0000
0000
0000
0000
0000
0000
0010
0000
0100
0000
0100
0000
0000
1001
,
0000
0000
0000
0000
0000
0000
0000
0000
0001
0000
1000
0000
0100
0000
0000
1000
,
0000
0010
0100
0001
1000
1000
0100
1000
,
0010
0000
2020
3030
0000
0000
0001
0001
,
0000
0100
0000
0200
0300
0000
0010
0010
,
0000
1000
1000
1000
0000
0000
1000
0100
,
0010
0001
1000
0100
1000
0000
1010
0000
,
0101
0000
0000
0000
0110
0000
0000
0000
1000
0000
0000
0100
0000
0000
1000
0000
,
0010
0000
0000
0100
0000
0000
0001
0000
0010
0000
0000
0001
0000
0000
0001
0000
,
1001
0000
0000
0110
0000
0000
0011
0000
0220
0000
0000
0000
0000
0000
0330
0000
,
0000
1001
2002
0000
,
0000
0000
0000
3003
0000
0000
0000
0000
,
0000
0000
1000
0100
0010
0100
1000
0001
,
0010
0000
0001
0010
0000
0000
0001
0000
0010
0000
0100
0000
0010
0000
0001
0000
,
1000
0000
0100
1000
0000
0000
0000
0000
0001
0000
1000
0000
0100
0000
1000
0000
,
0100
0010
0100
0010
0001
1000
0010
0200
,
0000
0300
0000
1000
0100
0001
0100
1000
,
1000
0000
0000
1001
0000
0000
0000
0000
0100
0000
0010
0000
0100
0000
0001
0000
,
1000
0000
0000
1001
0000
0000
0000
0000
0010
0000
1000
0000
0010
0000
0100
0000
,
0001
0000
1000
0000
0100
0000
1000
0000
0110
0000
0110
0000
0110
0000
0000
1001
,
0000
1001
0000
1001
0000
0000
0000
0000
0010
0000
0100
0000
0001
0000
1000
0000
,
0100
0000
0010
0001
0000
0000
0000
0000
1000
0000
0010
0000
1000
0000
0010
0000
,
0100
0000
0001
1000
0000
0000
0000
0000
1000
0000
0100
0000
1000
0000
0100
0000
,
0010
0100
0010
0002
0000
0000
0000
0000
,
0000
0003
2000
0000
,
0020
3000
0000
0000
0230
0000
0000
0000
,
0000
0300
0000
0000
0002
0000
0000
0000
,
0020
0003
0000
0000
0230
0000
0000
0000
,
0300
0000
0000
0000
2000
0000
0000
3000
,
0020
0000
0000
0030
0200
0000
0000
0000
,
0000
0300
0000
0000
0002
0000
0000
0003
,
2000
0000
0000
3000
0001
1000
0001
0100
,
0010
0100
0001
1000
0200
0300
0200
0300
,
0200
0300
0200
0300
2000
3000
0020
0030
,
0200
0300
0002
0003
2000
3000
0200
0300
,
2000
0000
3000
0000
0020
0000
0030
0000
0100
0000
0010
0000
0100
0000
0001
1000
,
0000
0001
0000
1000
0000
0001
0000
0000
0000
0001
0000
1000
0000
0001
0000
0000
,
0000
1001
0000
1001
0000
1001
0000
0000
0000
1001
0000
1001
0000
0110
0000
0110
,
0000
2002
0000
0000
,
0000
3003
0000
0000
0000
0000
0000
0000
;

//---------------dance-single - ----------------
#NOTES:
     dance-single:
     :
     Easy:
     2:
     0.129794,0.193899,0.044320,0.398879,0.016620,82.000000,78.000000,4.000000,36.000000,0.000000,0.000000,0.129794,0.193899,0.044320,0.398879,0.016620,82.000000,78.000000,4.000000,36.000000,0.000000,0.000000:
0000
0000
0000
0000
,
0000
0000
0000
0000
,
0000
0000
0010
0000
,
0000
0000
0010
0000
,
0000
0000
0100
0100
,
0100
0000
0200
0000
,
0300
0000
0010
0000
,
0000
0000
1000
0000
,
0000
0000
1000
0000
,
1000
0000
2000
0000
,
3000
0000
0010
0000
,
0000
0000
0010
0000
,
0000
0000
0010
0000
,
0010
0000
0010
0010
,
0010
0020
0000
0000
,
0030
0000
0200
0000
,
0300
0000
0020
0000
,
0000
0030
0000
0000
0200
0000
0000
0000
,
0300
0000
0002
0003
,
2000
3000
0002
0003
,
0200
0000
0300
0000
0020
0000
0000
0030
,
0000
1001
2002
0000
,
0000
0000
3000
0003
0000
0000
0000
0000
,
0000
0000
1000
1000
,
1000
0000
0010
0010
,
0020
0030
0100
0100
,
0010
0000
0010
0000
0000
0000
0010
0020
,
0000
0030
0000
0000
0100
0000
0100
0000
,
0200
0300
0010
0010
,
0020
0030
1000
0000
,
0001
0000
0200
0000
,
0000
0300
0000
0000
0010
0000
0010
0000
,
0010
0000
0100
0100
,
0200
0300
0010
0010
,
0010
0000
0000
0020
0000
0000
0000
0000
,
0000
0030
0000
0000
2000
0000
0000
3000
,
0200
0000
0000
0300
0020
0000
0000
0000
,
0000
0000
0030
0000
0002
0000
0000
0003
,
0020
0000
0000
0030
0200
0000
0000
0000
,
0000
0300
0000
0000
2000
0000
0000
3000
,
0200
0000
0000
0300
0020
0000
0000
0000
,
0030
0000
0000
0000
0002
0000
0000
0003
,
0020
0000
0000
0030
0200
0000
0000
0000
,
0000
0300
2000
0000
,
0000
0000
0000
0000
,
0000
0000
0000
3000
0020
0000
0000
0000
,
0000
0000
0000
0000
,
0000
0000
0000
0000
0030
0000
0000
0000
0000
1000
0000
0000
0000
0000
0000
0000
,
0000
0001
0000
0000
0000
0000
0000
0000
0000
1001
0000
0000
0000
0000
0000
0000
,
0000
2002
0000
0000
,
3003
0000
0000
0000
;
