#TITLE:Over The Top;
#SUBTITLE:One Piece Opening 22;
#ARTIST:Hiroshi Kidatani;
#TITLETRANSLIT:;
#SUBTITLETRANSLIT:;
#ARTISTTRANSLIT:;
#GENRE:;
#CREDIT:Magna Trick;
#BANNER:OTTBN.png;
#BACKGROUND:OTTB.png;
#LYRICSPATH:;
#CDTITLE:Magna Trick title!.png;
#MUSIC:Over The Top.mp3;
#OFFSET:0.045819;
#SAMPLESTART:59.000000;
#SAMPLELENGTH:17.000000;
#SELECTABLE:YES;
#BPMS:0.000000=106.000000
,14.500000=53.000000
,15.250000=106.000000
,15.500000=212.000000
,154.000000=106.000000
,170.000000=212.000000
,204.000000=424.000000
,221.000000=212.000000
;
#STOPS:
;
#BGCHANGES:0.042=Over The Top.avi=1.000=0=0=1=====,
392.750=OTTB.png=1.000=0=0=1=====,
99999=-nosongbg-=1.000=0=0=0 // don't automatically add -songbackground-
;
#KEYSOUNDS:;
#ATTACKS:;

//---------------dance-single - ----------------
#NOTES:
     dance-single:
     :
     Challenge:
     17:
     0.888022,1.398948,0.467255,0.292034,0.521490,745.000000,689.000000,56.000000,35.000000,0.000000,0.000000,0.888022,1.398948,0.467255,0.292034,0.521490,745.000000,689.000000,56.000000,35.000000,0.000000,0.000000:
// measure 0
0000
0000
0000
0000
0000
0002
0000
0010
,  // measure 1
0000
2003
0000
3000
0000
0002
0000
0010
,  // measure 2
0000
0000
2003
0000
0000
0000
3000
0000
0100
0010
0001
0000
1000
0000
1001
0000
,  // measure 3
0100
0010
0000
0000
1000
0000
1000
0000
0001
0000
2002
0000
3003
0000
0000
0000
,  // measure 4
1000
0001
1000
0001
1000
0000
0000
0001
1000
0001
1000
0001
1000
0000
0100
0000
,  // measure 5
0000
0010
0001
0000
0100
0001
0000
1000
,  // measure 6
0000
0000
0001
0000
1000
0100
1000
0000
,  // measure 7
0001
0000
0010
0100
0000
0100
0000
1000
,  // measure 8
0000
0000
0001
0000
0100
0000
0010
1000
0001
0100
0010
1000
0001
0100
0010
0000
,  // measure 9
1000
0000
1001
0000
0001
1000
0001
1000
,  // measure 10
0000
1000
0100
0000
0010
0001
0010
0000
,  // measure 11
0001
0000
0100
0010
0000
1000
0000
0001
,  // measure 12
0000
0000
0010
0000
0100
0000
1000
0000
0100
1000
0100
1000
0100
0000
0100
0010
,  // measure 13
0001
0000
0001
0000
1000
0001
1000
0001
,  // measure 14
0000
0000
1000
0000
0001
0100
0001
0000
,  // measure 15
1000
0000
0100
1000
0000
0001
0000
0010
,  // measure 16
0000
0000
0001
0000
1000
0000
0010
0100
0001
1000
0010
0100
0001
1000
0010
0100
,  // measure 17
1001
0010
0001
0110
1000
0100
1001
0010
,  // measure 18
0001
0110
1000
0100
1001
0010
0001
0110
,  // measure 19
0000
0001
0010
0100
1000
0000
1000
0100
,  // measure 20
0000
0100
0010
0000
0010
0001
0100
0000
,  // measure 21
1001
0000
0100
0001
0000
0001
1000
0100
,  // measure 22
0010
0000
0010
0100
0000
0100
1000
0000
,  // measure 23
1001
1000
0010
0100
0001
0000
0001
0100
,  // measure 24
0000
0100
0001
0000
0001
1000
0100
0000
,  // measure 25
0110
0000
0100
0010
0000
0010
0100
0100
,  // measure 26
1000
0000
0000
0000
0001
0000
1000
0000
0100
0000
0010
0001
0010
0000
0100
0000
,  // measure 27
1000
0001
0100
0010
0000
0010
1000
1000
,  // measure 28
0000
0001
2000
0000
3002
0000
2003
0000
,  // measure 29
3002
0010
0103
0010
0100
1000
0001
1000
,  // measure 30
0000
0000
0010
0000
0100
0000
0001
0000
0000
0000
1000
0000
0010
0000
1000
0001
,  // measure 31
1000
0100
1000
0100
0010
0000
0010
0001
,  // measure 32
0000
1000
0001
0000
0110
0000
1001
0000
,  // measure 33
0100
0010
0100
0001
1000
0010
0100
0001
,  // measure 34
0000
0000
1000
0000
0010
0100
0010
0100
0001
0000
0000
0000
0001
0000
0000
0000
,  // measure 35
1000
0100
1000
0100
0010
0001
0010
0001
0100
0010
1000
0100
0010
0000
0100
0000
,  // measure 36
0010
0001
1000
0010
0100
0001
1000
0100
,  // measure 37
0010
1001
0010
0100
0001
0010
0100
1000
,  // measure 38
1001
0000
0000
0000
0010
0000
0100
0010
1001
1000
0001
1000
1001
0001
0100
0010
,  // measure 39
1000
0000
0001
0000
1000
0000
0100
0000
0011
0000
0000
0000
0100
1000
0100
0000
1000
0000
0000
0000
0001
0000
0000
0000
0100
0000
0000
0000
0001
0000
0100
0000
,  // measure 40
0000
0000
0001
0000
0100
0000
0010
0000
1000
0000
0001
1000
0001
0000
1000
0000
0110
0000
0000
0000
1001
0000
0000
0000
0010
0000
0100
0000
0001
0000
1000
0000
,  // measure 41
0100
1000
0100
0010
0001
0000
1000
0000
0001
0000
0100
0000
0010
0000
0100
0010
,  // measure 42
0000
0000
0100
0000
0001
0000
0100
0000
0010
0000
0000
0000
1000
0000
0100
0010
0001
0000
0000
0000
1000
0000
0000
0000
0001
0000
0000
0000
1000
0000
0000
0000
,  // measure 43
0010
0100
0010
0100
0001
0010
0001
0010
0100
1000
0100
1000
0001
0100
0001
0100
,  // measure 44
0010
1000
0010
1000
0001
0100
0010
1000
1100
0000
0000
0000
0011
0000
0000
0000
,  // measure 45
0100
0010
0100
0010
1000
0100
1000
0100
0010
0001
0010
0001
1000
0010
1000
0010
,  // measure 46
0100
0001
0100
0001
1000
0010
0100
0001
0011
0000
0000
0000
1100
0000
0000
0000
,  // measure 47
0100
0010
0100
0010
1000
0100
1000
0100
0010
0001
0010
0001
1000
0010
1000
0010
,  // measure 48
0100
0001
0100
0001
1000
0010
0100
0001
0011
0000
0000
0000
1100
0000
0000
0000
,  // measure 49
0010
0100
0010
0100
0001
0010
0001
0010
0100
1000
0100
1000
0001
0100
0001
0100
,  // measure 50
0010
1000
0010
1000
0001
0100
0010
1000
0001
0000
1000
0000
0010
0000
0100
0000
,  // measure 51
0002
0000
0000
0000
,  // measure 52
0000
0000
0000
0000
,  // measure 53
0000
0000
0000
0000
,  // measure 54
0000
0000
0000
0000
,  // measure 55
0000
0000
0103
0010
0000
1000
0001
0100
,  // measure 56
0010
0000
0000
0000
0000
0000
1000
0000
0001
1000
0001
0000
1000
0000
0100
0000
,  // measure 57
0010
0011
0001
0010
0100
1000
0100
1000
,  // measure 58
0001
0100
0000
0010
0100
0001
1000
0100
,  // measure 59
0010
0000
0001
0000
0000
0000
1000
0000
0001
1000
0001
0000
0010
0000
0100
0000
,  // measure 60
1000
0000
0000
0000
1100
0000
0000
0000
0000
0000
0000
0000
2002
0000
0000
0000
0000
0000
0000
0000
3003
0000
0000
0000
0000
0000
0000
0010
0100
0000
0000
0000
,  // measure 61
0000
0001
0000
1000
0100
0100
1000
0100
,  // measure 62
0010
0010
0000
0001
0000
0010
0001
0010
,  // measure 63
0000
1100
0000
0100
0000
0110
0000
0010
,  // measure 64
0012
0000
0000
0000
0000
0000
1000
0000
0000
0000
0000
0000
1003
0001
1000
0000
,  // measure 65
0001
1000
0001
0000
1000
0000
1000
0000
0001
0000
0001
0000
0010
0000
0100
0000
,  // measure 66
1000
0001
0000
0001
1000
0001
0001
1000
,  // measure 67
0000
0100
0010
0001
0010
0100
1000
0001
,  // measure 68
1000
0010
0000
0010
0100
1000
0000
0100
,  // measure 69
0000
0110
0000
0010
0000
1000
0001
1000
,  // measure 70
0100
0020
0000
0032
0000
0023
0000
0230
,  // measure 71
0000
2300
0000
3001
1000
0000
0000
0001
,  // measure 72
0000
0000
0100
0001
0100
0000
0010
0000
0010
0000
1000
0000
1000
0000
0001
1000
,  // measure 73
0001
1000
0010
0000
0000
0000
0010
0000
0100
0000
0000
0000
0100
0000
1000
0000
,  // measure 74
0100
0001
0000
0100
1000
0100
0001
0010
,  // measure 75
1000
0000
0010
0000
0000
0000
0010
0000
0100
0010
0100
0000
1000
0000
1000
0000
,  // measure 76
0001
0000
0000
0000
1001
0000
0000
0000
0000
0000
0000
0000
0220
0000
0000
0000
0000
0000
0000
0000
0330
0000
0000
0000
0000
0000
0000
0100
0010
0000
0000
0000
,  // measure 77
0000
1000
0000
0001
0100
0010
0010
1000
,  // measure 78
0010
0010
0000
1000
0000
0100
0000
0010
,  // measure 79
0000
0011
0000
0001
0000
2001
0000
0001
,  // measure 80
0000
0000
0001
0000
0000
0000
0001
0000
0000
0000
3001
0010
0100
1000
0001
0000
,  // measure 81
1000
0001
2000
0000
0000
0000
0000
0000
3200
0000
0000
0000
0000
0000
0320
0000
,  // measure 82
0000
0032
0000
0000
0103
0020
0000
0000
,  // measure 83
0000
0000
0000
0000
2030
0000
0000
0000
0000
0000
0000
0000
0000
0000
0000
0100
3020
0000
0000
0000
0000
0000
0000
0000
0000
0000
0000
0000
0130
0000
0000
0000
,  // measure 84
1000
0001
0100
0010
2002
0000
3003
0000
,  // measure 85
0000
0220
0000
0330
0000
0000
0010
1000
,  // measure 86
0010
1000
0000
1000
0000
0001
0000
0100
,  // measure 87
0000
0000
0001
0000
1000
0010
1000
0000
0001
0010
0001
0000
1000
0100
1000
0000
,  // measure 88
0001
0100
0001
0100
0001
0000
0000
1000
0001
1000
0001
1000
0000
0000
0001
0010
,  // measure 89
0100
1000
1001
0000
0000
0000
0001
0000
0010
0000
0100
0000
1000
0000
0100
0000
,  // measure 90
0100
0110
0000
0100
0100
1000
0001
1000
,  // measure 91
1000
1001
0000
0001
0001
1000
0010
0100
,  // measure 92
0100
0110
0000
0010
0100
0100
0100
1000
,  // measure 93
0100
0001
0000
0001
0010
0010
0000
0100
,  // measure 94
0010
0000
0010
0001
1000
0100
1000
0001
,  // measure 95
0000
1001
0000
0101
0000
1100
0000
0011
,  // measure 96
0000
1010
0000
0110
0000
1001
0000
0110
,  // measure 97
0000
1001
0001
1000
1001
0001
1000
1001
,  // measure 98
0001
2002
0000
0000
0000
3003
0000
0000
;

//---------------dance-single - ----------------
#NOTES:
     dance-single:
     :
     Hard:
     15:
     0.718762,1.028638,0.483942,0.358785,0.175220,603.000000,545.000000,58.000000,43.000000,0.000000,0.000000,0.718762,1.028638,0.483942,0.358785,0.175220,603.000000,545.000000,58.000000,43.000000,0.000000,0.000000:
0000
0000
0000
0000
0000
2000
0000
0100
,
0000
3002
0000
0003
0000
2000
0000
0100
,
0000
0000
3002
0000
0000
0000
0003
0000
0010
0100
1000
0000
0001
0000
1001
0000
,
0010
0100
0000
0000
0001
0000
0001
0000
1000
0000
2002
0000
0000
0000
0000
0000
,
0000
0000
0000
0000
0000
0000
0000
3003
,
0000
0100
1000
0000
0010
1000
0000
0001
,
0000
0000
1000
0000
0001
0010
0001
0000
,
1000
0000
0100
0010
0000
0010
0000
0001
,
0000
1000
0010
0200
0000
0000
0000
0000
,
0300
0000
1001
0000
1000
0000
0001
0100
,
0000
0001
0010
0000
0100
1000
0100
0000
,
1000
0000
0010
0100
0000
0001
0000
1000
,
0000
0000
0100
0000
0010
0000
0002
0000
1000
0000
0000
0000
0003
0000
1000
0001
,
1000
0000
1000
0000
0001
1000
0001
2000
,
0000
0000
3001
0000
1000
0010
1000
0000
,
0001
0000
0010
0001
0000
1000
0000
0100
,
0000
1000
0001
0200
0000
0000
0300
0000
,
0101
0000
0000
1100
0000
0000
1010
0000
,
0000
0011
0000
0000
1001
0000
0000
0110
,
0000
1000
0100
0010
0001
0000
0001
0010
,
0000
0010
0100
0000
0100
1000
0010
0000
,
1001
0000
0010
1000
0000
1000
0001
0010
,
0100
0000
0100
0010
0000
0000
0000
0000
,
1001
0001
0100
0010
1000
0000
1000
0010
,
0000
0010
1000
0000
1000
0001
0010
0000
,
0110
0000
0010
0100
0000
0100
0010
0010
,
0001
0000
0000
0000
1000
0000
0001
0000
0010
0000
0100
1000
0100
0000
0010
0000
,
0001
1000
0010
0100
0000
0100
0001
0001
,
0000
1000
0002
0000
2003
0000
3002
0000
,
1003
0100
0010
0001
0000
1000
0000
1001
,
0000
0000
1000
0000
0001
0000
1001
0000
0000
0000
0001
0000
0100
0000
0001
1000
,
0001
0010
0001
0010
0100
0000
0100
1000
,
0000
0001
1000
0000
0110
0000
1001
0000
,
0010
0100
0010
1000
0001
0100
0010
1000
,
0000
0001
0100
0100
0010
0000
1000
0000
,
0002
0000
0000
0000
0000
1000
1000
1000
,
1000
1000
1000
1000
1000
1000
1003
0100
,
0010
1001
0001
1000
1000
0100
0010
0001
,
1001
0000
0000
0000
0100
0000
0010
0000
1001
0000
0100
0000
1001
0000
0010
0100
,
0000
0000
1000
0000
0001
0000
0010
0000
0100
0000
0000
0000
0010
0001
0010
0000
0001
0000
0000
0000
1000
0000
0000
0000
0010
0000
0000
0000
1000
0000
0020
0000
,
0000
0000
0000
0000
0000
0000
0030
1000
0001
0000
1001
0000
0100
0010
1000
0001
,
0000
0001
0010
0100
1000
0000
0001
0000
1000
0000
0010
0000
0100
0000
0010
0200
,
0000
0000
0000
0000
0000
0000
0000
0000
0300
0000
0000
0000
0001
0000
0010
0100
1000
0000
0000
0000
0001
0000
0000
0000
1000
0000
0000
0000
0001
0000
0000
0000
,
0100
1000
0001
0010
1000
0001
0100
0100
,
0001
0010
1001
1000
1001
0001
1001
0000
,
0010
0001
1000
0100
0001
1000
0010
0010
,
1000
0100
1001
0001
1001
1000
1001
0000
,
0001
0100
0010
1000
0100
0010
0001
0001
,
0010
1000
0110
0100
0110
0010
0110
0000
,
1000
0010
0100
0001
0010
0100
1000
1000
,
0100
0001
0100
1000
0010
0001
0010
0010
,
2000
0000
0000
0000
,
0000
0000
0000
0000
,
0000
0000
0000
0000
,
0000
0000
0000
0000
,
0000
0000
3010
0100
0000
0001
1000
0010
,
0100
0000
0000
0000
0000
0000
0001
0000
1000
0001
1000
0000
0001
0000
0010
0000
,
0100
1100
1000
0100
0010
0001
0010
0001
,
1000
0010
0000
0100
0010
1000
0001
0010
,
0100
0000
1000
0000
0000
0000
0001
0000
1000
0001
1000
0000
0100
0000
0010
0000
,
0001
0000
0000
0000
0011
0000
0000
0000
0000
0000
0000
0000
2002
0000
0000
0000
0000
0000
0000
0000
3003
0000
0000
0000
0000
0000
0000
0100
0010
0000
0000
0000
,
0000
1000
0000
0001
0010
0010
0001
0010
,
0100
0100
0000
1000
0000
0100
1000
0100
,
0000
0011
0000
0010
0000
0110
0000
0100
,
2100
0000
0000
0000
0000
0000
0001
0000
0000
0000
0000
0000
3001
1000
0001
0000
,
1000
0001
1000
0000
0001
0000
1000
0000
0010
0000
0100
0000
0001
0000
1000
0000
,
0000
0010
0000
1000
0010
1000
0000
0001
,
0000
0010
0000
0100
0010
0000
0010
0100
,
0000
1000
0000
0001
0100
0010
0000
0100
,
0000
1001
0000
0001
0000
1000
0100
0010
,
0010
0200
0000
2300
0000
3200
0000
0320
,
0000
0032
0000
1003
0001
0000
0000
1000
,
0000
0000
0010
0000
0010
0000
0100
0000
0100
0000
0001
0000
0001
0000
1000
0001
,
1000
0001
0100
0000
0000
0000
0100
0000
0010
0000
0000
0000
0010
0000
0001
0000
,
0010
1000
0000
0010
0001
0010
1000
0100
,
0001
0000
0100
0000
0000
0000
0100
0000
0010
0100
0010
0000
0001
0000
0001
0000
,
1000
0000
0000
0000
1001
0000
0000
0000
0000
0000
0000
0000
0220
0000
0000
0000
0000
0000
0000
0000
0330
0000
0000
0000
0000
0000
0000
0010
0100
0000
0000
0000
,
0000
0001
0000
1000
0010
0100
0100
0001
,
0100
0100
0000
0001
0000
0010
0000
0100
,
0000
1100
0000
1000
0000
1002
0000
1000
,
0000
0000
1000
0000
0000
0000
1000
0000
0000
0000
1003
0100
0010
0001
1000
0000
,
0001
1000
0002
0000
0000
0000
0000
0000
0023
0000
0000
0000
0000
0000
0230
0000
,
0000
2300
0000
0000
3010
0200
0000
0000
,
0000
0000
0000
0000
0302
0000
0000
0000
0000
0000
0000
0000
0000
0000
0000
0010
0203
0000
0000
0000
0000
0000
0000
0000
0000
0000
0000
0000
0310
0000
0000
0000
,
0001
1000
0010
0100
2002
0000
3003
0000
,
0000
0220
0000
0330
0000
0000
0100
0001
,
0100
0001
0000
0001
0000
1000
0000
0010
,
0000
0000
1000
0000
0001
1000
0001
0000
1000
0001
1000
0000
0001
1000
0001
0000
,
1000
0001
1000
0001
1000
0000
0000
0001
1000
0001
1000
0001
0000
0000
1000
0100
,
0010
0001
1000
0000
0000
0000
1000
0000
0100
0000
0010
0000
0001
0000
0010
0000
,
0000
0210
0000
1000
0000
0000
0000
0310
,
0000
1001
0000
0001
0100
0010
1000
0010
,
0000
0210
0000
0001
0000
0000
0000
0310
,
1000
1000
0000
1000
0000
0010
0000
0010
,
0100
0000
0100
1000
0001
0010
1000
0100
,
0000
1001
0000
1010
0000
0011
0000
1100
,
0000
0101
0000
0110
0000
1001
0000
0110
,
0000
0011
0000
0000
1100
0000
0000
0110
,
0000
2002
0000
0000
0000
3003
0000
0000
;

//---------------dance-single - ----------------
#NOTES:
     dance-single:
     :
     Medium:
     10:
     0.423152,0.740619,0.191908,0.517318,0.025031,355.000000,332.000000,23.000000,62.000000,0.000000,0.000000,0.423152,0.740619,0.191908,0.517318,0.025031,355.000000,332.000000,23.000000,62.000000,0.000000,0.000000:
0000
0000
0000
0000
0000
2000
0000
0000
,
0000
3002
0000
0003
0000
2000
0000
0000
,
0000
0000
3002
0000
0000
0000
0003
0000
1000
0001
1000
0000
0001
0000
1001
0000
,
1000
0001
0000
0000
0001
0000
0001
0000
1000
0000
2002
0000
0000
0000
0000
0000
,
0000
0000
0000
0000
0000
0000
0000
3003
,
0000
0001
1000
0000
1000
0001
0000
1000
,
0000
0000
0001
0000
1000
0001
1000
0000
,
0001
0000
0000
0010
0000
0100
0000
0010
,
0000
0001
0100
0010
0000
0000
0000
0000
,
0000
1010
0000
0000
,
0000
0010
1000
0000
1000
0100
0010
0000
,
0001
0000
0000
0010
0000
0001
0000
0010
,
0000
0100
1000
0100
0000
0000
0000
0000
,
0000
0000
1001
0000
0001
0100
0010
1000
,
0000
0000
0010
0000
0100
0001
0100
0000
,
0010
0000
1000
0100
0000
0010
0000
0100
,
0000
1000
0001
1000
0000
0000
0000
0000
,
0001
0000
0000
1000
0000
0000
0010
0000
,
0000
0100
0000
0000
0001
0000
0000
1000
,
0000
1000
0001
0010
0001
0000
1000
0001
,
0000
1000
0001
0000
0000
0000
0100
0000
,
0010
0000
0000
1000
0000
0000
0010
0000
,
0010
0000
0000
1000
0000
0000
0000
0000
,
0000
0001
0010
0100
1000
0000
1000
0100
,
0000
0100
0010
0000
0000
0000
0010
0000
,
0001
0000
0000
1000
0000
0000
0001
0000
,
0001
0000
0000
1000
0000
0000
0000
0000
,
0001
0100
0001
0100
0000
0010
0000
1000
,
0000
0010
1000
0000
0000
0000
0000
0000
,
1000
0100
1000
0100
0000
0010
0000
0002
,
0000
0000
0000
2003
0000
0000
3000
0000
,
0001
1000
0001
0000
1000
0000
0010
0100
,
0000
0010
0100
0000
0010
0000
0100
0000
,
0000
0010
1000
0010
1000
0000
0001
0100
,
0000
0001
0100
0000
0001
0000
0100
0000
,
0002
0000
0000
0000
,
0000
0000
0000
0003
,
1001
0000
0000
0000
,
1001
0000
0000
0000
0000
0000
0000
0000
1001
0000
0001
0000
1000
0000
0000
0010
,
0000
0000
0100
0000
0001
0000
0010
0000
0100
0000
0010
0000
0001
0000
0000
2000
,
0000
0000
0000
0000
3000
0000
0000
0000
0010
0000
1000
0000
0100
0000
0000
0010
,
0000
0000
0001
0000
1000
0000
0010
0000
0100
0000
0001
0000
1000
0000
0000
0002
,
0000
0003
1001
1001
,
0000
0001
1000
0001
1000
0000
1000
0001
,
0000
0001
1000
0000
0010
0000
0010
0000
,
0000
1000
0001
1000
0001
0000
0001
1000
,
0000
1000
0001
0000
0100
0000
0100
0000
,
0000
0001
1000
0010
0100
0000
0100
0001
,
0000
0001
1000
0000
0100
0000
0010
0000
,
0000
0001
0010
0100
1000
0000
1000
0010
,
0000
0000
0000
0000
0001
0100
1000
0100
,
0002
0000
0000
0000
,
0000
0000
0000
0000
,
0000
0000
0000
0000
,
0000
0000
0000
0000
,
0000
0003
1000
0001
0000
1000
0001
1000
,
0001
0000
0000
0010
0000
0100
0000
1000
,
0000
0002
0000
0000
0203
0000
0000
0310
,
0000
1000
0000
0001
0010
0100
0010
0001
,
1000
0020
0000
0000
0230
0000
0000
0301
,
0000
1000
0000
1001
0000
0000
0000
0002
,
0000
2003
0000
0000
3100
0000
0000
0100
,
0000
0010
0000
0100
0000
1000
0000
0001
,
0000
0000
0200
0000
0000
0000
0000
0000
0000
0300
0020
0000
0000
0000
0000
0000
,
2000
0030
0000
0000
0000
0000
0000
0000
0000
0000
0000
0000
0000
0000
3000
0000
,
0000
0002
0000
0000
2003
0000
0000
3200
,
0000
0320
0000
0000
0031
0010
0000
0000
,
0000
0200
0000
0000
2300
0000
0000
3002
,
0000
0203
0000
0000
0310
0100
0000
0000
,
0000
0020
0000
0000
0000
0030
1000
0100
,
1000
0100
0000
1000
0000
0001
0000
0010
,
0000
0002
0000
0000
0000
0000
0000
0000
,
0000
0000
0003
1000
0000
0010
0000
0100
,
0000
0002
0000
0000
2003
0000
0000
3100
,
0000
0010
0000
0001
0010
0100
1000
0001
,
0010
0200
0000
0000
2300
0000
0000
3001
,
0000
0000
0100
0000
0000
0000
0020
0000
0000
0000
0000
0000
0000
0030
1000
0000
,
0000
0002
0000
0000
2003
0000
0000
3001
,
0000
0010
0000
0100
0000
1000
0000
0002
,
0000
0000
0203
0000
0000
0000
0000
0000
0000
0000
0020
0000
0000
0300
0000
0000
,
0000
0000
0000
0000
0000
0000
0000
0000
0000
0000
0000
0000
0000
0000
0000
0030
,
0000
2000
0000
0000
3002
0000
0000
2003
,
0000
3200
0000
0000
0310
0200
0000
0300
,
0000
0020
0000
0000
0032
0000
0000
2003
,
0000
3002
0000
0103
0020
0000
0000
0000
,
0030
0110
0000
0000
0000
0000
0010
1000
,
0010
2000
0000
3002
0000
0203
0000
0320
,
0000
2030
0000
0000
0000
0000
0000
0000
,
0000
0000
0000
0000
,
0000
3000
0002
0000
0000
0000
0000
0000
0000
0000
0000
0000
0000
0000
0000
0000
,
0000
0003
0200
0000
0000
0000
0000
0000
0000
0000
0000
0000
0000
0000
0000
0000
,
0000
0320
0000
0000
0000
0000
0000
0000
,
0000
0030
2000
0000
0000
0000
0000
0000
0000
0000
0000
0000
0000
0000
3010
0000
,
1000
1000
0000
1000
0000
0010
0000
0010
,
0100
0000
0100
1000
0001
0010
1000
0100
,
0000
1001
0000
1010
0000
0011
0000
1100
,
0000
0101
0000
0110
0000
1001
0000
0110
,
0000
0011
0000
0000
1100
0000
0000
0110
,
0000
2002
0000
0000
0000
3003
0000
0000
;

//---------------dance-single - ----------------
#NOTES:
     dance-single:
     :
     Easy:
     4:
     0.256275,0.573117,0.066751,0.033375,0.000000,215.000000,207.000000,8.000000,4.000000,0.000000,0.000000,0.256275,0.573117,0.066751,0.033375,0.000000,215.000000,207.000000,8.000000,4.000000,0.000000,0.000000:
0000
0000
0000
0000
,
0000
0000
0000
0000
,
0000
0000
0000
0000
,
0000
0000
0000
0000
,
0000
0000
0000
0000
,
0000
0000
0000
0000
,
0000
0000
0000
0000
,
0000
0000
0000
0000
,
0000
0000
0000
0000
,
0000
0000
0000
0000
,
0000
0000
0000
0000
,
0000
0000
0000
0000
,
0000
0000
0000
0000
,
0000
0001
0000
1000
,
0000
0001
0000
1000
,
0000
0010
0000
0100
,
0000
0010
0000
0100
,
0010
0000
0000
1000
0000
0000
0001
0000
,
0000
0010
0000
0000
0100
0000
0000
1000
,
0000
0001
0000
0001
,
0000
1000
0000
1000
,
0000
0010
0000
0010
,
0000
0100
0000
0100
,
0000
0001
0000
0001
,
0000
0010
0000
0010
,
0000
0100
0000
0100
,
0000
1000
0000
1000
,
0001
0000
1000
0000
,
0001
0000
1000
0000
,
0010
0000
0100
0000
,
0001
0000
0100
0000
,
0010
0010
0010
0010
,
0010
0010
1000
1000
,
0000
0001
0001
0001
,
0001
0001
0100
0100
,
0010
0000
1000
0000
,
0001
0000
1000
0000
,
0001
0000
0010
0000
,
0100
0000
0100
1001
,
0010
1001
0100
1001
,
0010
1001
0100
1001
,
1000
1001
0001
1001
,
0010
0100
0001
0000
,
1000
1000
1000
0000
,
0001
0000
0001
0001
,
0000
0000
1000
0000
,
0010
0000
0100
0100
,
0000
0000
0010
0000
,
1000
0000
0001
0001
,
0000
0000
0010
0000
,
0100
0000
1000
0001
,
2000
0000
0000
0000
,
0000
0000
0000
0000
,
0000
0000
0000
0000
,
0000
0000
0000
0000
,
0000
0000
3010
1000
0000
0001
0100
0000
,
0010
0000
0000
1000
0000
0001
0000
1000
,
0000
0001
0000
0000
1000
0000
0000
0001
,
0000
0010
0000
0000
0000
0100
0000
1000
,
0000
0100
0000
0000
0010
0000
0000
0001
,
0000
1000
0000
0001
0000
0000
0000
0100
,
0000
0010
0000
0000
0100
0000
0000
0001
,
0000
1000
0000
0010
0000
0100
0000
0001
,
0000
1000
0000
0000
0000
0001
0000
0000
,
1000
0000
0000
0000
,
0000
0001
0000
0000
0010
0000
0000
0100
,
0000
1000
0000
0000
0000
0001
0000
0000
,
0000
0100
0000
0000
0010
0000
0000
1000
,
0000
0100
0000
0000
0000
0010
0000
0000
,
0000
0001
0000
0000
0000
0000
0000
0000
,
0000
1000
0000
0001
0000
1000
0000
0010
,
0000
0100
0000
0000
0000
0000
0000
0000
,
0000
0000
0000
0010
0000
0100
0000
0010
,
0000
1000
0000
0000
0001
0000
0000
0010
,
0000
0100
0000
1000
0000
0001
0000
0100
,
0000
0001
0000
0000
1000
0000
0000
0100
,
0000
0010
0000
0100
0000
0000
0000
1000
,
0000
0001
0000
0000
0100
0000
0000
0001
,
0000
1000
0000
0001
0000
1000
0000
0001
,
0000
0100
0000
0000
0000
0010
0000
0000
,
0000
0000
0000
0000
,
0000
1000
0000
0000
1000
0000
0000
0001
,
0000
0100
0000
0000
0000
0001
0000
0000
,
0000
1000
0000
0000
1000
0000
0000
0001
,
0000
0100
0000
0000
0010
0000
0000
0000
,
0000
1000
0000
0000
0000
0000
0000
0000
,
0000
0001
0000
0010
0000
0100
0000
1000
,
0000
0002
0000
0000
0000
0000
0000
0000
,
0003
0000
0000
0000
,
0000
2000
0000
0000
0000
0000
0000
0000
,
0000
3001
0000
0000
0000
0000
0000
0000
,
0000
2000
0000
0000
0000
0000
0000
0000
,
0000
3001
0000
0000
0000
0000
0000
0000
,
0000
1000
0000
0001
0000
1000
0000
0001
,
0000
1000
0000
0001
0000
0100
0000
0010
,
0000
0100
0000
0100
0000
0010
0000
0010
,
0000
1000
0000
1000
0000
0001
0000
0001
,
0000
1000
0000
0000
0001
0000
0000
1000
,
0000
1001
0000
0000
0000
0000
0000
0000
;
