#TITLE:Olvida la Amargura;
#SUBTITLE:Ranma 1/2 Opening;
#ARTIST:Jade;
#TITLETRANSLIT:;
#SUBTITLETRANSLIT:;
#ARTISTTRANSLIT:;
#GENRE:;
#CREDIT:Magna Trick;
#BANNER:OLABN.png;
#BACKGROUND:OLABG.png;
#LYRICSPATH:;
#CDTITLE:Magna Trick title!.png;
#MUSIC:Olvida la Amargura.mp3;
#OFFSET:-0.100000;
#SAMPLESTART:36.015999;
#SAMPLELENGTH:11.980000;
#SELECTABLE:YES;
#BPMS:0.000000=164.000000
,155.000000=163.500000
,219.000000=164.600006
;
#STOPS:
;
#BGCHANGES:0.083=Olvida la Amargura.avi=1.000=0=0=1=====,
243.500=OLABG.jpg=1.000=0=0=1=====,
99999=-nosongbg-=1.000=0=0=0 // don't automatically add -songbackground-
;
#KEYSOUNDS:;
#ATTACKS:;

//---------------dance-single - ----------------
#NOTES:
     dance-single:
     :
     Hard:
     9:
     0.471367,0.544849,0.094574,0.451852,0.000000,314.000000,305.000000,9.000000,43.000000,0.000000,0.000000,0.471367,0.544849,0.094574,0.451852,0.000000,314.000000,305.000000,9.000000,43.000000,0.000000,0.000000:
0000
0000
0000
0000
,
0000
0000
0000
1001
,
1000
0100
1000
0000
0001
0100
0001
0000
,
2000
3002
0023
0030
,
0001
0010
0100
0000
1000
0010
0100
0000
,
0001
0010
0100
1000
0002
0000
0003
0000
,
1000
0010
0100
0000
0001
0010
0100
0000
,
2000
3002
0203
0300
,
0010
1000
0010
0000
0100
0001
0100
0000
,
0001
0010
0100
1000
0020
0000
0030
0000
,
0000
0110
0000
0000
0010
0000
0100
0010
,
0100
0000
0010
0000
1000
0000
0001
1000
,
0000
0001
0010
0100
1000
0000
0100
0000
,
0020
0000
0032
0000
2003
0000
3100
1000
,
0100
0001
1000
0010
1000
0000
0001
0000
,
2000
0000
3002
0000
0203
0000
0300
0010
,
0100
0001
0100
0010
0100
0000
0001
0000
,
0100
0010
0000
0001
1000
0000
0100
0020
,
0000
0031
0000
1000
0100
0000
0010
0001
,
0000
1000
0000
0010
0100
0000
1000
0100
,
0010
0100
0001
0100
0010
0000
0100
0000
,
0010
1000
0100
0020
0000
0000
0130
0000
,
0100
0000
0100
0000
1000
1000
0100
0000
,
0001
1000
0010
0100
0000
0000
1000
0000
,
1000
1000
1000
0000
2000
0000
0000
3000
,
0001
0001
0000
0100
0100
0010
0000
0000
,
2000
3002
0023
0230
,
1300
0001
0000
0100
0010
1000
0000
0001
,
0200
0000
0310
0000
2000
0000
0000
3000
,
0001
0010
0000
0010
0100
1000
0000
0000
,
2000
3002
0203
0320
,
1030
0001
0000
0010
0100
2000
3000
0000
,
0000
1001
0000
0110
0110
0000
0001
0000
,
0100
1000
0100
0001
0100
1000
0100
0001
,
0100
1000
0100
0001
0110
0000
0100
0000
,
0010
1000
0010
0001
0010
1000
0010
0001
,
0110
0010
0110
0100
,
0001
0100
0010
1000
0001
0100
0010
1000
,
0001
0100
0010
1000
0110
0000
0010
0000
,
0001
0001
1000
1000
0010
0010
0100
0100
,
0001
0001
1000
1000
0100
0100
0010
0001
,
0010
0100
1000
0001
0000
0010
0100
1000
,
0000
0001
0010
0100
1000
0001
0010
0000
,
0100
1000
0010
1000
0100
1000
0001
1000
,
0010
1000
0100
1000
0001
1000
0200
0000
,
0300
0001
0010
0100
2000
0000
3020
0000
,
0230
0000
0302
0000
,
0003
1000
0100
0010
0002
0000
2003
0000
,
3020
0000
0230
0000
,
0300
1000
0100
0000
0010
0001
0000
0000
,
0001
0000
1000
0000
0010
0000
0100
0001
,
0000
1000
0100
1000
0001
0000
0010
0000
,
0000
0100
0000
0010
0001
0000
0100
0010
,
0100
0001
0010
1000
0010
0000
0001
0000
,
2000
0000
3020
0000
0230
0000
0300
0001
,
0000
0100
1000
0001
0020
0000
0000
0030
,
0000
1000
0000
0100
0010
0000
0001
0010
,
0000
0100
0000
1000
0001
0000
0100
0010
,
0000
0100
0000
0001
1000
0000
0100
0010
,
0001
0010
0100
1000
0002
0000
0000
0203
,
0000
0000
0000
0000
,
0300
0000
0000
0000
;

//---------------dance-single - ----------------
#NOTES:
     dance-single:
     :
     Challenge:
     13:
     0.607973,0.705099,0.294229,0.399311,0.089319,405.000000,377.000000,28.000000,38.000000,0.000000,0.000000,0.607973,0.705099,0.294229,0.399311,0.089319,405.000000,377.000000,28.000000,38.000000,0.000000,0.000000:
// measure 0
2002
0000
0000
0000
0000
0000
0000
3003
,  // measure 1
0000
0000
1000
0001
1000
0000
0001
0000
1000
0000
0000
0000
1001
0000
0000
0000
,  // measure 2
0001
0010
0100
0000
1000
0010
0100
0000
,  // measure 3
0002
0000
0000
0000
2003
0000
0000
0000
3100
0000
0010
0001
0010
0000
0100
0000
,  // measure 4
1000
0100
0010
0000
0001
0100
0010
0000
,  // measure 5
1000
0100
0010
0001
2000
0000
3000
0000
,  // measure 6
0001
0100
0010
0000
1000
0100
0010
0000
,  // measure 7
0002
0000
0000
0000
2003
0000
0000
0000
3010
0000
0100
0001
0100
0000
1000
0000
,  // measure 8
0100
0001
0100
0000
0010
1000
0010
0000
,  // measure 9
1000
0100
0010
0001
0200
0000
0300
0000
,  // measure 10
0000
0110
0000
0000
1001
0000
0010
0100
,  // measure 11
0010
0000
0100
0000
0001
0000
1000
0001
,  // measure 12
0000
1000
0100
0010
0001
0000
0010
0000
,  // measure 13
0200
0000
2300
0000
3002
0000
0013
0001
,  // measure 14
0010
1000
0001
0100
0001
0001
1000
1000
,  // measure 15
0002
0000
2003
0000
3020
0000
0030
0100
,  // measure 16
0010
0000
1000
0000
0010
0000
0100
0000
0010
0000
0001
1000
0001
0000
0000
0000
,  // measure 17
0010
0100
0000
1000
0001
0000
0010
0200
,  // measure 18
0000
1300
0000
0001
0010
0000
0100
2000
,  // measure 19
0000
3001
0000
0100
0010
0000
0001
0010
,  // measure 20
0100
0010
1000
0010
0100
0100
0010
0010
,  // measure 21
0200
0000
0302
0000
0023
0000
0230
0000
0000
0000
0000
0300
0011
0000
0000
0000
,  // measure 22
0011
0000
0011
0000
0011
0011
0101
0000
,  // measure 23
2000
0000
3002
0000
0203
0000
0320
0000
0000
0000
0000
0030
0011
0000
0000
0000
,  // measure 24
0011
0011
0011
0000
0102
1000
1000
1003
,  // measure 25
0001
0001
0000
1000
1000
0001
0000
0000
,  // measure 26
0002
0000
0000
0000
2003
0000
0000
0000
3100
0000
0010
0001
0010
0000
0000
0000
,  // measure 27
0001
1000
0000
0010
0100
0001
0000
1000
,  // measure 28
0020
0000
0130
0000
0002
1000
0000
1003
,  // measure 29
1000
0100
0000
0100
0010
0001
0000
0000
,  // measure 30
0002
0000
0000
0000
2003
0000
0000
0000
3010
0000
0100
0001
0100
0000
0000
0000
,  // measure 31
0001
1000
0000
0100
0010
0002
0003
0000
,  // measure 32
0000
1001
0000
0110
0110
0000
1000
0000
,  // measure 33
0010
0001
0010
1000
0010
0001
0010
1000
,  // measure 34
0010
0001
0010
1000
0110
0000
0010
0000
,  // measure 35
0100
0001
0100
1000
0100
0001
0100
1000
,  // measure 36
0110
0100
0100
0000
0110
0010
0010
0000
,  // measure 37
1000
0010
0100
0001
1000
0010
0100
0001
,  // measure 38
1000
0010
0100
0001
0110
0000
0100
0000
,  // measure 39
1000
1000
0001
0001
0100
0100
0010
0010
,  // measure 40
1000
1000
0001
0001
0010
0010
0100
1000
,  // measure 41
0100
0010
0001
1001
0000
0100
0010
1001
,  // measure 42
0000
1001
0100
0010
0001
1000
1001
0000
,  // measure 43
0010
0001
0100
0001
0010
0001
1000
0001
,  // measure 44
0100
0001
0010
0001
1000
0001
0020
0000
,  // measure 45
0030
0000
1000
0000
0100
0000
0010
0000
0001
0000
0100
0001
0100
0000
0001
0000
,  // measure 46
1000
0000
0001
1000
0001
0000
0100
0000
0010
0000
1000
0100
1000
0000
0001
0000
,  // measure 47
0000
0000
0001
0000
0010
0000
0100
0000
1000
0000
0001
0100
0001
0000
0100
0000
,  // measure 48
0010
0000
1000
0100
1000
0000
0001
0000
0010
0000
0100
0010
0100
0000
1000
0000
,  // measure 49
0100
0010
0001
0000
0001
0000
1000
0100
0010
0000
0010
0000
0001
1000
0001
0000
,  // measure 50
1000
0100
0001
0100
1000
0010
0010
1000
,  // measure 51
0000
0000
0001
0000
0010
0000
0001
0000
1000
0000
0100
0010
0100
0000
0010
0000
,  // measure 52
0000
0010
0000
0100
1000
0000
0010
0100
,  // measure 53
0010
1000
0100
0001
0100
0100
1000
1000
,  // measure 54
0002
0000
0203
0000
0320
0000
0030
1000
,  // measure 55
0000
0000
0010
0000
0001
0000
1000
0000
0100
0000
0010
0100
0010
0000
1000
0000
,  // measure 56
0000
0001
0000
0010
0100
0000
1000
0100
,  // measure 57
0000
0010
0000
0001
1000
0000
0010
0100
,  // measure 58
0000
0110
0000
1000
1001
0000
0010
0100
,  // measure 59
1000
0100
0010
0001
2000
0000
0000
3020
,  // measure 60
0000
0000
0000
0000
,  // measure 61
0030
0000
0000
0000
;

//---------------dance-single - ----------------
#NOTES:
     dance-single:
     :
     Medium:
     7:
     0.397810,0.446860,0.000000,0.136606,0.000000,265.000000,265.000000,0.000000,13.000000,0.000000,0.000000,0.397810,0.446860,0.000000,0.136606,0.000000,265.000000,265.000000,0.000000,13.000000,0.000000,0.000000:
0000
0000
0000
0000
,
0000
0000
0000
0001
,
1000
0100
1000
0000
0001
0100
0001
0000
,
1000
0001
1000
0000
,
0001
0010
0001
0000
1000
0010
1000
0000
,
0001
1000
0001
1000
0001
0000
1000
0000
,
0100
1000
0100
0000
1000
0100
1000
0000
,
0001
0010
0100
0000
,
1000
0010
1000
0000
0010
1000
0010
0000
,
0100
0001
0100
0001
0100
0000
0000
0000
,
0000
0001
0000
0000
1000
0000
0001
1000
,
0001
1000
0100
0010
,
0001
0000
0010
0000
0200
0000
0000
0300
,
1000
0001
0100
0010
,
1000
0000
1000
0000
0002
0000
0000
0003
,
1000
0000
0100
0000
0020
0000
0000
0030
,
0001
0000
1000
0000
0020
0000
0000
0030
,
0000
0100
0000
0001
1000
0000
0001
1000
,
0000
0001
0000
1000
0001
0000
1000
0001
,
0000
1000
0000
0100
0010
0000
0100
0010
,
0100
0010
0100
0010
0100
0000
0010
0000
,
0001
1000
0001
1000
0000
0000
0010
0000
,
0010
0000
0010
0000
0010
0010
0010
0000
,
0000
0000
0000
0100
,
0100
0100
0100
0000
0200
0000
0000
0300
,
0001
0001
0000
1000
1000
1000
0000
0000
,
0100
0010
0001
1000
,
0010
0010
0000
0100
0100
0100
0000
0000
,
0001
1000
0001
0000
,
1000
1000
0000
0001
0001
0001
0000
0000
,
0010
0100
1000
0001
,
0100
0010
0000
0100
0010
0100
0000
0000
,
0000
0001
0000
1000
0001
0000
1000
0000
,
0100
0100
0010
0010
,
0001
1000
0001
1000
0001
0000
1000
0000
,
0010
0010
0100
0100
,
0001
0100
1000
0000
1000
0100
0001
0000
,
0001
1000
0100
0010
,
0001
0010
0001
0010
0001
0000
1000
0000
,
0100
0100
0100
0100
,
0100
0100
0100
0100
,
0100
0010
0100
0010
0000
0010
0100
0010
,
0000
0100
0010
0100
0010
0100
0010
0000
,
0001
0001
1000
1000
,
0010
0100
0001
2000
,
3000
0001
1000
0001
1000
0000
0010
0000
,
0200
0000
0000
0000
0302
0000
0000
0003
,
0000
1000
0100
0010
0001
0000
0010
0000
,
0200
0000
0000
0000
2300
0000
0000
3000
,
0000
0001
0100
0000
0001
0100
0000
0000
,
0010
0010
0100
0100
,
0001
1000
0001
1000
0001
0000
1000
0000
,
0100
0010
0000
0010
0100
0000
0010
0000
,
0001
1000
0001
1000
0001
0000
1000
0000
,
0010
0000
0010
0000
0200
0000
0300
0001
,
0000
1000
0100
0000
1000
0000
0001
0000
,
0100
0001
0000
0100
0001
0000
1000
0010
,
0000
1000
0000
0100
1000
0000
0100
1000
,
0000
0001
0000
0010
0100
0000
0010
0100
,
0010
0100
0010
0100
0020
0000
0000
0230
,
0000
0000
0000
0300
;

//---------------dance-single - ----------------
#NOTES:
     dance-single:
     :
     Easy:
     5:
     0.295730,0.414942,0.031525,0.073557,0.000000,197.000000,194.000000,3.000000,7.000000,0.000000,0.000000,0.295730,0.414942,0.031525,0.073557,0.000000,197.000000,194.000000,3.000000,7.000000,0.000000,0.000000:
0000
0000
0000
0000
,
0000
0000
0000
1000
,
0000
0001
0000
0100
,
0010
0010
0010
0000
,
0100
0000
0001
0000
,
1000
1000
0001
0000
,
0010
0000
0100
0000
,
1000
1000
0001
0000
,
0100
0000
0010
0000
,
0100
0100
0001
0000
,
0000
1000
0000
0000
0001
0000
1000
0001
,
1000
0001
0100
0010
,
1000
0001
0010
0000
,
0100
1000
0001
0010
,
0100
0100
0010
0000
,
0001
1000
0010
0000
,
0100
0100
0001
0000
,
0000
1000
0000
0000
0100
0000
0000
1000
,
0000
0000
0001
0000
0100
0000
0000
0010
,
0000
1000
0000
0000
0001
0000
0010
0000
,
0100
0000
1000
0000
0002
0000
0000
0003
,
0100
0010
0100
0001
,
0001
0000
0001
0000
0001
0001
0001
0000
,
1000
0000
0000
0100
0000
0000
1000
0000
,
1000
1000
1000
0000
1000
0000
0000
0000
,
0001
0000
1000
0000
,
0010
0010
0100
0100
,
0001
0000
1000
0000
,
0100
0100
0010
0000
,
0010
0000
0010
0000
,
0001
0001
1000
1000
,
0010
0000
0100
0000
,
0000
0001
0000
1000
0001
0000
0000
0000
,
1000
1000
0001
0001
,
0010
0100
1100
0000
,
1000
0010
0100
0001
,
1000
1000
0010
0010
,
0100
0001
1000
0100
,
0010
0001
1100
0000
,
0001
0001
1000
1000
,
0010
0100
0001
1000
,
0100
0000
0010
0100
0000
0000
0010
0100
,
0000
0010
0100
0000
0010
0100
0010
0000
,
0001
0001
1000
1000
,
0010
0100
0001
1001
,
0000
1000
0100
1000
,
0002
0000
0203
0000
,
0300
0010
0100
0001
,
2000
0000
0000
3000
0002
0000
0000
0000
,
0003
0000
0000
0000
,
1000
1000
0001
0001
,
0010
0100
1000
0000
,
1000
0010
0100
0001
,
1000
0001
1000
0000
,
0001
0010
0100
0000
,
1000
0100
0010
0000
,
0000
0001
0000
1000
0001
0000
1000
0001
,
0000
1000
0000
0010
0100
0000
0010
0100
,
0000
0010
0000
0100
0001
0000
1000
0001
,
1000
0001
1000
0001
2000
0000
0000
3002
,
0000
0000
0000
0003
;
