#TITLE:Oath Sign;
#SUBTITLE:Fate/Zero Opening 1;
#ARTIST:LiSA;
#TITLETRANSLIT:;
#SUBTITLETRANSLIT:;
#ARTISTTRANSLIT:;
#GENRE:;
#CREDIT:Magna Trick;
#BANNER:OSBN.jpg;
#BACKGROUND:OSBG.jpg;
#LYRICSPATH:;
#CDTITLE:Magna Trick title!.png;
#MUSIC:Oath Sign.mp3;
#OFFSET:-0.212000;
#SAMPLESTART:54.000000;
#SAMPLELENGTH:14.000000;
#SELECTABLE:YES;
#BPMS:0.000000=152.039993
,61.500000=76.019997
,63.000000=152.039993
,96.500000=76.019997
,104.500000=152.039993
,155.000000=304.079987
,157.000000=152.039993
,187.500000=76.019997
,192.500000=152.039993
;
#STOPS:
;
#BGCHANGES:0.063=Oath Sign.avi=1.000=0=0=1=====,
205.000=OSBG.jpg=1.000=0=0=1=====,
99999=-nosongbg-=1.000=0=0=0 // don't automatically add -songbackground-
;
#KEYSOUNDS:;
#ATTACKS:;

//---------------dance-single - ----------------
#NOTES:
     dance-single:
     :
     Hard:
     9:
     0.434803,0.563125,0.307658,0.175805,0.049445,277.000000,249.000000,28.000000,16.000000,0.000000,0.000000,0.434803,0.563125,0.307658,0.175805,0.049445,277.000000,249.000000,28.000000,16.000000,0.000000,0.000000:
0000
0000
0000
0000
,
0000
0000
0000
0000
,
0000
0000
0000
0000
,
0000
0000
0000
0000
,
0000
0000
0000
0000
,
0000
0000
0000
0000
,
0000
0000
0000
0000
,
0000
0000
0000
0000
,
0000
0000
0000
0000
1001
0000
0010
0100
,
0000
0001
0000
1000
0000
0100
0010
0100
,
0000
1000
0000
0001
0000
0100
0001
0100
,
0000
0010
1000
0100
0000
0001
0100
2000
,
0000
3000
0010
0000
1001
0000
0100
0010
,
0000
0100
0000
1000
0001
0000
0010
0001
,
0000
1000
0010
0001
0020
0000
0030
0100
,
0100
0000
0010
0000
1000
0000
1001
0000
0001
0020
0000
0000
0030
0000
0000
0000
,
0110
0000
0001
1000
0010
0000
0100
0000
,
1001
0000
1000
0100
0001
0000
0100
0000
,
1001
0000
0001
0010
1000
0000
0010
0000
,
1001
0000
1000
0001
0100
0000
0010
0100
,
0110
0000
1000
0100
0010
0000
0001
0000
,
1001
0000
1000
0010
0100
0000
0001
0000
,
2002
0000
3003
0000
0001
0010
0100
1000
,
1001
0000
0100
0010
0110
0000
0010
0100
,
0100
0000
0100
0000
0010
0000
0100
0000
0001
0100
0000
1000
0000
0100
0010
0000
,
2000
0000
3000
0000
0001
0000
0010
0000
1000
0010
0000
0001
0000
0100
0001
0000
,
1000
1001
0001
0001
0010
0001
1000
0001
,
0100
1000
0100
0001
0010
0100
1000
0010
,
0100
0001
1000
0000
0000
0000
0010
0000
0110
0000
0000
0000
0010
0000
0100
0000
,
2001
0000
0000
0001
0000
0001
0000
3010
,
0100
0000
1000
0001
1000
0001
0000
0110
,
0100
0100
0010
1000
0010
0100
0001
0010
,
0100
0100
0100
0010
0001
1000
0010
0100
,
0001
1000
1000
0010
0100
0000
0001
0100
,
2000
0000
3000
0100
0000
1001
0000
0110
,
0000
0001
0000
1000
0100
0000
0010
0001
,
0100
0000
0010
1000
0100
0000
0010
0001
,
0010
0001
1000
0010
0100
0001
0010
0000
,
0200
0000
1000
1000
1000
2300
0000
0000
,
0000
0000
3000
0001
0100
0001
1000
0010
,
0100
0001
0000
0010
0010
0100
1000
0100
,
0010
0100
0000
1000
0001
1000
0010
0100
,
0001
0010
0001
1001
0000
0010
0000
0101
,
0000
1010
0000
0100
1000
0010
0100
0000
,
0010
0001
0110
0000
0010
1000
0110
0000
,
0010
0010
0200
0010
0000
0001
0000
1000
,
0000
0310
0110
0000
0001
1000
0010
0200
,
0302
0000
2003
0000
0000
0000
0000
0000
0000
3000
0200
0000
0010
0000
0010
0000
,
0001
0300
0010
0000
0100
0000
1000
0000
1100
0000
0000
0000
0011
0000
0001
0000
,
1000
0001
1000
0000
0010
0000
0100
0000
0101
0000
0000
0000
1010
0000
0000
0000
,
0000
0020
0000
0000
0000
0000
0000
0000
,
0000
0030
0000
0000
;

//---------------dance-single - ----------------
#NOTES:
     dance-single:
     :
     Challenge:
     12:
     0.524275,0.647594,0.406549,0.175805,0.164817,334.000000,297.000000,37.000000,16.000000,0.000000,0.000000,0.524275,0.647594,0.406549,0.175805,0.164817,334.000000,297.000000,37.000000,16.000000,0.000000,0.000000:
// measure 0
0000
0000
0000
0000
,  // measure 1
0000
0000
0000
0000
,  // measure 2
0000
0000
0000
0000
,  // measure 3
0000
0000
0000
0000
,  // measure 4
0000
0000
0000
0000
,  // measure 5
0000
0000
0000
0000
,  // measure 6
0000
0000
0000
0000
,  // measure 7
0000
0000
0000
0000
,  // measure 8
0000
0000
0000
0000
1001
0000
0100
0010
,  // measure 9
1000
0100
0000
0010
0001
0010
0100
1100
,  // measure 10
0000
0011
0000
1000
0010
0100
0001
0011
,  // measure 11
0000
0000
0000
0000
0100
0000
0000
0000
0001
0000
0000
0000
0010
0000
0000
0000
0000
0000
0000
0000
1000
0000
0000
0000
0010
0000
0000
0000
0002
1000
0000
0000
,  // measure 12
0000
0000
0103
0000
0100
0000
0010
1000
1010
0000
0000
0000
0010
0000
0100
0000
,  // measure 13
0001
0010
0000
0001
1000
0100
0001
0100
,  // measure 14
0000
1000
0100
0001
0200
0000
0300
0010
,  // measure 15
0010
0000
0000
0000
0100
0000
0000
0000
0001
0000
0000
0000
1001
0000
0000
0000
1000
0000
0200
0000
0000
0000
0000
0000
0300
0000
0000
1000
0001
0000
0000
0000
,  // measure 16
1001
0000
1000
0001
0100
0001
0010
0000
,  // measure 17
1001
0000
0001
0010
1000
0010
0001
0000
,  // measure 18
1001
0000
1000
0100
0001
0100
1000
0000
,  // measure 19
1001
0000
0001
1000
0010
0100
0001
0010
,  // measure 20
0110
0000
0001
0010
0100
0010
0001
0000
,  // measure 21
1001
0000
0001
0100
0010
0100
0001
0000
,  // measure 22
2002
0000
0000
0000
3003
0000
0001
0000
1000
0001
0010
0000
0100
0000
1000
0000
,  // measure 23
1001
0000
0010
0100
0110
0000
0100
0010
,  // measure 24
0010
0100
0010
0000
0100
0000
0010
0000
1000
0010
0000
0001
0010
0100
0010
0000
,  // measure 25
2000
0000
3000
0000
1000
0000
0100
0000
0001
0100
0000
1000
0100
0010
1000
0000
,  // measure 26
0010
1001
1000
1000
0100
1000
0001
1000
,  // measure 27
0010
0001
1000
0000
0100
0000
0001
0000
0100
0000
0010
0000
0001
0000
0010
0000
,  // measure 28
1000
0100
0001
0000
0000
0000
0100
0000
0110
0000
0000
0000
0100
0000
0010
0000
,  // measure 29
1002
0000
0000
1000
0000
1000
0000
0103
,  // measure 30
0010
0000
0001
0001
0001
0001
0000
0110
,  // measure 31
0010
0100
0010
0000
0100
0000
0001
0000
0100
0000
0010
0000
1000
0000
0100
0000
,  // measure 32
0010
0001
0010
0000
0010
0000
0100
0000
1000
0000
0001
0000
0100
0000
0010
0000
,  // measure 33
1000
0000
0001
0010
0001
0000
0100
0000
0010
0000
0000
0000
1000
0000
0010
0000
,  // measure 34
0001
0110
0000
0010
0000
1010
1000
1100
,  // measure 35
0100
0010
0100
0000
0010
0000
0001
0000
0110
0000
0000
0000
0100
0000
1000
0000
,  // measure 36
0110
0000
0100
0001
0110
0000
0100
1000
,  // measure 37
0100
0010
1000
0100
0010
1000
0001
0100
,  // measure 38
2000
0000
0001
0001
3001
0002
2000
0000
,  // measure 39
0000
0000
0000
3003
0100
0010
0001
0000
1000
0000
0010
0000
0001
0000
1000
0000
,  // measure 40
0100
0000
0001
0000
1000
0100
0010
0000
0001
0000
0100
0000
0020
0000
1030
0000
,  // measure 41
0020
0130
0000
1001
1000
0001
0100
0010
,  // measure 42
1000
0100
1000
1001
0000
0100
0000
1010
,  // measure 43
1000
0000
0101
0000
0001
1000
0001
0000
1000
0000
0100
0000
0110
0000
0000
0000
,  // measure 44
0100
1000
0110
0000
0100
0001
0110
0000
,  // measure 45
0100
0000
0100
0000
0010
0100
0020
0000
0000
0000
1000
0000
0000
0000
0001
0000
,  // measure 46
0000
0030
0100
0000
0110
0000
0000
0000
1000
0000
0001
0000
0100
0010
1000
0100
,  // measure 47
0010
0001
1000
0000
0002
0000
0000
0000
0000
0000
0000
0000
0000
0000
0000
0000
0000
0000
0003
0000
0020
0000
0000
0000
0100
0000
0000
0000
0100
0000
0000
0000
,  // measure 48
1030
0100
1000
0100
0010
0000
0000
0000
0010
0000
0000
0000
0001
0000
0000
0000
0011
0000
0000
0000
0000
0000
0000
0000
1100
0000
0000
0000
1000
0000
0000
0000
,  // measure 49
0001
1000
0001
0000
0100
0000
0010
0000
1010
0000
0000
0000
0101
0000
0000
0000
,  // measure 50
0000
0200
0000
0000
0000
0000
0000
0000
,  // measure 51
0000
0300
0000
0000
;

//---------------dance-single - ----------------
#NOTES:
     dance-single:
     :
     Medium:
     6:
     0.343761,0.450500,0.153829,0.131854,0.027470,219.000000,205.000000,14.000000,12.000000,0.000000,0.000000,0.343761,0.450500,0.153829,0.131854,0.027470,219.000000,205.000000,14.000000,12.000000,0.000000,0.000000:
0000
0000
0000
0000
,
0000
0000
0000
0000
,
0000
0000
0000
0000
,
0000
0000
0000
0000
,
0000
0000
0000
0000
,
0000
0000
0000
0000
,
0000
0000
0000
0000
,
0000
0000
0000
0000
,
0000
0000
1001
0010
,
0100
0001
1000
0100
,
0010
0100
1000
0001
,
0100
0000
0010
0000
1000
0000
0001
0010
,
0100
0010
0100
0000
1001
0000
0010
0000
,
0001
1000
0010
1000
,
0001
0010
0100
1000
,
0001
0000
1000
0000
0001
0000
1000
0000
0001
2000
0000
0000
3000
0000
0000
0000
,
0001
0000
0100
0010
0100
0000
0001
0000
,
0010
0000
0100
0010
0100
0000
1000
0000
,
0010
0000
1000
0010
1000
0000
0010
0000
,
0100
0000
0001
0100
0001
0000
1000
0000
,
0100
0000
0010
0100
0010
0000
0100
0000
,
1000
0000
0001
1000
0001
0000
0100
0000
,
0020
0000
0000
0030
1000
0001
1000
0000
,
1001
0000
0100
0000
1001
0000
1000
0001
,
0000
0000
1000
0000
1000
0000
0001
0000
0000
0100
0000
0100
0000
0000
0010
0000
,
0010
0000
0000
0000
0100
0000
0001
0000
0000
1000
0000
1000
0000
0000
0100
0000
,
0100
0010
0000
0001
0000
0010
0000
0001
,
0000
1000
0000
0100
0000
1000
0000
0100
,
0000
1001
0000
0000
0110
0000
0000
0000
,
1001
0000
0000
0010
0000
0100
0000
0001
,
1000
0000
0100
1000
0100
2000
0000
3010
,
0000
0100
0001
0100
0001
0100
0001
0100
,
0000
0010
1000
0010
1000
0010
1000
0010
,
0000
1000
0001
1000
0001
1000
0001
1000
,
0001
0100
0000
0010
0000
1000
0000
0001
,
0000
0010
0000
0100
0010
0000
0100
1000
,
0010
0000
0100
0001
0010
0000
0001
1000
,
0000
0001
0001
1000
1000
0010
0100
0000
,
0001
0000
1000
0001
1000
0002
0000
0000
,
0000
0003
0000
0000
0000
0000
0001
0000
1000
0000
0100
0000
0010
0000
0000
0000
,
0001
0000
0100
0010
0100
0001
0100
0000
,
0020
0000
0030
1000
0001
1000
0001
1000
,
0001
1000
0010
0100
0000
0001
0000
1001
,
0000
1001
0000
0010
0000
1000
0100
0000
,
0010
0001
0100
0000
0010
1000
0100
0000
,
0010
0001
2000
0000
0000
0000
0000
0000
,
0000
0000
0000
0000
3000
0010
0000
0100
,
0001
2002
0000
0000
3003
0220
0000
0000
,
0330
0001
1000
0001
1000
0000
0110
0000
,
0000
0100
0010
0100
0010
0000
1001
0000
,
0000
2002
0000
0000
0000
0000
0000
0000
,
0000
3003
0000
0000
;

//---------------dance-single - ----------------
#NOTES:
     dance-single:
     :
     Easy:
     3:
     0.221326,0.361567,0.065927,0.087902,0.005494,141.000000,135.000000,6.000000,8.000000,0.000000,0.000000,0.221326,0.361567,0.065927,0.087902,0.005494,141.000000,135.000000,6.000000,8.000000,0.000000,0.000000:
0000
0000
0000
0000
,
0000
0000
0000
0000
,
0000
0000
0000
0000
,
0000
0000
0000
0000
,
0000
0000
0000
0000
,
0000
0000
0000
0000
,
0000
0000
0000
0000
,
0000
0000
0000
0000
,
0000
0000
1000
0100
,
0010
0000
0001
0100
,
0010
0000
1000
0010
,
0100
0000
0001
1000
,
0100
0000
0010
0010
,
0001
0000
1000
1000
,
0010
0000
0100
0000
,
0001
0000
0000
0000
0001
0000
0000
0000
0000
2000
0000
0000
0000
3000
0000
0000
,
0000
0000
0000
1000
0000
1000
0000
0010
,
0000
0000
0000
0001
0000
0001
0000
0010
,
0000
0000
0000
1000
0000
1000
0000
0100
,
0000
0000
0000
0001
0000
0001
0000
0100
,
0000
0000
0000
0001
0000
0001
0000
1000
,
0000
0000
0000
1000
0000
1000
0000
0001
,
0000
1000
0000
0000
0000
0010
0000
0100
,
0000
0001
0000
1000
0000
0100
0000
0010
,
0000
0110
0001
1000
0000
0010
0000
0100
,
0100
0000
0001
0001
0000
1000
0000
0100
,
0100
0010
0000
0001
0000
0010
0000
0001
,
0000
1000
0000
0100
0000
1000
0000
0100
,
0000
1001
0000
0000
0010
0000
0000
0000
,
2000
0000
0000
0000
,
3020
0000
0000
0000
0000
0000
0000
0030
,
0000
0100
0000
0100
0000
0010
0000
0100
,
0000
0001
0000
0001
0000
0100
0000
0001
,
0000
1000
0000
1000
0000
0001
0000
0001
,
0000
1000
0000
0010
0000
0100
0000
0001
,
0000
1001
0000
0000
1010
0000
0000
0000
,
0101
0000
1001
0000
,
0000
1000
0000
1000
0000
0001
0000
0010
,
0000
0100
0000
1000
0000
0002
0000
0000
,
0000
0003
0000
0100
0000
0010
0000
1000
,
0000
0001
0000
1000
0000
0010
0000
0100
,
0000
0001
0000
0010
0000
0010
0000
0100
,
0000
1000
0000
0001
0000
0000
0000
0010
,
0000
0100
0000
0001
0000
0001
0000
1000
,
0000
0100
0000
1000
0000
0001
0000
0010
,
0000
0100
0000
2000
0000
0000
0000
0000
,
0000
0000
0000
3000
0000
0010
0000
0010
,
0100
0002
0000
0000
0000
2003
0000
0000
,
3000
0001
0000
1000
0100
0000
1000
0000
,
0000
0001
0000
0010
0001
0000
1000
0000
,
0000
0002
0000
0000
0000
0003
0000
0000
;
