#TITLE:No Limit;
#SUBTITLE:Fairy Tail Opening 25;
#ARTIST:Osaka☆Shunka Shuutou;
#TITLETRANSLIT:;
#SUBTITLETRANSLIT:;
#ARTISTTRANSLIT:;
#GENRE:;
#CREDIT:Magna Trick;
#BANNER:NLBN.jpg;
#BACKGROUND:NLBG.jpg;
#LYRICSPATH:;
#CDTITLE:Magna Trick title!.png;
#MUSIC:No Limit.mp3;
#OFFSET:-0.060000;
#SAMPLESTART:30.530001;
#SAMPLELENGTH:14.000000;
#SELECTABLE:YES;
#BPMS:0.000000=190.000000
,62.000000=95.000000
,63.500000=190.000000
,120.500000=142.500000
,138.500000=190.000000
,154.000000=47.500000
,155.000000=190.000000
;
#STOPS:
;
#BGCHANGES:0.063=No Limit.avi=1.000=0=0=1=====,
269.000=NLBG.jpg=1.000=0=0=1=====,
99999=-nosongbg-=1.000=0=0=0 // don't automatically add -songbackground-
;
#KEYSOUNDS:;
#ATTACKS:;

//---------------dance-single - ----------------
#NOTES:
     dance-single:
     :
     Hard:
     12:
     0.637156,0.702438,0.386471,0.522259,0.156678,427.000000,390.000000,37.000000,50.000000,0.000000,0.000000,0.637156,0.702438,0.386471,0.522259,0.156678,427.000000,390.000000,37.000000,50.000000,0.000000,0.000000:
0000
0000
0000
0000
,
0000
0000
0000
0000
,
2000
0100
3002
0010
,
0203
0000
0000
0320
0000
0000
1030
0000
,
0010
1000
0010
0000
1100
0000
1010
0000
,
0100
0001
0010
0200
0000
0300
1000
0000
,
0200
1000
0320
0001
,
0130
0100
0100
0100
0010
0001
0010
0001
,
0000
1100
0000
0101
0000
1000
0100
1000
,
0001
0200
0000
0300
0010
0100
0010
1000
,
0000
0011
0000
1010
0000
0001
1000
0100
,
1000
1000
1000
1000
0100
1000
0001
0100
,
0000
1010
0000
1100
0000
0010
0001
0100
,
0001
1000
0000
0001
1000
0010
1000
0100
,
0000
0010
0001
0100
0000
0001
0100
0001
,
1000
0000
0000
0000
1000
0000
0000
0000
1000
0000
0000
0000
1001
0000
0000
0000
0000
0000
0001
0000
1000
0000
0100
0000
0010
0000
0001
1000
0100
0000
0000
0000
,
0000
0011
0001
0000
1000
0000
0010
0000
,
1010
0000
1000
0000
0000
1000
0001
0100
,
0000
0110
0010
0000
2000
0000
3002
0000
,
0023
0000
0130
1000
0001
1000
0010
0100
,
0001
0101
0200
0000
2300
0000
3002
0000
,
0013
1001
0100
0000
0000
0100
0010
0001
,
0000
1001
0001
0100
0100
0010
0010
0100
,
0001
1000
1000
0100
0100
0010
0010
0110
,
0000
1001
0000
0100
0010
0001
0010
0100
,
0010
0001
1000
0010
0001
0010
1000
0200
,
0000
0310
0001
0100
0010
1000
0100
1000
,
0010
0000
0100
0000
0001
0000
0010
0000
0100
0000
0010
0000
0000
0001
0000
0000
,
1000
0110
0000
1000
0100
0010
0100
0001
,
0100
0010
0100
0010
0100
1000
0100
0010
,
0001
0000
0000
0000
0101
0000
0000
0000
0000
0000
0110
0000
0000
0000
0000
0000
2010
0000
0000
0000
0000
0000
3001
0000
0000
0000
0000
0000
0100
0000
0000
1000
,
0000
0000
0001
0000
0000
0001
0000
0000
1000
0000
0000
1000
0000
0000
0010
0000
0000
1000
0000
0000
2000
0000
0000
0000
0000
0000
3002
0000
0000
0000
0000
0000
,
0023
0000
0000
0000
0000
0000
0130
0000
0000
1000
0000
0000
0001
0000
0000
0000
0000
0000
1001
0000
0000
0000
0000
0000
1000
0000
0000
0001
0000
0000
0000
0000
,
0000
0000
0000
0000
1100
0000
0000
0000
0000
0000
0110
0000
0000
0000
0000
0000
0012
0000
0000
0000
0000
0000
1003
0000
0000
0000
0000
0000
0010
0000
0000
0100
,
0000
0000
0001
0000
0000
0010
0000
0000
1000
0000
0000
0001
0000
0000
1000
0000
0000
0010
0000
0000
0002
0000
0000
0000
0000
0000
0000
0000
0003
0000
0000
0000
,
0010
0200
0000
1300
0001
1000
0001
0100
,
0010
0000
0100
0000
0100
0000
0010
0000
1000
0000
0010
0000
0000
0100
0001
0000
,
0000
0100
0010
0000
0000
0100
0001
0000
0000
1000
0010
0000
0010
0000
0100
0000
,
0100
0001
0001
1001
2100
0000
3001
0000
,
1000
0100
0000
0010
0001
1000
0002
0000
,
0103
0010
1000
0002
0000
1003
0000
0001
,
0010
0100
0000
1000
0002
0000
0103
0000
,
0010
1000
0100
0001
1000
0010
0000
0001
,
0000
0101
0000
0011
0000
1100
0000
1010
,
0000
0110
0000
1001
0000
1100
0000
0021
,
0000
0000
0031
2000
0000
0000
3010
0200
,
0000
0002
0000
0000
0303
0000
1001
0000
,
0001
0100
0000
0010
0100
0001
0000
1000
,
0100
0010
0001
0010
0100
2000
0000
3010
,
0100
0001
0000
0100
0010
1000
0200
0000
,
1300
0001
0100
0001
0010
2000
0000
3001
,
0100
0010
0100
0010
0001
1000
0010
0100
,
1000
0001
0010
1000
0100
0010
0002
0000
,
0000
0100
0000
0000
0000
1000
0000
0000
,
0000
0100
0000
0000
0000
1000
0000
0000
,
0000
0010
0000
0000
0000
0100
0003
0100
,
1000
0100
0010
1000
0100
0010
0020
0000
,
0031
0010
0000
1000
0010
0100
0000
0010
,
0001
0100
0010
0100
0100
0001
1000
0100
,
0100
1000
0002
0000
0203
0000
0320
0000
,
1030
0100
1000
0010
0100
0002
0000
0013
,
0001
0100
0020
0000
2030
0000
3010
0000
,
0001
1000
0100
0010
0010
1000
1000
0010
,
0001
1000
0200
0000
0302
0000
2003
0000
,
3100
1000
0010
0001
0020
0000
1030
0100
,
0001
0100
2000
0000
3020
0000
0230
0000
,
0301
1000
0000
0010
1000
0100
0220
0000
,
0000
0330
0000
0000
;

//---------------dance-single - ----------------
#NOTES:
     dance-single:
     :
     Challenge:
     14:
     0.765482,0.842926,0.490923,0.522259,0.323800,513.000000,466.000000,47.000000,50.000000,0.000000,0.000000,0.765482,0.842926,0.490923,0.522259,0.323800,513.000000,466.000000,47.000000,50.000000,0.000000,0.000000:
// measure 0
0000
0000
0000
0000
0000
0000
1000
0001
1000
0000
0001
1000
0001
0000
0100
0010
,  // measure 1
0100
0001
1000
0100
0010
0001
0100
0000
0010
0000
1000
0000
0001
0000
0100
0000
,  // measure 2
0002
0010
2003
0100
,  // measure 3
3020
0100
0100
0230
0000
0000
0301
0000
,  // measure 4
0100
0001
0100
0000
0011
0000
0101
0000
,  // measure 5
0010
1000
0100
0020
0000
0030
0001
0000
,  // measure 6
0020
0001
0230
1000
,  // measure 7
0310
0010
0010
0010
0100
1000
0100
0001
,  // measure 8
0000
0000
0011
0000
0000
0000
1010
0000
0000
0000
0001
0000
0010
0000
0001
1000
,  // measure 9
0100
0020
0000
0130
0100
0010
0100
0001
,  // measure 10
0000
1100
0000
0101
0000
1000
0001
0010
,  // measure 11
0001
0100
0000
0001
0100
0000
0001
0100
0000
0001
0100
0000
0010
0000
0000
0001
0000
0000
1000
0000
0000
0010
0000
0000
,  // measure 12
0000
0000
0101
0000
0000
0000
0011
0000
0000
0000
0100
0000
1000
0000
0010
1000
,  // measure 13
0001
0100
0000
0010
1000
0100
0010
0001
,  // measure 14
0000
0100
0001
0010
0000
0001
1000
0001
,  // measure 15
0101
0000
0000
0000
1001
0000
0000
0000
1100
0000
0000
0000
1001
0000
0000
0000
0000
0000
1000
0000
0001
0000
0010
0000
0100
0000
1000
0001
0010
0000
0000
0000
,  // measure 16
0000
1100
1000
0001
1000
0010
0100
0001
,  // measure 17
0100
0101
0001
1000
0100
0010
0001
0010
,  // measure 18
1000
1010
0110
0000
0002
0000
2003
0000
,  // measure 19
3200
0000
0310
0001
1000
0001
0100
0010
,  // measure 20
1000
1010
0020
0000
0032
0000
2003
0000
,  // measure 21
3100
1001
0010
0000
0000
0010
0100
1000
,  // measure 22
0000
1001
1000
0010
0010
0100
0100
0010
,  // measure 23
1000
0001
0001
0010
0010
0100
0100
0110
,  // measure 24
0000
1001
0001
0010
0100
1000
0100
0010
,  // measure 25
0100
0000
1000
0000
0001
0000
0100
0000
1000
0000
0100
0001
0010
0100
0020
0000
,  // measure 26
0000
0130
1000
0010
0100
0001
0010
0001
,  // measure 27
0100
0000
0010
0000
1000
0000
0100
0000
0010
0000
0100
1000
0000
1000
0001
0000
,  // measure 28
0001
0110
0010
0001
0010
0100
0010
1000
,  // measure 29
0010
0000
0100
0010
0000
0010
0100
1000
0010
0100
0001
0000
0010
0000
0100
0000
,  // measure 30
1000
0000
0000
0000
1010
0000
0000
0000
0000
0000
0110
0000
0000
0000
0000
0000
0102
0000
0000
0000
0000
0000
1003
0000
0000
0000
0000
0000
0010
0000
0000
0001
,  // measure 31
0000
0000
1000
0000
0000
1000
0000
0000
0001
0000
0000
0001
0000
0000
0100
0000
0000
0001
0000
0000
0002
0000
0000
0000
0000
0000
2003
0000
0000
0000
0000
0000
,  // measure 32
3200
0000
0000
0000
0000
0000
0310
0000
0000
0001
0000
0000
1000
0000
0000
0000
0000
0000
1001
0000
0000
0000
0000
0000
0001
0000
0000
1001
0000
0000
0000
0000
,  // measure 33
0000
0000
0000
0000
0011
0000
0000
0000
0000
0000
0110
0000
0000
0000
0000
0000
2100
0000
0000
0000
0000
0000
3001
0000
0000
0000
0000
0000
0100
0000
0000
0010
,  // measure 34
0000
0000
0000
0000
0000
0000
0000
0000
0000
0000
0000
0000
1000
0000
0000
0000
0000
0000
0000
0000
0000
0000
0000
0000
0000
0000
0000
0000
0000
0000
0001
0000
0000
0000
0000
0000
0000
0000
0000
0000
0000
0000
0000
0000
0000
0000
0000
0000
1000
0000
0000
0000
0000
0000
0000
0000
0000
0000
0000
0000
0000
0000
0000
0000
0000
0000
0100
0000
0000
0000
0000
0000
0000
0000
0000
0000
0000
0000
0000
0000
0000
0000
0000
0000
0010
0000
0000
0000
0000
0000
0000
0000
0001
0000
0000
0000
0000
0000
0000
0000
0000
0000
1000
0000
0000
0000
0000
0000
0000
0000
0000
0000
0100
0000
0000
0000
0000
0000
0000
0000
0020
0000
0000
0000
0000
0000
0000
0000
0000
0000
0000
0000
0000
0000
0000
0000
0000
0000
0000
0000
0000
0000
0000
0000
0000
0000
0000
0000
0000
0000
0000
0000
0000
0000
0000
0000
0000
0000
0000
0000
0000
0000
0000
0000
0000
0000
0000
0000
0130
0000
0000
0000
0000
0000
0000
0000
0000
0000
0000
0000
0000
0000
0000
0000
0000
0000
0000
0000
0000
0000
0000
0000
,  // measure 35
0100
0020
0000
0031
1000
0001
1000
0010
,  // measure 36
0100
0000
0010
0000
0010
0000
0100
0000
0001
0000
1000
0100
0010
0001
0010
0000
,  // measure 37
0100
1000
0100
0000
0010
0001
0010
0000
0000
0001
0100
0000
0100
0000
0010
0000
,  // measure 38
0010
1000
1000
1001
0012
0000
1003
0000
,  // measure 39
0001
0011
0000
0100
1000
0001
2000
0000
,  // measure 40
3010
0100
0001
2000
0000
3001
0000
1000
,  // measure 41
0100
0010
0000
0001
2000
0000
3010
0000
,  // measure 42
0100
0001
0010
1000
0001
0100
0000
1000
,  // measure 43
0000
1010
1000
1100
0000
0011
0001
0101
,  // measure 44
0000
0110
0000
1001
0000
0011
0000
1200
,  // measure 45
0000
0000
1300
0002
0000
0000
0103
0020
,  // measure 46
0000
0000
2030
0000
0000
3000
0001
1000
0001
1000
0001
0000
1001
0000
0000
0000
,  // measure 47
1000
1010
0000
0100
0010
1000
0000
0001
,  // measure 48
0010
0100
1000
0100
0010
0002
0000
0103
,  // measure 49
0010
1000
0000
0010
0100
0001
0020
0000
,  // measure 50
0031
1000
0010
1000
0100
0002
0000
1003
,  // measure 51
0010
0100
0010
0100
1000
0001
0100
0010
,  // measure 52
0001
1000
0001
0000
0010
1000
0010
0000
1000
0100
1000
0010
2000
0000
0000
0000
,  // measure 53
0000
0010
0000
0010
0010
0001
0000
0010
,  // measure 54
0010
0001
0000
0010
0010
0001
0000
0010
,  // measure 55
0010
0001
0000
0010
0010
0001
3000
0010
,  // measure 56
0001
0010
0100
0001
0010
0100
0200
0000
,  // measure 57
1300
0100
0000
0001
0100
0010
0000
0100
,  // measure 58
1000
0010
0100
1010
1010
1001
0001
0010
,  // measure 59
0010
0001
2000
0000
3020
0000
0230
0000
,  // measure 60
0301
0010
0001
0100
0010
2000
0000
3100
,  // measure 61
1000
0010
0200
0000
0302
0000
0103
0000
,  // measure 62
1000
0000
0000
0001
0000
0000
0010
0000
0000
0100
0001
0000
0100
0001
0000
1000
0010
0000
1000
0010
0000
0100
0000
0000
,  // measure 63
0001
0001
0020
0000
2030
0000
3002
0000
,  // measure 64
0013
0001
0100
1000
0200
0000
0301
0010
,  // measure 65
1000
0010
0002
0000
0203
0000
0320
0000
,  // measure 66
1030
0001
0000
0100
0001
0010
0220
0000
,  // measure 67
0000
0330
0000
0000
;

//---------------dance-single - ----------------
#NOTES:
     dance-single:
     :
     Medium:
     10:
     0.489431,0.632194,0.167123,0.616265,0.146232,328.000000,312.000000,16.000000,59.000000,0.000000,0.000000,0.489431,0.632194,0.167123,0.616265,0.146232,328.000000,312.000000,16.000000,59.000000,0.000000,0.000000:
0000
0000
0000
0000
,
0000
0000
0000
0000
,
0002
0000
2003
0000
,
3020
0000
0000
0230
0000
0000
0301
0000
,
0100
0001
0100
0000
0011
0000
0101
0000
,
0010
1000
0000
0002
0000
0003
1000
0000
,
0020
0000
0230
0000
,
0310
1000
0010
1000
0001
0100
0001
0100
,
0000
0001
0000
1000
0000
0001
0010
0001
,
1000
0002
0000
0003
0100
0010
0100
0001
,
0000
1000
0000
0001
0000
1000
0001
0000
,
0001
1000
0001
1000
0100
0010
0100
0010
,
0000
0100
0000
0001
0000
0100
0010
0100
,
0010
0100
0000
1000
0001
0100
0001
1000
,
0000
0100
0000
1000
0000
0001
1000
0001
,
0100
0000
0000
0000
0010
0000
0000
0000
0100
0000
0000
0000
0010
0000
0000
0000
0000
0000
0000
0000
0000
0000
0000
0000
0000
0000
1000
0001
1000
0000
0000
0000
,
0000
1100
0000
0000
0000
0000
0000
0000
,
0000
0101
0000
0000
0000
0000
0000
0000
,
0000
0110
0000
0000
0002
0000
2003
0000
,
3200
0000
0300
0000
0000
0010
0000
0001
,
0000
1000
0200
0000
0320
0000
0032
0000
,
0103
0010
0100
0000
0000
0010
0000
0100
,
0000
0001
0001
1000
1000
0100
0100
0010
,
0001
1000
1000
0001
0001
1000
1000
1001
,
0000
1001
0000
0010
0000
0100
1000
0100
,
1000
0000
0100
0100
0010
0100
0010
0020
,
0000
0031
0000
1000
0000
0001
0000
0100
,
0100
0000
0000
0000
0010
0000
1000
0000
0010
0000
1000
0000
0000
1000
0000
0000
,
1000
0010
0000
1000
0000
0001
0100
0001
,
0000
0010
0000
0100
0000
1000
0010
0100
,
0001
0000
0000
0000
1000
0000
0000
0000
0000
0000
0010
0000
0000
0000
0000
0000
0002
0000
0000
0000
0000
0000
1003
0000
0000
0000
0000
0000
0010
0000
0000
0001
,
0000
0000
1000
0000
0000
1000
0000
0000
0001
0000
0000
0001
0000
0000
0100
0000
0000
0001
0000
0000
0002
0000
0000
0000
0000
0000
2003
0000
0000
0000
0000
0000
,
3200
0000
0000
0000
0000
0000
0310
0000
0000
0001
0000
0000
1000
0000
0000
0000
0000
0000
0001
0000
0000
0000
0000
0000
0001
0000
0000
1000
0000
0000
0000
0000
,
0000
0000
0000
0000
0001
0000
0000
0000
0000
0000
0010
0000
0000
0000
0000
0000
2000
0000
0000
0000
0000
0000
3001
0000
0000
0000
0000
0000
0100
0000
0000
0010
,
0000
0000
1000
0000
0000
0100
0000
0000
0010
0000
0000
0001
0000
0000
1000
0000
0000
0001
0000
0000
2000
0000
0000
0000
0000
0000
0000
0000
3000
0000
0000
0000
,
0100
0020
0000
0001
0000
0031
0000
0001
,
0000
0000
1000
0000
0000
0000
0010
0000
0000
0000
0100
0000
0000
0001
1000
0000
,
0000
0001
1000
0000
0000
0001
1000
0000
0000
0001
1000
0000
1000
0000
0001
0000
,
0001
1000
1000
0100
0200
0000
1300
0000
,
0001
0010
0000
0100
0000
1000
2000
0000
,
3010
0100
0000
0002
0000
2003
0000
3000
,
0000
0100
0000
0010
0001
0000
0010
0000
,
0100
0010
0100
0010
0000
0100
0000
1000
,
0000
1010
0000
1100
0000
0011
0000
0101
,
0000
0110
0000
1001
0000
0011
0000
1200
,
0000
0000
1300
0002
0000
0000
0103
0020
,
0000
2000
0000
0000
3030
0000
1001
0000
,
0000
0010
0000
0100
0010
0000
1000
0000
,
0010
0100
0000
0001
0000
0002
0000
0003
,
0000
1000
0000
0010
0100
0000
0020
0000
,
1030
0010
1000
0010
0000
2000
0000
3001
,
0000
0200
0000
0320
0000
2030
0000
3002
,
0000
2003
0000
3200
0000
0300
2000
0000
,
0000
0010
0000
0000
0000
0001
0000
0000
,
0000
0010
0000
0000
0000
0001
0000
0000
,
0000
0100
0000
0000
0000
0010
3000
1000
,
0000
1000
0000
0001
1000
0000
0200
0000
,
0300
0000
0000
0020
0000
0000
0000
0032
,
0000
0000
0000
2003
0000
0000
3000
0001
,
1000
0001
2000
0000
3020
0000
0230
0000
,
0301
0010
0001
0010
0002
0000
0003
1000
,
0100
1000
0200
0000
0320
0000
0032
0000
,
1003
0001
0000
0100
0100
0010
0010
0100
,
0001
0100
0020
0000
2030
0000
3002
0000
,
0013
0001
0000
1000
0200
0000
0300
0010
,
0100
0010
0002
0000
0203
0000
0320
0000
,
1030
0001
0000
0100
0001
0010
0200
0000
,
0000
0300
0000
0000
;

//---------------dance-single - ----------------
#NOTES:
     dance-single:
     :
     Easy:
     8:
     0.399901,0.597072,0.135787,0.720717,0.067894,268.000000,255.000000,13.000000,69.000000,0.000000,0.000000,0.399901,0.597072,0.135787,0.720717,0.067894,268.000000,255.000000,13.000000,69.000000,0.000000,0.000000:
0000
0000
0000
0000
,
0000
0000
0000
0000
,
2000
0000
3002
0000
,
0203
0000
0000
0320
0000
0000
0000
0000
,
0000
0030
1000
1000
,
0001
0001
0000
2000
0000
3000
0000
0000
,
0200
0000
0320
0000
,
2030
0000
0000
3002
0000
0000
0000
0000
,
0000
0000
0000
0003
0000
1000
1000
0000
,
0001
0002
0000
0003
0010
0000
0010
0100
,
0000
1000
0000
1000
0000
0001
1000
0000
,
1000
0001
1000
0001
1000
0001
1000
0001
,
0000
0010
0000
0100
0000
0010
0010
0000
,
0010
0010
0000
0001
1000
0000
0001
1000
,
0000
0010
0000
0100
0000
0001
0100
0000
,
0001
1000
0001
1000
0000
0000
0000
0000
,
0000
0011
0000
0000
0000
0000
0000
0000
,
0000
1010
0000
0000
0000
0000
0000
0000
,
0000
0110
0000
0000
2000
0000
3002
0000
,
0023
0000
0030
0000
0000
0100
0000
1000
,
0000
0001
0020
0000
0230
0000
2300
0000
,
3020
0000
0230
0000
0300
0002
0000
2003
,
0000
3100
0020
0000
0032
0000
2003
0000
,
3200
0000
0000
0000
0300
0000
0010
0010
,
0000
1001
0000
0100
0000
0010
0000
0001
,
0000
1000
0000
0010
0000
0010
0000
0200
,
0000
0301
0000
0001
0000
0001
0000
1000
,
1000
0000
0000
0000
1000
0000
1000
0000
0000
0000
0001
0000
0000
0001
0000
0000
,
0001
1000
0000
0001
0000
1000
0000
1000
,
0000
0100
0000
0010
0000
0001
0000
1000
,
0000
0000
0001
0000
0000
0001
0000
0000
2000
0000
0000
3001
0000
0000
0100
0000
,
0000
0010
0000
0000
1000
0000
0000
0010
0000
0000
2000
0000
0000
3002
0000
0000
,
0023
0000
0000
0000
0000
0000
0130
0000
0000
0000
0000
0000
1000
0000
0000
0000
0000
0000
0001
0000
0000
0000
0000
0000
1000
0000
0000
0001
0000
0000
0000
0000
,
0000
0000
0000
0000
1000
0000
0000
0000
0000
0000
0100
0000
0000
0000
0000
0000
0020
0000
0000
0000
0000
0030
0001
0000
0000
0000
0000
0000
0010
0000
0000
0000
,
0000
0001
0000
0000
0100
0000
0000
0010
0000
0000
2000
0000
0000
0000
3000
0000
,
0010
0200
0000
0001
0000
0301
0000
0001
,
0000
0001
0000
0100
0000
0010
1000
0001
,
1000
0001
1000
0001
1000
0001
0001
1000
,
1000
0001
0001
0010
0020
0000
0031
0000
,
0000
0100
0000
0010
0000
0001
0002
0000
,
1003
1000
0000
2000
0000
3002
0000
0003
,
0000
0010
0000
0100
0000
0000
0100
0000
,
0010
0010
0000
0001
0000
1000
0000
0001
,
0000
1001
0000
1001
0000
0110
0000
0110
,
0000
1001
0000
1001
0000
0110
0000
0120
,
0000
0000
0031
0002
0000
0000
0103
0200
,
0000
0002
0000
0000
0303
0000
1001
0000
,
0000
0100
0000
0001
1000
0000
0001
0000
,
1000
0001
0000
1000
0000
2000
0000
3000
,
0000
0001
0000
1000
0001
0000
2000
0000
,
3001
1000
0001
1000
0000
0002
0000
1003
,
0000
0020
0000
0230
0000
0302
0000
2003
,
0000
3002
0000
0023
0000
0030
0002
0000
,
0000
0000
0000
0000
,
0000
0000
0000
0000
,
0000
0000
0000
0000
0000
0000
0003
0001
,
0000
0001
0000
1000
1000
0000
0002
0000
,
0003
0000
0000
0200
0000
0000
0000
2300
,
0000
0000
0000
3002
0000
0000
0003
1000
,
0001
1000
0002
0000
0203
0000
0320
0000
,
1030
0100
0000
1000
0200
0000
0300
0010
,
0001
0010
0002
0000
2003
0000
3002
0000
,
1003
1000
0000
0010
0010
0100
0100
0001
,
1000
0001
2000
0000
3002
0000
2003
0000
,
3100
1000
0000
0001
0020
0000
0030
0100
,
0010
0100
2000
0000
3020
0000
0230
0000
,
0301
1000
0000
0010
1000
0010
0020
0000
,
0000
0030
0000
0000
;
