#TITLE:Netsujou no Spectrum;
#SUBTITLE:Nanatsu no Taizai Opening 1;
#ARTIST:Ikimono-Gakari;
#TITLETRANSLIT:;
#SUBTITLETRANSLIT:;
#ARTISTTRANSLIT:;
#GENRE:;
#CREDIT:Magna Trick;
#BANNER:NNSBN.jpg;
#BACKGROUND:NNSBG.jpg;
#LYRICSPATH:;
#CDTITLE:Magna Trick title!.png;
#MUSIC:Netsujou no Spectrum.mp3;
#OFFSET:-0.090499;
#SAMPLESTART:56.000000;
#SAMPLELENGTH:14.000000;
#SELECTABLE:YES;
#BPMS:0.000000=171.940002
,375.500000=344.000000
,437.500000=86.000000
,453.500000=172.000000
;
#STOPS:380.000000=0.020000
;
#BGCHANGES:0.063=Netsujou no Spectrum.avi=1.000=0=0=1=====,
595.500=NNSBG.jpg=1.000=0=0=1=====,
99999=-nosongbg-=1.000=0=0=0 // don't automatically add -songbackground-
;
#KEYSOUNDS:;
#ATTACKS:;

//---------------dance-single - ----------------
#NOTES:
     dance-single:
     :
     Hard:
     13:
     0.659965,1.047322,0.426588,0.712596,0.135733,953.000000,865.000000,88.000000,147.000000,0.000000,0.000000,0.659965,1.047322,0.426588,0.712596,0.135733,953.000000,865.000000,88.000000,147.000000,0.000000,0.000000:
0000
0000
0000
0000
,
2000
3200
0320
0032
,
2003
0000
0000
3000
0020
0000
0230
0000
,
0302
2003
3200
0320
,
0032
0000
0000
0000
0000
0000
0000
0000
0000
0003
0000
0000
1000
0000
0100
0000
,
1000
0010
1000
0001
1000
0000
0010
0100
,
0010
1000
0010
0001
0010
0000
0100
0001
,
2000
0000
3200
0000
0320
0000
0032
0003
,
1001
1000
1001
0001
,
1000
0001
0100
0001
1000
0100
1000
0001
,
0200
0300
0020
0230
,
0302
0000
2003
0000
3100
0010
0100
1000
,
0002
0000
0100
0000
0013
0000
0100
0001
,
1000
0001
1000
0001
1000
0000
0100
1000
,
0001
1000
0001
1000
0001
0000
1000
0010
,
0200
0000
0000
0000
0302
0000
0000
0000
2003
0000
0000
0000
3200
0000
0000
0300
,
0110
0000
0000
0000
0110
0010
0001
2000
,
0100
0000
0000
0000
0010
0000
3000
0001
1000
0000
1000
0000
0000
0000
2002
0000
,
3003
0000
0000
0000
0010
0000
0000
0100
0001
0000
1000
0000
0000
0000
2002
0000
,
3003
0000
0000
0000
1000
0000
0100
0010
0100
0000
1000
0000
0001
0000
1001
0000
,
0000
1001
0000
0110
0000
2001
0000
0000
,
3001
0010
0100
0010
0001
1000
0010
0100
,
0010
0100
0001
1000
0100
0010
0001
0010
,
0200
0000
1300
0010
0200
0000
1300
0000
,
0100
0000
0001
0000
0010
0001
0100
0010
,
1000
0100
1000
0010
0100
0001
0010
0001
,
0100
0001
1000
0010
1000
0100
1000
0010
,
0200
0000
0301
1000
0200
0000
1300
0001
,
0100
0000
0001
1000
1001
0001
1000
1000
,
0100
0000
1000
0100
1000
0001
0100
0001
,
0011
0000
0100
0000
0010
0000
0001
0010
,
1010
0000
1000
0000
0011
1000
0010
0001
,
2000
0000
3200
0000
0320
0000
1030
0100
,
1100
0000
0001
0010
0100
1000
0010
0100
,
0101
0000
1000
0000
0100
0000
1000
0001
,
1001
0000
0010
0000
0001
0000
1000
0001
,
0010
0000
0100
0001
0100
0010
0100
1000
,
1001
0010
0001
0101
0010
1000
1100
0010
,
0001
1000
0000
0000
0000
0000
1000
0001
0100
0010
0100
0010
0100
0010
0100
0010
,
2000
3002
0203
0320
,
2030
3000
0002
2003
,
3020
0000
0000
0000
0230
0000
0000
0000
0302
0000
0000
0000
2003
0000
0000
3000
,
0200
0000
0000
0000
0000
0000
0310
0001
,
0100
0010
1000
0100
1000
0000
0010
0100
,
0001
0010
0100
0010
0001
0000
1000
0010
,
0001
0000
0000
0000
2000
0000
0000
0000
3200
0000
0000
0300
0020
0000
0000
0000
,
2030
3200
0320
0032
,
1003
0100
1000
0010
0100
0001
0010
0100
,
0010
0000
0001
0000
1000
0010
0100
1000
,
0002
0023
2030
3200
,
0310
0000
0001
0000
0010
0000
0100
0000
1000
0000
0010
0000
0100
0000
0001
1000
,
0010
1000
0100
0010
1010
0000
0100
1000
,
0011
0001
0010
0100
1100
0000
1000
0001
,
2001
0000
0000
0000
3020
0000
0000
0000
0230
0000
0000
0000
0302
0000
0000
0003
,
2002
0000
0000
3003
0000
0000
0000
0000
1001
0000
1001
0000
1000
0000
0001
0000
,
0100
0000
0000
0000
0010
0000
0000
1000
0010
0000
1000
0000
0000
0000
0002
0000
,
0000
0000
0003
0000
0100
0000
0000
0001
0100
0000
0001
0000
0000
0000
2000
0000
,
0000
0000
3000
0000
0100
0000
0000
1000
0100
0000
1000
0000
0000
0000
1001
0000
,
0000
1001
0000
0110
0000
0120
0000
0000
,
1030
0100
1000
0010
0100
0001
0010
0001
,
0010
0001
0100
0010
1000
0100
1000
0010
,
0100
0000
0001
0100
2000
0000
0100
0000
,
3001
0000
0010
0000
0001
0010
0100
1000
,
0010
0100
0010
1000
0100
0010
0001
0010
,
0100
0010
0100
1000
0010
0100
0001
1000
,
0100
0000
0010
0001
1000
0000
0010
1000
,
0001
0000
0100
0001
1001
1000
0000
0000
,
1001
0000
0010
0100
0001
1000
0100
1000
,
1010
0000
0010
0000
0100
0000
0001
0010
,
0011
0000
0100
0000
1001
0001
0100
0010
,
1010
0000
0011
0000
1001
0000
0001
0100
,
0110
0000
1000
0100
0010
0001
0010
0100
,
0110
0000
0100
0000
1000
0000
0010
0100
,
0002
0000
1000
0000
0100
0000
1003
0001
,
2000
0000
3010
0100
0001
1000
0100
0010
,
0011
0100
1000
1010
0010
0100
1001
0001
,
1000
0001
0000
0000
0000
0000
0001
1000
0000
0000
0000
0000
0000
0000
0000
0000
,
0001
0100
0010
0100
0010
1000
0100
1000
,
0020
0000
0130
0000
0001
0010
0100
1000
,
1010
1010
0101
0101
,
1001
0000
0110
0000
1001
0000
0100
1000
,
0001
0010
0100
1000
0010
0000
0010
0100
,
1000
0001
0010
1000
0100
0000
0100
1000
,
0002
0000
0000
0000
0023
0000
0000
0000
0230
0000
0000
0300
2000
0000
0000
0000
,
3001
0100
0001
0100
0001
0000
1000
0100
2000
0000
0000
0000
3002
0000
0000
0000
,
0013
0100
0001
0100
0010
0001
0100
0010
,
2000
0000
3010
0000
0100
1000
0001
0010
,
2000
3200
0320
0032
,
1003
0000
1000
0000
0010
0000
0010
0000
0100
0000
0100
0001
1000
0001
1000
0001
,
0010
0100
1000
0001
0011
0000
1000
0100
,
0010
0001
1000
0100
1100
0000
1000
0010
,
0200
0000
0000
0000
0302
0000
0000
0000
2003
0000
0000
0000
3020
0000
0000
0030
,
2002
0000
0000
3003
0000
0000
0000
0000
0110
0000
0100
0000
0010
0000
1000
0000
,
0002
0000
0000
0000
1003
0000
0100
0010
0100
0000
1000
0000
0001
0000
0200
0000
,
0000
0000
0000
0000
,
0000
0000
0000
0000
,
0000
0000
0000
0010
0000
0320
0000
0000
,
0000
0000
0000
0030
0000
2000
0000
0000
,
0000
3000
0000
0001
0000
1000
0000
0100
,
0000
1000
0000
0001
0000
0100
0000
0020
,
0000
0030
0000
1000
0000
0002
0000
0000
,
0003
1000
0000
0001
1000
0001
1000
0001
,
0000
1000
0000
1000
0000
0001
0000
0001
,
0000
0100
0000
0100
0000
0010
0000
0010
,
0000
1000
0000
1000
0000
0001
0000
0001
,
0000
0010
0000
0010
0000
0100
0000
0100
,
0000
1000
0100
1000
0100
1000
0100
1000
,
0100
1000
0100
1000
0100
1000
0000
1001
,
0000
0000
0000
0001
0000
0100
0000
0010
,
0000
0000
1000
0000
0000
0000
0100
0010
0002
0000
1003
0010
0100
0001
1000
0010
,
0100
0001
1000
0200
0000
1300
0001
0010
0200
0000
0310
0001
1000
0010
0100
0001
,
1000
0100
0010
0002
0000
0003
0010
0100
1000
0001
0020
0000
0230
0000
2300
0000
,
3100
0010
0002
0000
0023
0000
2030
0000
3010
0001
0100
0000
0110
0000
1100
0000
,
1001
0000
0000
0000
0001
1000
0001
0000
0000
0000
1001
0000
1001
0000
0000
0000
0100
0000
0000
0000
0002
0000
0000
0000
0000
0000
0000
0000
1003
0000
0000
0000
,
1000
0100
1000
0001
0100
0001
1000
0100
,
0200
0000
0300
0010
0001
1000
1001
0001
,
0100
0010
1000
0100
0010
0011
0001
1000
,
0200
0000
0000
0000
0300
0000
0010
0001
1000
0001
1000
0000
0010
0000
0001
0000
,
0010
1000
0100
1000
0001
0010
1000
0010
,
0001
0100
1000
0100
0001
0010
0002
0000
,
0013
0001
0100
0010
1000
0100
1001
0010
,
0100
0000
0101
0000
0010
0000
1000
0000
1100
0000
0001
0000
1000
0001
0000
0000
,
0000
0000
1000
0001
0100
0010
0100
0010
0100
0010
0100
0001
2000
0000
0000
0000
,
3200
0320
0032
0203
,
0000
0320
2030
3002
,
2003
3200
0310
0011
,
0100
0000
0000
0000
1000
0000
0000
0000
0001
0100
0010
0000
1000
0000
0100
0000
,
0010
0001
0200
0000
0310
0100
1000
0100
,
0001
0010
2000
0000
3010
0001
0200
0000
,
0320
0000
2030
0000
3002
0000
0103
0010
,
0001
1000
0100
0010
0002
0000
1003
0100
,
0001
0010
0100
0100
0010
0001
0020
0000
,
0130
0000
0010
0001
0100
0010
0100
0001
,
0010
0100
0010
0001
1000
0010
0200
0000
,
0302
0000
2003
0000
3100
0010
0011
0001
,
1000
0100
0110
0000
0010
0100
0110
0010
,
0110
0100
0110
0000
0001
1000
0020
0000
,
0230
0302
2003
3200
,
0300
0000
0000
0000
1001
0000
1001
0000
0010
0000
0100
0000
0002
0000
0000
0003
,
1000
0000
0000
0001
0010
0000
0200
0000
0000
0000
2300
0000
0000
0000
3000
0000
,
0001
0000
0100
0001
0100
0101
0000
0000
,
0100
0000
1000
0100
1000
1100
0000
1001
,
0000
0101
0000
1001
0010
0100
0001
0000
,
1000
0000
0000
0001
1000
0000
0002
0000
0000
0000
2003
0000
0000
0000
3100
0010
,
0100
0010
0100
0010
0001
0000
1001
0000
0000
0000
0110
0000
0000
0000
0000
0000
,
0100
0000
0101
1100
0000
1001
0000
1001
,
0000
0110
0000
0220
0000
0330
2002
0000
,
0000
0000
0000
0000
,
0000
0000
0000
0000
,
3003
0000
0000
0000
;

//---------------dance-single - ----------------
#NOTES:
     dance-single:
     :
     Challenge:
     15:
     0.801930,1.047322,0.557473,0.581711,0.334484,1158.000000,1043.000000,115.000000,120.000000,0.000000,0.000000,0.801930,1.047322,0.557473,0.581711,0.334484,1158.000000,1043.000000,115.000000,120.000000,0.000000,0.000000:
// measure 0
0000
0000
0000
0000
0000
0000
0000
0000
0001
0010
0100
1000
0001
0010
0100
1000
,  // measure 1
0002
0023
0230
2300
,  // measure 2
3002
0000
0000
0003
0200
0000
0320
0000
,  // measure 3
2030
3002
0023
0230
,  // measure 4
2300
0000
0000
0000
0002
3003
0001
0010
,  // measure 5
0001
0100
0001
1000
0001
0000
0100
0010
,  // measure 6
0100
0001
0100
1000
0100
0000
0010
1000
,  // measure 7
0002
0000
0023
0000
0230
0000
2300
3000
,  // measure 8
1001
1000
0001
1001
0010
1001
0100
0000
,  // measure 9
0001
1000
0010
1000
0001
0010
0001
1000
,  // measure 10
0020
0000
1030
0000
0100
0010
0001
1000
,  // measure 11
0010
1000
0001
0100
0010
1000
0100
0001
,  // measure 12
2000
0000
0000
0000
3020
0000
0000
0000
0130
0000
0010
0001
0010
0001
1000
0100
,  // measure 13
0010
0001
0100
0010
0001
0000
0010
1000
,  // measure 14
0001
1000
0100
0001
1000
0000
0001
0100
,  // measure 15
0010
0000
0100
0010
0100
0010
0100
0010
0100
0010
0100
0010
0100
0010
0100
0010
,  // measure 16
1001
0000
0000
0000
0110
0110
1000
0002
,  // measure 17
0010
0000
0000
0000
0100
0000
0003
1000
0001
0000
0001
0000
0000
0000
2002
0000
,  // measure 18
3003
0000
0000
0000
0100
0000
0000
0010
1000
0000
0001
0000
0000
0000
2002
0000
,  // measure 19
3003
0000
0000
0000
0001
0000
0010
0100
0010
0000
0001
0000
1000
0000
1001
0000
,  // measure 20
0000
1001
0000
0110
0000
1002
0000
0000
,  // measure 21
1003
0000
0100
0000
0010
0000
0100
0000
1000
0000
0001
0000
0100
0000
0010
1000
,  // measure 22
0100
0000
0010
0000
1000
0000
0001
0000
0100
0000
1000
0000
0001
0000
0100
1000
,  // measure 23
0001
0010
1000
0100
0020
0000
0031
0000
,  // measure 24
0010
0000
0010
0000
0100
0000
0000
0000
0100
0000
1000
0000
0010
0000
0100
0001
,  // measure 25
0010
0000
1000
0000
0001
0000
0100
0000
0010
0000
0001
0000
0100
0000
0010
0001
,  // measure 26
1000
0000
0100
0000
0001
0000
0010
0000
0100
0000
1000
0000
0001
0000
0100
0010
,  // measure 27
1000
0100
0110
0001
0010
0100
0110
1000
,  // measure 28
0010
0100
0110
0010
0110
0100
0001
1000
,  // measure 29
0011
0000
0001
0010
0001
1000
0010
1000
,  // measure 30
1100
0000
0010
0000
0100
1000
0001
0100
,  // measure 31
0101
0000
0001
0000
1100
0001
0100
1000
,  // measure 32
0002
0000
0023
0000
0230
0000
0301
0010
,  // measure 33
0011
0000
1000
0100
0011
0001
0100
0010
,  // measure 34
1010
0000
0001
0000
0010
0000
0001
1000
,  // measure 35
1001
0000
0001
0000
1000
0000
0001
0000
1000
0000
0001
0000
1000
0000
0001
1000
,  // measure 36
0001
0000
1000
0000
0010
0000
0100
0000
0010
0000
1000
0000
0010
0000
0100
0001
,  // measure 37
1000
0000
0100
0000
1000
0010
1000
0000
0001
0000
0010
0001
0010
0000
0100
0000
,  // measure 38
1000
0001
0000
0000
0000
0000
0001
1000
0001
0010
0100
1000
0001
0010
0100
1000
,  // measure 39
0002
0000
2003
0000
3020
0100
0230
0000
,  // measure 40
0302
0000
1003
0100
2000
0000
3002
0000
,  // measure 41
0203
0000
0010
0000
0320
0000
0000
0000
2030
0000
0000
0000
3002
0000
0000
0003
,  // measure 42
0020
0000
0100
0000
0100
0000
0000
0000
0100
0000
0000
0000
0130
1000
0100
1000
,  // measure 43
0001
0000
0100
0000
0001
0000
0010
0000
0100
0000
0000
0000
1000
0000
0001
0010
,  // measure 44
0001
0100
0010
0100
0001
0000
0001
0100
,  // measure 45
2000
0000
0000
0000
3002
0000
0000
0000
0023
0000
0000
0030
0100
0000
1000
0100
,  // measure 46
1000
0100
0010
0001
0010
0001
1000
0010
0200
0000
0301
0000
0020
0000
0130
0000
,  // measure 47
1100
0010
0001
1000
0100
0001
1000
0010
,  // measure 48
0011
0000
0001
1000
0001
0100
0010
1000
,  // measure 49
1100
0001
0010
0100
0101
0001
0100
1000
,  // measure 50
0010
0000
1000
0000
0100
0000
0010
0000
0001
0100
0001
0100
0010
0000
0010
0100
,  // measure 51
0001
1000
0010
0100
0101
0000
0010
0001
,  // measure 52
1100
0100
0110
0010
0011
0000
0001
1000
,  // measure 53
0001
0100
0001
0100
0001
0100
0001
0100
0010
1000
0010
1000
0010
1000
0010
1000
,  // measure 54
0002
0000
0000
0003
0000
0000
0000
0000
1001
0000
1001
0000
0001
0000
1000
0000
,  // measure 55
0010
0000
0000
0000
0100
0000
0001
0010
0100
0000
1100
0000
0000
0000
2100
0000
,  // measure 56
0000
0000
3000
0000
0001
0000
1000
0010
0100
0000
0101
0000
0000
0000
0102
0000
,  // measure 57
0000
0003
0010
0010
0100
0100
0000
1001
,  // measure 58
0000
1001
0000
0110
0000
0110
0010
1000
,  // measure 59
0001
0000
0010
0000
0001
0000
0100
0000
0010
1000
0100
0000
0010
0000
0001
0000
,  // measure 60
0100
0000
0001
0000
0010
0000
0100
0000
1000
0010
0100
0000
0001
0000
1000
0000
,  // measure 61
0020
0000
1030
0010
0001
1000
1000
0100
,  // measure 62
0001
0000
0100
0000
0010
0000
0100
0001
0100
0000
0010
0000
1000
0000
0001
0000
,  // measure 63
0100
0010
0100
0001
0100
0010
0100
0001
,  // measure 64
0010
0100
0010
0001
0100
0010
1000
0001
,  // measure 65
0010
0000
0110
1000
0001
0000
0110
0001
,  // measure 66
1000
0000
0000
0000
0010
0000
0000
1000
0001
0000
0100
0000
0000
0000
0010
0000
,  // measure 67
1001
0000
0100
0010
1000
0001
0010
0001
,  // measure 68
0101
0000
0100
0000
0010
0000
1000
0100
,  // measure 69
1100
0000
0010
0000
1001
1000
0010
0100
,  // measure 70
0101
0000
1100
0000
1001
0000
1000
0010
,  // measure 71
0110
0000
0001
0010
1100
0010
1000
0001
,  // measure 72
0220
0000
0330
0000
0001
0000
0100
0010
,  // measure 73
1000
0001
1000
0010
1000
0100
1000
0010
,  // measure 74
2000
3001
1000
0100
1000
0001
0010
0100
,  // measure 75
1100
0001
0100
0101
0001
1000
1001
1000
,  // measure 76
0001
1000
0000
0000
0000
0000
1000
0001
0000
0000
0000
0000
0100
0010
0100
0010
,  // measure 77
0100
0001
0100
0010
0100
1000
0100
0001
,  // measure 78
0210
0000
0310
0000
1000
0100
0010
0001
,  // measure 79
0101
0101
1010
1010
,  // measure 80
1001
0000
1000
0000
0001
0000
0001
0000
1001
0000
1000
0000
0100
0010
0001
1000
,  // measure 81
0100
0000
0010
0000
0001
0000
0001
0000
0100
0000
0000
0000
0001
0000
1000
0100
,  // measure 82
1000
0000
0001
0100
0001
0000
1000
0001
1000
0000
0000
0000
0100
0000
0010
0001
,  // measure 83
0200
0320
2030
3002
,  // measure 84
0103
0010
0100
0010
1000
0000
1000
0010
0100
0000
0100
0000
0001
0000
0001
0000
,  // measure 85
0100
0010
1000
0010
0100
1000
0001
0010
,  // measure 86
2010
0000
3100
0000
0010
0001
1000
0100
,  // measure 87
0102
0010
0023
0100
0230
1000
2300
0001
,  // measure 88
3100
0000
0001
0000
0100
0000
0100
0000
0010
1000
0010
1000
0001
1000
0001
1000
,  // measure 89
0100
0010
0001
1000
1100
0000
0001
0010
,  // measure 90
1100
0100
0110
0010
0011
0000
0001
0100
,  // measure 91
0020
0000
1030
0001
2000
0000
3100
0000
0200
0000
0310
0000
0020
0000
0031
1000
,  // measure 92
0002
0000
0000
0003
0000
0000
0000
0000
0110
0000
0110
0000
0100
0000
0001
0000
,  // measure 93
2000
0000
0000
0000
3001
0000
0010
0100
0010
0000
0001
0000
1000
0000
0020
0000
,  // measure 94
0000
0000
0000
0000
0000
1000
0000
0000
,  // measure 95
0000
0000
0000
0000
0000
1000
0000
0000
,  // measure 96
0000
0030
0000
0001
0020
0230
0000
0000
,  // measure 97
0000
0000
0000
0300
0000
2000
0000
0000
,  // measure 98
0000
3000
0000
1000
0001
0100
0000
0010
,  // measure 99
0000
1000
0000
1000
0000
0010
0000
0200
,  // measure 100
0000
0300
0000
0001
1000
2000
0000
0000
,  // measure 101
3000
0001
1000
1000
0001
1000
0001
1000
,  // measure 102
0001
0100
0000
0100
0000
0001
0000
0001
,  // measure 103
0000
0010
0000
0010
0000
0100
0000
0100
,  // measure 104
0000
1000
0000
1000
0000
0001
0000
0001
,  // measure 105
0000
0100
0000
0100
0000
0010
0000
0010
,  // measure 106
0000
0001
0010
0001
0010
0001
0010
0001
,  // measure 107
0010
0001
0010
0001
0010
0001
0010
1001
,  // measure 108
0000
0000
0000
1010
0000
0110
0000
0101
,  // measure 109
0000
0000
1001
0000
0000
0000
0110
0100
2000
0000
3001
0100
0010
1000
0001
0100
,  // measure 110
0010
1000
0001
0020
0000
0031
1000
0100
0020
0000
0130
1000
0001
0100
0010
1000
,  // measure 111
0001
0010
0100
2000
0000
3000
0100
0010
0001
1000
0200
0000
0320
0000
0032
0000
,  // measure 112
0013
0100
2000
0000
3200
0000
0302
0000
0103
1000
0010
0000
0110
0000
0011
0000
,  // measure 113
1001
0000
0000
0000
1000
0001
1000
0000
0000
0000
1001
0000
1001
0000
0000
0000
0010
0000
0000
0000
2001
0000
0000
0000
0000
0000
0000
0000
3001
0000
0000
0000
,  // measure 114
0001
0010
0001
1000
0010
1001
0001
0010
,  // measure 115
0020
0000
0030
0100
1000
0001
1001
1000
,  // measure 116
0010
0100
0001
0010
0100
1100
1000
0001
,  // measure 117
0020
0000
0000
0000
0030
0000
0100
1000
0001
1000
0001
1000
0100
0000
0000
0100
,  // measure 118
0010
0000
0000
0010
0001
0000
0000
0001
1000
0000
0000
1000
0001
0000
0000
0001
,  // measure 119
0100
0000
0000
0100
1000
0000
0000
1000
0001
0000
0000
0001
0020
0000
0000
0000
,  // measure 120
0130
0100
0010
0100
0001
0010
1001
0001
,  // measure 121
1000
0000
1010
0000
0100
0000
0001
0000
0011
0000
1000
0000
0001
1000
0000
0000
,  // measure 122
0000
0000
0001
1000
0001
0010
0100
1000
0001
0010
0100
1000
0002
0000
0010
0000
,  // measure 123
0023
0000
0100
0000
0230
0000
1000
0000
2300
0000
0010
3000
0120
0000
0000
0000
,  // measure 124
1000
0000
0230
0001
0302
1000
2003
0001
,  // measure 125
3002
0010
0023
0100
0130
1000
1100
0100
,  // measure 126
1000
0000
0100
0000
1000
0000
0100
0000
1000
0010
0100
0001
0010
0000
0100
0000
,  // measure 127
0100
0000
1000
0000
0020
0000
0000
0000
0130
0000
0010
1000
0001
0000
0010
0000
,  // measure 128
1000
0000
0100
0000
0002
0000
0000
0000
0103
0000
1000
0001
0020
0000
0000
0000
,  // measure 129
0230
0000
0000
0000
0302
0000
0000
0000
2003
0000
0000
0000
3010
0100
0010
0100
,  // measure 130
0001
1000
0001
1000
0100
0010
0100
0010
0002
0000
0003
0000
1000
0000
0010
0000
,  // measure 131
1000
0100
0010
0010
0100
1000
1200
0000
,  // measure 132
0310
0000
0100
1000
0010
0100
1100
1000
,  // measure 133
0100
0010
0100
0100
0001
0001
0020
0000
,  // measure 134
0130
0000
1000
0001
1000
0001
0100
0010
0100
0010
1000
0000
1100
0000
1000
0000
,  // measure 135
0001
0010
0110
0000
0100
0010
0110
0100
,  // measure 136
0110
0000
0010
0000
0110
0000
0000
0000
1000
0000
0001
1000
0200
0000
0000
0000
,  // measure 137
0310
0000
0001
1000
0100
0000
1000
0001
0100
0000
0001
0000
0020
0000
0000
0000
,  // measure 138
0030
0000
0000
0000
1001
0000
1001
0000
0100
0000
0010
0000
2000
0000
0000
3000
,  // measure 139
0001
0000
0001
1000
0100
0000
0020
0000
0001
0000
0032
0000
0000
0000
0003
0000
,  // measure 140
1000
0000
0000
1000
0010
0000
0000
0010
1000
0000
1010
0000
0000
0000
0000
0000
,  // measure 141
0010
0000
0001
0010
0001
0011
0000
1001
,  // measure 142
0000
1010
0000
1001
0100
0010
1000
0000
,  // measure 143
0001
0000
0000
1000
0001
0000
2000
0000
0000
0000
3002
0000
0000
0000
0013
0100
,  // measure 144
0010
0100
0010
0100
1000
0000
1001
0000
0000
0000
0110
0000
0000
0000
0000
0000
,  // measure 145
0010
0000
1010
0011
0000
1001
0000
1001
,  // measure 146
0000
0110
0000
0220
0000
0330
2002
0000
,  // measure 147
0000
0000
0000
0000
,  // measure 148
0000
0000
0000
0000
,  // measure 149
3003
0000
0000
0000
;

//---------------dance-single - ----------------
#NOTES:
     dance-single:
     :
     Medium:
     9:
     0.485452,0.685601,0.276313,0.140580,0.065442,701.000000,644.000000,57.000000,29.000000,0.000000,0.000000,0.485452,0.685601,0.276313,0.140580,0.065442,701.000000,644.000000,57.000000,29.000000,0.000000,0.000000:
0000
0000
0000
0000
,
1000
1000
0001
0001
,
0200
0000
0000
0300
0010
0000
0010
0000
,
1000
1000
0001
0001
,
0020
0000
1030
0001
,
0100
0010
0100
0010
0100
0000
0001
0000
,
1000
0001
1000
0001
1000
0000
0100
1000
,
0100
1000
0001
0010
,
0110
0110
1001
1001
,
0001
1000
0001
1000
,
0010
0100
0010
0100
,
0001
0100
0001
0100
,
1000
0100
1000
0100
,
0010
0100
0010
0100
0010
0000
1000
0001
,
1000
0001
1000
0001
1000
0000
0100
0000
,
0010
0001
1000
0100
,
0020
0000
0000
0030
0001
0000
0000
2000
,
0000
0000
3001
0000
0100
0010
0000
2000
,
0000
0000
3001
0000
0010
0100
0000
2000
,
0000
0000
3001
0000
0100
0010
0000
1100
,
0000
1100
0000
0011
0000
0011
0000
0000
,
0100
0010
0100
0010
,
1000
0001
1000
0001
,
1000
0100
1000
0100
,
1000
0010
1000
0010
,
0100
0001
0100
0001
,
0010
0001
0010
0001
,
0100
0110
0001
0110
,
0001
0000
0110
0000
0001
1000
0001
0000
,
1000
0000
0100
0000
0010
0001
0010
0000
,
0100
1000
0001
0100
,
0010
0100
0001
1000
,
0100
0000
0100
0000
0010
0000
0001
1000
,
0001
0000
1000
0000
0010
0100
0010
0100
,
0010
0000
0100
0000
0001
0000
1000
0100
,
1000
0001
1000
0010
,
1000
0001
0100
0001
,
1000
0001
0010
0001
,
1000
0100
0001
0000
0001
0100
1000
0000
,
0001
0000
0100
0000
0010
0100
0010
0000
,
0100
0000
0001
0000
1000
0001
1000
0000
,
0001
1000
0001
0000
1000
0000
0010
0000
,
0100
0001
0100
0001
0100
0001
0100
0000
,
0010
1000
0010
1000
0010
0000
1000
0100
,
1000
0000
0001
0000
0100
0000
0010
0100
,
0010
0100
0001
1000
,
1100
1100
0011
0011
,
1000
0010
0100
0001
,
2000
0000
3001
1000
,
0100
0010
0001
1000
,
0010
1000
0010
0000
0100
0000
0001
0000
,
1000
0001
1000
0000
0001
0000
0010
0000
,
0100
0010
0100
0000
1000
0000
0001
0000
,
0100
0100
0010
0010
,
0110
0000
0000
0000
0001
0000
1000
0002
,
0000
0000
0000
0000
1000
1000
0000
1000
,
0000
0003
1000
0000
0010
0100
0000
0010
,
0000
0000
0100
0000
0001
0100
0000
0011
,
0000
0011
0000
1100
0000
1100
0000
0000
,
1001
0001
1000
0001
,
0100
0010
0100
0010
,
1000
0100
1000
0100
,
0010
0001
0010
0001
,
1000
0010
1000
0010
,
0100
0001
0100
0001
,
1000
1001
0001
1001
,
1000
0000
1001
0000
0001
1000
0001
0000
,
1000
0000
0100
0000
0010
0001
0010
0000
,
0100
1000
0001
0100
,
0010
0100
0010
0000
0100
0001
0100
0000
,
0001
0001
1000
1000
,
0100
1000
0200
0000
0310
0000
0001
0000
,
2000
0000
3010
0000
0100
0000
0001
0100
,
0001
1000
0100
1000
,
0001
0010
0001
1000
,
0010
1000
0010
1000
0010
1000
0010
1000
,
1001
0000
0000
1001
0000
0000
0000
0000
,
0002
2003
3200
0320
,
0032
0003
0002
0023
,
0230
2300
3020
0130
,
0001
0100
0001
0000
1000
0010
1000
0000
,
1001
0001
1000
0100
,
0011
0000
0011
0000
1100
0000
0010
1000
,
0010
1000
0001
0100
,
0001
0001
1000
1000
,
0100
1000
0100
0000
0010
0001
0010
0000
,
0001
0000
1000
0000
0010
0100
0010
0000
,
0100
0010
0100
0000
0001
0000
1000
0000
,
0100
1000
0100
1000
0100
1000
0100
0000
,
1000
0001
1000
0001
1000
0000
0010
0100
,
0010
0100
0010
0100
0010
0000
0001
1000
,
0001
1000
0100
0010
,
0011
0000
0000
0000
0001
0000
1000
0002
,
0000
0000
0000
0000
0000
0000
0000
2003
,
0000
0000
0000
0000
,
0000
0000
0000
0000
0000
0000
0000
3000
,
0000
0000
0000
0100
0000
0010
0000
0000
,
0000
0000
0000
0000
0000
0001
0000
0000
,
0000
0000
0000
0001
0000
0000
0000
0000
,
0000
0100
0000
0000
0000
0000
0000
0010
,
0000
0000
0000
0000
0000
1000
0000
0000
,
0000
0000
0000
0001
0000
0000
0000
0000
,
0000
0011
0000
0000
0000
0011
0000
0000
,
0000
1100
0000
0000
0000
1100
0000
0000
,
0000
0101
0000
0000
0000
0101
0000
0000
,
0000
1010
0000
0000
0000
1010
0000
0000
,
0000
1001
0000
0000
0000
1001
0000
0000
,
0000
0110
0000
0000
0000
1000
0000
0001
,
0000
0000
0000
1000
0000
0001
0000
0000
,
0000
0000
1000
0000
0000
0000
0001
0000
0000
1000
0000
0001
0000
1000
0000
0010
,
0000
0100
0000
0010
0000
0100
0000
0001
0000
1000
0000
0001
0000
1000
0000
0001
,
0000
0010
0000
0100
0000
0010
0000
0100
0000
1000
0000
0001
0000
0100
0000
0010
,
0000
1000
0000
0100
0000
0010
0000
0001
0000
0010
0100
0000
1000
0000
0001
0000
,
1000
0000
0001
1000
0000
0001
1001
0000
0000
0000
0000
0000
0001
0000
0000
0000
,
1000
0000
0010
0000
0100
0000
0001
0100
,
0001
0000
1000
0000
0100
0000
0010
0100
,
0010
0000
0100
1000
0100
0000
1000
0000
,
0001
0100
0010
0110
,
0110
0110
0110
1001
,
1001
0000
1001
0000
1001
0000
0001
1000
,
0001
1000
0001
1000
0001
1000
0010
0100
,
0001
1000
0100
0010
0001
0000
0010
0100
,
0000
0010
0100
0000
1000
0000
0001
0100
,
0001
0000
1000
0010
1000
0000
0001
0000
,
0100
0000
0010
1000
0010
0000
1000
0100
,
1000
0000
0001
0010
0001
0000
0100
0001
,
0100
0001
0100
0001
0100
0000
0010
1000
,
0010
1000
0010
0000
1000
0001
1000
0001
,
1000
0001
1000
0000
0001
0010
0001
0000
,
0010
0000
0100
0000
1000
0000
0001
0100
,
1000
0000
1000
0100
0001
0000
1000
0000
,
0100
0000
0010
0100
0010
0100
0010
0000
,
0100
0000
1000
0001
1000
0000
0001
1000
,
0001
0000
1000
0010
0100
0000
0001
0010
,
0100
1000
0010
0100
0001
0000
1000
0100
,
1000
0100
1000
0000
0001
0100
0001
0100
,
0001
0100
0001
0000
1000
0001
1000
0000
,
0001
1000
0100
0110
,
0000
0000
0010
0000
0001
2000
0000
0000
,
0000
0000
0000
0000
3000
0010
0000
0000
,
0100
0000
0001
1000
0000
0200
0000
0000
,
0310
0000
0001
0010
0000
0100
0000
1000
,
0000
0001
0000
0200
0000
0300
0010
0000
,
0100
0000
0001
1000
0000
0200
0000
0000
,
0310
0000
0001
0100
0000
0020
0000
0000
,
1030
0000
0001
1000
0000
1100
0000
0101
,
0000
0011
0000
1010
0000
0000
2002
0000
,
0000
0000
0000
0000
,
0000
0000
0000
0000
0000
0000
0000
3003
;

//---------------dance-single - ----------------
#NOTES:
     dance-single:
     :
     Easy:
     6:
     0.317864,0.548990,0.155123,0.067866,0.058171,459.000000,427.000000,32.000000,14.000000,0.000000,0.000000,0.317864,0.548990,0.155123,0.067866,0.058171,459.000000,427.000000,32.000000,14.000000,0.000000,0.000000:
0000
0000
0000
0000
,
1000
0000
0001
0000
,
0100
0000
0010
0010
,
1000
0000
0100
0000
,
0020
0000
0032
0003
,
1000
0001
1000
0000
,
0001
1000
0001
0000
,
0100
0100
0010
0010
,
1000
0001
1000
0001
,
0010
0000
0100
0000
,
1000
0000
0001
0001
,
0100
0000
0010
0000
,
1000
1000
0001
0001
,
1000
0000
0100
0000
,
0010
0001
0010
0000
,
0001
1000
0010
0100
,
0002
0000
0000
0003
1000
0000
0000
0000
,
0100
0100
1000
0000
,
0001
0001
0100
0000
,
0001
0000
0001
0000
0010
0000
0000
0100
,
0000
1000
0000
0001
0000
0100
0000
0000
,
0010
0010
1000
1000
,
0001
0001
0010
0010
,
0100
0000
1000
0000
,
0001
0000
0100
0000
,
0010
0010
0100
0100
,
0001
0001
1000
1000
,
0100
0010
0000
0001
,
0000
0000
1000
0000
0001
1000
0000
0000
,
0000
0100
0000
0010
,
0000
1000
0000
0001
,
1000
0000
0001
0000
,
1000
1000
0001
0000
,
0100
0000
0010
0000
,
0100
0000
0001
0000
,
1000
1000
0100
0100
,
0010
0010
0001
0001
,
1000
0000
0001
0000
,
0100
0000
0000
0100
0000
0000
0000
0000
,
0010
0010
0100
0100
,
0001
0000
1000
0100
,
1000
0001
1000
0010
,
0100
0100
0001
0001
,
1000
0000
0001
0000
,
0010
0001
1000
0000
,
0010
1000
0001
0100
,
0010
0010
0100
0100
,
0001
0000
1000
0000
,
0100
0000
0010
0010
,
0001
0000
1000
0000
,
0001
0100
0010
0100
,
0001
0000
1000
0000
,
0100
1000
0010
0000
,
0100
0001
1000
0001
,
1001
0000
1000
0000
,
0001
0001
1000
0000
,
0100
0100
1000
0000
,
0010
0100
0001
0000
,
1000
0100
1000
0001
,
0100
0010
0100
0010
,
0100
0001
0100
0001
,
1000
0001
1000
0001
,
1000
0100
1000
0100
,
1000
0000
0001
0000
,
0100
0000
0010
0000
,
0100
0001
1000
0100
,
1000
0000
0001
0000
0010
0001
0010
0000
,
0001
0000
1000
0000
,
0010
0000
0100
0000
,
0001
0000
1000
0000
,
1001
1001
1001
0000
,
0010
0000
0100
0000
,
0001
0000
1000
0000
,
0100
0100
0010
0010
,
0001
0001
1000
0010
,
0100
0000
0000
0001
0000
0000
1000
0000
,
1100
0000
0000
0101
0000
0000
0000
0000
,
0001
0001
1000
1000
,
0010
0000
1000
0001
,
0010
0100
1000
0010
,
0100
0100
0001
0001
,
1000
0000
0001
0000
,
0010
0010
0010
0100
,
1000
0001
0100
0010
,
1000
1000
1000
1000
,
0001
0010
0001
1000
,
0010
0000
0100
0001
,
1000
0100
0010
0001
,
0010
0010
0100
0100
,
1000
0000
0001
0000
,
0100
0100
0010
0000
,
1000
0010
1000
0001
,
0101
0000
1000
0001
,
1000
0000
1000
0000
0100
0000
0000
2000
,
0000
0000
0000
0000
,
0000
0000
0000
0000
,
0000
0000
0000
0000
3000
0001
0000
0000
,
0000
0000
0000
0000
0000
0100
0000
0000
,
0000
0000
0000
0010
0000
0000
0000
0000
,
0000
0100
0000
0000
0000
0000
0000
0001
,
0000
0000
0000
0000
0000
1000
0000
0000
,
0000
0000
0000
0100
0000
0000
0000
0000
,
0000
1000
0000
0000
0000
1000
0000
0000
,
0000
0001
0000
0000
0000
0001
0000
0000
,
0000
0100
0000
0000
0000
0100
0000
0000
,
0000
0010
0000
0000
0000
0010
0000
0000
,
0000
2000
0000
0000
0000
0000
0000
0000
,
0000
0000
0000
0000
0000
0000
0000
0001
,
0000
0000
0000
0001
0000
0001
0000
0000
,
0000
0000
0001
0000
0000
0000
3001
0000
0000
1000
0000
0001
0000
1000
0000
0001
,
0000
0010
0000
0100
0000
0010
0000
0100
0000
1000
0000
0000
0000
0001
0000
0000
,
0000
0100
0000
0100
0000
0000
0000
0010
0000
0100
0000
0000
0000
0001
0000
0000
,
0000
1000
0000
1000
0000
1000
0000
0000
0000
0001
0000
1000
0000
0001
0000
0100
,
0000
0010
0000
0000
0000
1000
1000
0000
0000
0000
2000
0000
0000
0000
0000
0000
,
0000
0000
0000
0000
0000
3002
0000
0000
,
0000
0000
0000
0203
,
0000
0000
0000
0000
0000
0320
0000
0000
,
0000
0000
0000
0000
0000
0030
1000
0000
,
1000
0001
0001
1100
,
1100
0101
0101
1001
,
0000
0000
0000
0110
,
0000
1001
0000
0000
0110
0000
1001
0000
,
0000
1001
0000
0000
0000
0000
0001
0000
,
0010
0100
1000
0001
,
0000
1000
0010
0100
,
0001
1000
0100
0010
,
0100
0010
0100
1000
,
1000
0002
0003
0100
,
0100
0010
0000
1000
,
0010
0100
0001
1000
,
1000
0001
0001
0010
,
0100
1000
0001
0010
,
0000
0100
0100
1000
,
1000
0001
0001
0100
,
0010
0100
0001
1000
,
1000
0001
0000
0001
,
0010
0100
0000
1000
,
0010
0100
0001
2000
,
0000
3000
0001
0000
0000
0020
0000
0000
,
0000
0000
0000
0000
0000
1000
0000
0000
,
0030
0000
0000
0000
0000
1001
0000
0000
,
0000
0000
0000
0000
0000
0101
0000
0101
,
0000
1010
0000
1010
0000
0000
0000
0000
,
0000
0000
0001
0011
0000
1100
0000
0000
,
0000
0000
1000
1010
0000
0101
0000
0000
,
0000
0000
0010
0110
0000
1001
0000
1001
,
0000
0110
0000
0110
0000
0000
2002
0000
,
0000
0000
0000
0000
,
0000
0000
0000
0000
,
0000
0000
0000
0000
,
0000
0000
0000
0000
,
3003
0000
0000
0000
;
