#TITLE:NEO SKY, NEO MAP!;
#SUBTITLE:Nijigasaki High School Idol Club Ending;
#ARTIST:Nijigasaki High School Idol Club;
#TITLETRANSLIT:;
#SUBTITLETRANSLIT:;
#ARTISTTRANSLIT:;
#GENRE:;
#CREDIT:;
#BANNER:NEO SKY, NEO MAP!-bn.png;
#BACKGROUND:NEO SKY, NEO MAP!-bg.jpg;
#LYRICSPATH:;
#CDTITLE:cdtitle_ukiarrow.png;
#MUSIC:NEO SKY, NEO MAP!.mp3;
#OFFSET:0.683979;
#SAMPLESTART:59.479961;
#SAMPLELENGTH:12.000000;
#SELECTABLE:YES;
#BPMS:0.000000=142.000000
;
#STOPS:128.500000=0.423000
;
#BGCHANGES:0.000=1.000=0.000=0=1=1=StretchRewind====,
5.000=NEO SKY NEO MAP!.avi=1.000=0=0=1=====,
212.000=NEO SKY, NEO MAP!-bg.jpg=1.000=0=0=1=====,
99999=-nosongbg-=1.000=0=0=0 // don't automatically add -songbackground-
;
#KEYSOUNDS:;
#ATTACKS:;

//---------------dance-single - ----------------
#NOTES:
     dance-single:
     :
     Medium:
     10:
     0.454083,0.482464,0.183796,0.140550,0.054058,294.000000,277.000000,17.000000,13.000000,0.000000,0.000000,0.454083,0.482464,0.183796,0.140550,0.054058,294.000000,277.000000,17.000000,13.000000,0.000000,0.000000:
0000
0000
0000
0000
,
0000
0000
0000
0000
,
0000
0000
0000
0000
,
0000
0000
0000
0000
,
0000
0002
0000
0203
,
0000
0320
0000
2030
,
0000
0000
3001
0100
0001
0100
0001
1000
,
0001
0100
0000
0100
0001
0010
0100
1000
,
0100
0000
1000
0100
1000
0100
1000
0001
,
1000
0020
0000
0000
0000
0230
0000
0000
,
0000
0000
0301
0100
0010
1000
0001
0100
,
0010
1000
0001
0010
0100
1000
0000
0001
,
0010
0100
0000
0010
0100
1000
0000
0001
,
0100
0010
0000
0100
0010
1000
0001
0000
,
1001
0000
0001
0100
0010
0100
0000
0001
,
0010
0001
0000
1000
0010
1000
0000
0100
,
0010
0000
0001
0000
1000
1100
0000
0110
,
0000
0011
0000
0001
1001
0000
0100
0010
,
0110
0000
1000
0100
0010
0100
0001
0100
,
0010
0100
1000
0010
0100
0010
0000
0001
,
0010
0100
0000
0010
1000
0001
0000
1000
,
0100
0010
0000
0100
0001
0100
0010
0100
,
1000
0000
0001
0100
0010
1000
0100
0010
,
0001
0100
0010
0100
0001
0010
0000
0100
,
1000
0010
0100
0001
0010
0200
0000
2300
,
0000
3002
0000
0103
0010
1000
0100
0010
,
0001
0000
1000
0100
0010
1000
0000
0001
,
0100
0010
0000
1000
0010
0100
0001
0100
,
0010
0000
0001
0100
0010
0001
0000
1000
,
0100
0010
0000
1000
0010
0100
0001
1000
,
0001
0000
0010
0010
0010
0000
0100
0100
,
1000
0001
0000
1000
1000
0010
0000
0010
,
0010
0100
1001
0000
0000
1010
0000
0000
,
0110
0000
0000
0101
0000
0000
2001
0000
,
0000
0000
3200
0000
,
0310
0001
1000
0000
0001
0010
0100
1000
,
0100
0000
0010
0000
0001
0000
0100
0000
0010
0000
0000
1000
0000
0000
0001
0000
,
0100
0000
1001
0000
1000
0100
0010
0001
,
0010
0000
0100
0000
1000
0000
0010
0000
0100
0000
0000
0001
0000
0000
1000
0000
,
0010
0000
1001
0000
1000
0100
0010
0001
,
0100
0000
0101
0000
0001
0100
0010
1000
,
0100
0000
0000
0000
1100
0000
0000
0000
0010
0000
0000
0001
0000
0000
0001
0000
,
1000
0000
0000
0100
0000
0000
0100
0000
0010
0000
0000
0001
0000
0000
0100
0000
,
0010
0000
1001
0000
0010
1000
0010
0100
,
0001
0000
0010
0000
0100
0000
1000
0000
0010
0000
0000
0100
0000
0000
0001
0000
,
1000
0000
1001
0000
0010
0001
0010
0100
,
1000
0000
0010
0000
0100
0000
0001
0000
0010
0000
0000
0100
0000
0000
1000
0000
,
0001
0000
1000
0100
0020
0000
0000
0001
,
0031
0000
0000
0100
0000
0000
1000
0000
0001
0000
0000
0010
0000
0000
1000
0000
,
0001
0000
0000
0000
0010
0100
0010
0100
,
1000
0010
0100
0001
0010
0000
0100
1000
,
0010
0000
0000
0100
0000
0000
0001
0000
0020
0000
0000
0000
0000
0000
0000
0000
,
0000
0000
0030
0000
;

//---------------dance-single - ----------------
#NOTES:
     dance-single:
     :
     Challenge:
     15:
     0.671858,0.709505,0.335157,0.367591,0.578416,435.000000,404.000000,31.000000,34.000000,0.000000,1.000000,0.671858,0.709505,0.335157,0.367591,0.578416,435.000000,404.000000,31.000000,34.000000,0.000000,1.000000:
// measure 0
0000
0000
0000
0000
,  // measure 1
0000
0000
0000
0000
,  // measure 2
0000
0000
0000
0000
,  // measure 3
0000
0000
0000
0000
,  // measure 4
0001
0000
0000
0000
0010
0000
0000
0000
0100
0000
0000
0000
2000
0000
0000
0000
0000
0000
0000
0000
0000
0000
0000
0000
0000
0000
0000
0000
0000
0000
0000
0000
0000
0000
0000
0000
3020
0000
0000
0000
0000
0000
0000
0000
0000
0032
0000
0000
,  // measure 5
0000
0000
0000
0013
2000
0000
0000
0000
0000
0000
0000
0000
3002
0000
0000
0000
,  // measure 6
0000
0000
0000
0000
0103
0001
0100
0000
0001
0000
0010
0000
0001
0000
0100
0000
,  // measure 7
0010
0000
1000
0100
1000
0000
0100
0000
1000
0000
0010
0000
0100
0000
0001
0100
,  // measure 8
0010
0000
0100
0010
1000
0100
1000
0000
0100
0000
0010
0000
0001
0010
0001
1000
,  // measure 9
0100
1000
0020
0000
0000
0000
0000
0000
0000
0000
0230
0000
0000
0000
0000
0000
,  // measure 10
0000
0000
0000
0000
0301
0010
0001
0000
0010
0000
0001
0100
0000
0000
0010
0000
,  // measure 11
1000
0000
0100
0000
0010
0001
0100
0000
0001
0000
0020
0000
0000
0000
0030
0000
,  // measure 12
1000
2020
0000
3030
0001
0202
0000
0313
,  // measure 13
1000
0100
0020
0000
0000
0000
0031
0000
0010
0000
0100
0000
1100
0000
0000
0000
,  // measure 14
0011
0000
0000
0000
0001
0000
0010
0000
1000
0000
0001
1000
0001
0000
0100
0000
,  // measure 15
1000
0000
0001
1000
0001
0000
0100
0000
1000
0000
0100
0010
0100
0010
0100
0000
,  // measure 16
0001
0010
0110
0000
0010
0011
0000
1100
,  // measure 17
0000
0000
0011
0000
0000
0000
0100
0000
1000
0000
0010
0000
1000
0010
1000
0100
,  // measure 18
0010
0000
1000
0010
0001
0000
0100
0000
0001
0000
0100
0010
0100
0000
0010
0000
,  // measure 19
0100
0000
0001
0000
0010
0000
0100
0000
1000
0000
0200
0000
0000
0000
0301
1000
,  // measure 20
0010
0000
0002
0000
0000
0000
1003
0001
0100
0000
2000
0000
0000
0000
3100
0001
,  // measure 21
0010
0000
0200
0000
0000
0000
1300
0000
0010
0000
0100
0000
0001
0000
0100
0010
,  // measure 22
1000
0000
0000
0000
0010
0000
1000
0001
0100
0000
0001
1000
0100
0000
1000
0000
,  // measure 23
0001
0000
0100
0010
0001
0000
0010
0000
1000
0000
2001
0000
0000
0000
0100
0000
,  // measure 24
3100
0010
0110
0100
1000
1002
0000
0103
,  // measure 25
0100
0000
0120
0000
0000
0000
0031
0000
0010
0000
1000
0000
0001
0000
0010
0100
,  // measure 26
1000
0010
0100
0001
1000
0000
0100
0010
0001
0000
0011
0000
0000
0000
0001
0100
,  // measure 27
0010
0000
0101
0000
0000
0000
0100
0010
1000
0000
0001
0000
0100
0000
0001
0010
,  // measure 28
0100
0000
0000
0000
1100
0000
0100
0000
0010
0000
0110
0000
0000
0000
0001
1000
,  // measure 29
0100
0000
1100
0000
0000
0000
1000
0010
0100
0000
0010
1000
0001
0000
0100
0001
,  // measure 30
1000
0001
0100
0000
1001
0000
0110
0000
1001
0000
0000
0000
0001
0100
0010
1000
,  // measure 31
0010
0000
0001
0000
0000
0000
0010
1000
0100
0010
0100
0000
0000
0000
0010
0001
,  // measure 32
0100
0010
1000
0000
0201
0000
0000
0000
0301
0000
0021
0000
0000
0000
0130
0000
,  // measure 33
2100
0000
3010
0102
0000
0013
2100
0000
,  // measure 34
0000
0000
3001
0010
0100
1000
0001
0010
0200
0000
0000
0000
0000
0000
0000
0000
,  // measure 35
1300
0010
0100
0001
1000
0000
0001
0010
0100
0000
0010
0100
0000
0000
0100
0000
,  // measure 36
1000
0000
0001
0000
0100
0000
0010
0000
0100
0000
0001
0010
0000
0010
0100
0000
,  // measure 37
1000
0000
0001
1000
0100
0000
1000
0100
1000
0000
0001
0100
0000
0000
0001
0000
,  // measure 38
1000
0000
0100
0000
0010
0000
0100
0000
1000
0000
0010
0001
0000
0001
0010
0000
,  // measure 39
0100
0000
0010
0100
0010
0000
1000
0000
0001
0000
0010
0100
0000
0100
0010
0000
,  // measure 40
0100
0000
1000
0001
0100
0000
0010
0000
0010
0000
0100
0001
0000
0001
1000
0000
,  // measure 41
0010
0000
0100
0001
1000
0000
0001
1000
0001
0000
0100
0001
0000
0100
0010
1000
,  // measure 42
0100
0000
0010
0100
0000
0010
0001
0000
0101
0000
0000
1001
0000
0000
1010
0000
,  // measure 43
0220
0000
0000
0000
0330
0000
0000
0000
1000
0000
0100
1000
0000
1000
0001
0000
,  // measure 44
1000
0000
0010
0000
0100
0001
0010
0000
0100
0000
1000
0100
0000
0010
0100
0000
,  // measure 45
0010
0000
0001
0100
0010
0000
0001
0010
1000
0000
0100
0010
0000
0010
0001
0000
,  // measure 46
0010
0000
0100
0000
1000
0001
0100
0000
0010
0000
1000
0001
0000
0001
1000
0000
,  // measure 47
0001
1000
0100
0010
0100
0000
0010
0100
0020
0000
0000
0000
0000
0000
0031
0100
,  // measure 48
0010
0000
1000
0010
0000
1000
0100
0000
1200
0000
0000
0320
0000
0000
0031
1000
,  // measure 49
0001
0000
0100
0010
0000
0000
0010
0000
1000
0010
0001
0000
1000
0100
0001
0000
,  // measure 50
0010
0100
1000
0010
0100
0001
0010
0100
2000
0000
0000
0000
0000
0000
3010
1000
,  // measure 51
0001
0000
0010
0100
0000
1000
0001
0000
2002
0000
0000
0000
0000
0000
0000
0000
,  // measure 52
0000
0000
3003
0000
;

//---------------dance-single - ----------------
#NOTES:
     dance-single:
     :
     Hard:
     12:
     0.469528,0.510844,0.162173,0.183796,0.097304,304.000000,289.000000,15.000000,17.000000,0.000000,0.000000,0.469528,0.510844,0.162173,0.183796,0.097304,304.000000,289.000000,15.000000,17.000000,0.000000,0.000000:
0000
0000
0000
0000
,
0000
0000
0000
0000
,
0000
0000
0000
0000
,
0000
0000
0000
0000
,
0000
0000
0000
0000
2000
0000
0000
0000
0000
0000
0000
0000
3200
0000
0000
0010
,
0300
0000
0000
0001
2000
0000
0000
0000
0000
0000
0000
0000
3002
0000
0000
0000
,
0000
0000
0103
0001
0100
0001
0010
0001
,
0010
0001
1000
0100
1000
0100
0010
0100
,
0010
0000
0001
0100
0001
0100
0010
0100
,
0010
2000
0000
0000
0000
3200
0000
0000
,
0300
0000
0010
0001
0100
0000
0001
0100
,
0010
0000
1000
0100
0010
0001
0000
0100
,
0001
0010
0000
0100
1000
0010
0000
0010
,
0100
0010
0000
1000
0100
0010
0100
0000
,
1001
0000
0001
0100
0001
0100
0000
0010
,
0100
0010
0000
0100
1000
0200
0000
0000
,
0301
0010
1000
0000
0010
1000
0000
0010
,
0000
0001
0000
0100
1000
0100
0002
0000
,
1003
0000
0001
0100
0001
0100
0010
0100
,
0010
0100
0001
0010
0100
1000
0000
0100
,
0001
2000
0000
3010
0001
2000
0000
3001
,
0100
2000
0000
3100
0001
0010
0100
0000
,
1001
0000
1000
0010
1000
0001
1000
0100
,
1000
0001
0100
0010
0001
0010
0000
1000
,
0001
0000
0010
0100
1000
0001
0000
0100
,
0000
0010
0000
0001
0010
1000
0001
0010
,
0100
0000
1000
0100
0010
0011
0000
0001
,
0100
0101
0000
0001
0100
0010
1000
0001
,
1001
0000
1000
0100
0010
0110
0000
0001
,
1000
1100
0000
1000
0010
0100
0010
1000
,
0001
0000
1000
0100
0001
0000
0001
0100
,
1000
0010
0000
0010
0001
0010
0000
1000
,
0100
0010
0110
0000
0001
0011
0000
1000
,
1001
0000
0100
1100
0000
0010
0012
0000
,
0000
0000
2003
0000
,
3001
1000
0001
1000
0001
0000
0000
0000
1000
0000
0100
0000
0010
0000
0100
0000
,
1000
0000
0001
0000
0100
0000
0010
0000
0100
0000
0000
0001
0000
0000
0010
0000
,
0100
1000
0001
0000
1000
0001
0100
0001
,
1000
0000
0100
0000
0010
0000
0100
0000
1000
0000
0000
0001
0000
0000
0100
0000
,
0010
0000
0000
0000
0100
0000
0001
0000
1000
0000
0000
0001
0000
0000
0010
0000
,
0100
0000
1000
0000
0001
0000
0100
0000
0010
0000
0000
0100
0000
0000
0001
0000
,
0010
0000
0100
0000
1000
0000
0001
1000
0001
0000
0000
0100
0000
0000
0010
0000
,
1000
0000
0000
0100
0000
0000
0010
0000
0011
0000
0000
0110
0000
0000
1001
0000
,
0200
0000
0300
0000
1000
0100
1000
0001
,
1000
0000
0010
0000
0100
0000
0001
0000
0010
0000
0000
0100
0000
0000
1000
0000
,
0001
0000
0100
0001
0100
0010
1000
0001
,
0010
0000
0100
0000
1000
0000
0001
0000
0100
0000
0000
0010
0000
0000
1000
0000
,
0001
0000
1000
0100
0020
0000
0000
0031
,
0100
0000
0000
0010
0000
0000
1000
0000
0100
0000
0000
0010
0000
0000
0001
0000
,
1000
0000
0000
0100
0000
0000
0010
0000
0001
0000
0100
0000
1000
0000
0100
0000
,
0001
0010
0001
0100
2000
0000
3100
0010
,
0001
0000
0000
0010
0000
0000
1000
0000
0200
0000
0000
0000
0000
0000
0000
0000
,
0000
0000
0300
0000
;

//---------------dance-single - ----------------
#NOTES:
     dance-single:
     :
     Easy:
     7:
     0.302722,0.368943,0.205419,0.291911,0.000000,196.000000,177.000000,19.000000,27.000000,0.000000,0.000000,0.302722,0.368943,0.205419,0.291911,0.000000,196.000000,177.000000,19.000000,27.000000,0.000000,0.000000:
0000
0000
0000
0000
,
0000
0000
0000
0000
,
0000
0000
0000
0000
,
0000
0000
0000
0000
,
0000
2000
0000
3020
,
0000
0230
0000
0302
,
0000
1003
0100
0001
,
0100
0000
1000
0000
0001
0000
1000
1000
,
1000
0001
0010
1000
,
0001
0002
0000
0000
0000
2003
0000
0000
,
0000
3001
0100
0010
,
1000
0010
0100
0001
,
1000
1000
0000
0000
0001
0001
0000
0000
,
1000
0010
0100
0001
,
1001
0001
0100
1000
,
0100
0001
0010
0100
,
1000
0000
0100
0000
0010
0010
0000
0110
,
0000
1001
0000
0001
1000
0000
0001
0000
,
1001
1000
0100
0010
,
0001
0100
0010
1000
,
0001
1000
0100
0001
,
0001
0010
0100
1100
,
1001
0001
0010
0100
,
1000
0000
0010
0000
0100
0100
0000
0001
,
0100
0000
0010
0000
0100
0200
0000
0300
,
0000
0020
0000
0000
1030
0000
1010
0000
,
1001
0000
1000
0000
0100
0100
0000
0010
,
0000
0001
0000
1000
1000
0000
0001
0000
,
0100
0000
0010
0000
1000
1000
0000
0100
,
0000
0010
0000
0001
0001
0000
0100
0000
,
0001
0000
0010
0010
0020
0000
0030
0000
,
0000
0100
0000
1000
0000
0010
0000
0100
,
0000
0001
0002
0003
0000
2000
3000
0000
,
0020
0030
0000
0200
0300
0000
0002
0000
,
0000
0000
0203
0000
,
0320
0000
1030
0100
,
0010
0001
0100
0010
,
0110
1001
1000
0001
,
0100
0001
0010
0100
,
0110
1001
0001
0100
,
0010
0110
0010
1000
,
0100
1001
2000
0000
,
3002
0000
0203
0000
,
0320
0000
1030
0001
,
0100
0010
1000
0100
,
1100
1001
0001
1000
,
0100
0010
0001
0100
,
0101
1001
0020
0000
,
0230
0000
2300
0000
,
3002
0000
0000
0000
0013
0100
0010
0100
,
0010
0100
0010
0100
0020
0000
0000
0000
,
0130
1000
2002
0000
,
0000
0000
3003
0000
;
