#TITLE:My War;
#SUBTITLE:Shingeki No Kyojin Opening 6;
#ARTIST:Noko;
#TITLETRANSLIT:;
#SUBTITLETRANSLIT:;
#ARTISTTRANSLIT:;
#GENRE:;
#CREDIT:Magna Trick;
#BANNER:MWBN.jpg;
#BACKGROUND:MWBG.jpg;
#LYRICSPATH:;
#CDTITLE:Magna Trick title!.png;
#MUSIC:My War.mp3;
#OFFSET:-0.012668;
#SAMPLESTART:39.610001;
#SAMPLELENGTH:14.000000;
#SELECTABLE:YES;
#BPMS:0.000000=144.000000
;
#STOPS:
;
#BGCHANGES:0.063=My War.avi=1.000=0=0=1=====,
208.500=MWBG.jpg=1.000=0=0=1=====,
99999=-nosongbg-=1.000=0=0=0 // don't automatically add -songbackground-
;
#KEYSOUNDS:;
#ATTACKS:;

//---------------dance-single - ----------------
#NOTES:
     dance-single:
     :
     Hard:
     12:
     0.583610,0.696276,0.378472,0.122447,0.077921,367.000000,333.000000,34.000000,11.000000,0.000000,0.000000,0.583610,0.696276,0.378472,0.122447,0.077921,367.000000,333.000000,34.000000,11.000000,0.000000,0.000000:
0000
0000
0002
0000
0000
0003
2000
0000
,
0000
3000
0002
0000
0000
0003
0020
0000
,
0230
0000
2300
0000
0000
3000
0002
0000
,
0000
0003
0200
0000
0000
0300
0010
0100
,
0010
0100
0010
0000
1000
0000
0100
1000
,
0100
0000
1000
0001
1000
0001
1000
0000
,
0001
0100
0001
0000
0100
0000
0010
0100
,
0010
0000
1000
0010
1000
0010
1000
0001
,
0100
0010
1000
0000
0001
0000
0010
0001
,
0010
0000
0100
1000
0100
1000
0001
0000
,
0100
0010
0100
0000
0110
0000
0010
0000
,
0110
0000
0100
0010
0100
0010
0100
0000
,
0010
0000
1000
0100
1000
0000
0001
0000
0100
0000
0010
0000
1000
0000
1000
0000
,
0001
0001
0100
0010
1000
0001
0100
0100
,
0010
0010
1000
0100
0010
0001
0010
0010
,
0100
0100
1000
1000
0001
0001
0100
0010
,
1000
0001
0100
0000
0010
1000
0000
0100
,
0000
1000
0000
1000
0000
0001
0000
0001
,
1000
0000
0100
0000
0010
0100
0000
0001
,
0000
0001
0100
1000
0000
1000
0100
1000
,
0001
0100
0010
0000
0100
0010
0000
0100
,
0000
0100
0000
0001
0000
0001
0100
1000
,
0000
1000
0100
0100
1000
0100
0100
0001
,
0010
0010
0110
0000
0000
0000
0001
0001
,
1000
1000
1001
0000
0001
0000
0100
0001
,
1000
0100
1000
0001
0010
0001
1000
0010
,
1000
0001
0100
0000
1010
0000
0001
0000
,
0101
0000
0001
1000
0100
0010
0001
0010
,
0100
1000
0001
0000
0101
0000
0100
0000
,
0110
0000
0010
1000
1010
0010
1000
0000
,
1001
0001
1000
0000
1001
0000
1000
0000
,
1001
0000
1000
1001
0101
1001
1100
0001
,
0001
0000
0001
0010
0100
0000
0000
0000
1000
0000
0010
0100
0001
0000
0000
0000
,
1000
0000
0000
0000
0101
0000
0000
0000
0010
0000
1000
0100
0010
0000
0000
0000
,
0001
0000
0000
0000
0110
0000
0000
0000
0001
0000
1000
0010
0100
0000
0000
0000
,
0010
0000
0110
0000
0010
0000
1000
1000
,
0001
0001
0100
0000
0110
0000
0100
0000
,
1001
0000
1000
0000
1010
1000
0100
0100
,
0010
0010
0001
0000
1001
0000
1000
0000
,
1001
0000
0000
0000
0001
0000
0101
0000
1001
0000
1100
0000
1001
0000
0100
0010
,
0100
0010
0100
0001
1000
0000
0100
0000
0001
0000
0100
0000
0010
0000
0010
0000
,
0100
0010
0001
0001
0100
1000
0001
0001
,
0010
0000
0010
0001
1000
0000
0100
0000
0110
0000
0000
0000
0001
0000
1000
0000
,
1001
0000
0000
0000
0001
0000
0001
1000
0100
0000
1000
0000
0002
0000
0000
0000
,
0003
0000
1000
0010
1000
0100
1000
0001
,
1000
0010
1000
0100
1000
0001
1001
0010
,
1000
0100
1000
0001
1000
0010
1000
0100
,
1000
0001
1000
0010
1000
0100
1001
0010
,
1000
0100
1000
0001
1000
0010
1000
0100
,
1000
0001
1000
0010
1000
0100
1001
0010
,
1000
0000
0100
0000
1000
0000
0001
1000
0010
0000
0100
0000
0001
0000
1000
0100
,
0010
0000
0100
0000
1000
0000
0001
1000
0010
0000
0100
0000
0001
0000
0010
0100
,
2002
3003
0000
0000
0000
0000
0000
0000
;

//---------------dance-single - ----------------
#NOTES:
     dance-single:
     :
     Challenge:
     14:
     0.685383,0.841334,0.367340,0.256025,0.517616,431.000000,398.000000,33.000000,23.000000,0.000000,0.000000,0.685383,0.841334,0.367340,0.256025,0.517616,431.000000,398.000000,33.000000,23.000000,0.000000,0.000000:
// measure 0
0000
0000
2000
0000
0000
3000
0002
0000
,  // measure 1
0000
0003
2000
0000
0000
3000
0200
0000
,  // measure 2
0320
0000
0032
0000
0000
0003
2000
0000
,  // measure 3
0000
3000
0020
0000
0000
0030
0100
0100
,  // measure 4
0010
0010
0100
0000
0001
0000
0010
0010
,  // measure 5
0001
0000
0001
0001
1000
1000
0001
0000
,  // measure 6
1000
1000
0010
0000
1000
0000
0100
0100
,  // measure 7
0100
0000
0000
0000
0010
0000
0010
0000
0001
0000
0001
0000
1000
0100
1000
0100
,  // measure 8
0010
0001
0100
0010
1000
0000
0000
0000
0100
0000
0000
0000
1000
0000
1000
0000
,  // measure 9
0100
0000
0010
0010
0001
0001
1000
0000
,  // measure 10
0010
0010
0010
0000
0110
0000
0100
0000
,  // measure 11
0110
0000
0000
0000
1000
0000
1100
0000
1001
0000
0101
0000
1001
0000
0100
0010
,  // measure 12
0100
0010
0001
1000
0100
0000
1000
0000
0010
0000
0100
0001
0100
0000
0001
0000
,  // measure 13
0010
0000
1000
0010
1000
0000
0010
0000
0001
0000
0100
0010
0100
0000
0010
0000
,  // measure 14
0100
0000
0000
0100
0001
0000
0010
0000
0100
0000
1000
0100
1000
0000
0100
0000
,  // measure 15
0010
0000
0000
0010
0001
0000
1000
0000
0100
0000
1000
0010
0100
0000
0001
0100
,  // measure 16
0001
0100
0010
1000
0100
0000
0000
0000
0100
0000
0000
0010
0001
0000
0000
0000
,  // measure 17
1000
0000
0000
0010
0100
0000
0000
0000
0001
0000
0000
1000
0100
0000
0000
0100
,  // measure 18
0010
0000
0000
0001
1000
0000
0000
0000
0010
0000
0000
0100
0001
0000
0000
0000
,  // measure 19
1000
0000
0000
0100
1000
0000
0000
0000
0001
0000
0000
0010
0100
0000
0100
0000
,  // measure 20
1000
0000
1000
0000
0100
0000
0000
0000
0010
0000
0000
0001
1000
0000
0000
0000
,  // measure 21
0010
0000
0000
0100
0001
0000
0000
0000
1000
0000
0000
0100
0010
0000
0001
0000
,  // measure 22
0000
0010
0011
0011
0001
1001
1000
1100
,  // measure 23
0100
0000
0110
0000
1001
0000
0000
0000
0000
0000
0000
0000
1000
0001
1000
0001
,  // measure 24
0010
0100
0010
0100
1000
0000
0000
0000
0001
0000
0000
0100
0010
0000
0000
0000
,  // measure 25
1000
0000
0000
0100
1000
0000
0001
0000
1000
0000
0100
0000
0010
0000
0000
0000
,  // measure 26
0001
0000
0000
0001
0100
0000
0000
0000
0010
0000
0000
1000
0100
0000
0000
0000
,  // measure 27
1000
0000
0000
0001
0010
0000
0001
0000
1000
0000
0010
0000
0100
0000
0000
0000
,  // measure 28
0001
0000
0000
1000
0100
0000
0000
0000
0001
0000
0000
0100
0010
0000
0000
0000
,  // measure 29
0010
0000
0000
1000
0100
0000
1000
0000
0001
0000
0100
0000
0010
0000
0000
0000
,  // measure 30
1000
0000
0000
0001
0010
0000
0000
0000
1001
0000
0000
1000
0001
0000
0000
0000
,  // measure 31
1001
0000
0000
0001
1000
0000
1001
0000
1010
0000
1001
0000
0011
0000
1000
0100
,  // measure 32
1000
0100
0010
0001
0200
0000
0000
0000
0310
0000
0100
0010
2000
0000
0000
0000
,  // measure 33
3002
0000
0000
0000
2003
0000
0000
0000
3100
0000
0010
0001
0200
0000
0000
0000
,  // measure 34
0302
0000
0000
0000
0203
0000
0000
0000
0310
0000
1000
0100
0020
0000
0000
0000
,  // measure 35
0230
0000
2300
0000
3002
0000
1003
1000
,  // measure 36
0001
0000
0001
0000
0010
0000
0000
0000
1001
0000
0000
0001
1000
0000
0000
0000
,  // measure 37
1001
0000
0000
1000
0001
0000
0000
0000
1001
0000
0000
0001
0010
0000
0010
0000
,  // measure 38
0100
0000
0100
0000
1000
0000
0000
0000
1001
0000
0000
1000
0001
0000
0000
0000
,  // measure 39
1001
0000
0000
0001
1000
0000
1010
0000
1001
0000
0011
0000
1001
0000
0010
0100
,  // measure 40
0010
0100
0010
1000
0002
0000
0000
0000
1003
0000
0010
0100
0001
0000
0100
0000
,  // measure 41
0010
0100
1000
1000
0100
0001
1000
1000
,  // measure 42
0100
0000
0100
1000
0001
0000
0010
0000
0110
0000
0000
0001
1000
0000
0001
0000
,  // measure 43
1001
0000
0000
1000
0001
0000
1000
0001
0010
0000
0001
0100
2000
0000
0000
0000
,  // measure 44
3000
0000
0000
0000
0000
0000
0001
0000
0000
0100
0000
0000
0001
0000
0000
0010
0001
0010
0001
0000
0000
1000
0000
0000
,  // measure 45
0001
0000
0000
0000
0000
0000
0100
0000
0001
0000
0100
0000
0001
0000
0000
0000
0000
0000
0010
0000
0000
0000
0000
0000
0001
0000
0000
0000
0000
0000
1000
0000
0000
0001
0000
0000
1001
0000
0000
0000
0000
0000
0100
0000
0000
0000
0000
0000
,  // measure 46
0001
0000
0000
0010
0001
0010
0001
0000
0000
1000
0000
0000
0001
0000
0000
0100
0001
0100
0001
0000
0000
0010
0000
0000
,  // measure 47
0001
0000
0000
0000
0000
0000
1000
0000
0001
0000
1000
0000
0001
0000
0000
0000
0000
0000
0100
0000
0000
0000
0000
0000
0001
0000
0000
0000
0000
0000
0010
0000
0000
0001
0000
0000
1001
0000
0000
0000
0000
0000
0100
0000
0000
0000
0000
0000
,  // measure 48
0001
0000
0000
0010
0001
0010
0001
0000
0000
1000
0000
0000
0001
0000
0000
0100
0001
0100
0001
0000
0000
0010
0000
0000
,  // measure 49
0001
0000
0000
0000
0000
0000
1000
0000
0001
0000
1000
0000
0001
0000
0000
0000
0000
0000
0100
0000
0000
0000
0000
0000
0001
0000
0000
0000
0000
0000
0010
0000
0000
0001
0000
0000
1001
0000
0000
0000
0000
0000
0100
0000
0000
0000
0000
0000
,  // measure 50
0001
0000
0000
0000
0000
0000
0010
0000
0001
0000
0010
0000
0001
0000
0000
0000
0000
0000
1000
0000
0000
0001
0000
0000
0100
0000
0000
0000
0000
0000
0010
0000
0100
0000
0010
0000
0100
0000
0000
0000
0000
0000
0001
0000
0000
0010
0000
0000
,  // measure 51
0100
0000
0000
0000
0000
0000
1000
0000
0100
0000
1000
0000
0100
0000
0000
0000
0000
0000
1000
0000
0000
0001
0000
0000
0100
0000
0000
0000
0000
0000
0010
0000
0000
1000
0000
0000
0001
0000
0000
0000
0000
0000
0100
0000
0000
0010
0000
0000
,  // measure 52
2002
3003
0000
0000
0000
0000
0000
0000
;

//---------------dance-single - ----------------
#NOTES:
     dance-single:
     :
     Medium:
     8:
     0.427768,0.522207,0.077921,0.066789,0.000000,269.000000,262.000000,7.000000,6.000000,0.000000,0.000000,0.427768,0.522207,0.077921,0.066789,0.000000,269.000000,262.000000,7.000000,6.000000,0.000000,0.000000:
0000
0000
0000
0000
,
0000
0000
0000
0000
,
0000
0000
0000
0000
,
0000
0000
0000
0000
0000
0000
1000
0001
,
1000
0001
1000
0000
0000
0000
0010
0100
,
0010
0000
0100
0010
0100
0010
0100
0000
,
0000
0000
0002
0000
0003
0000
1000
0001
,
1000
0000
0100
0010
0100
0010
0100
0000
,
0000
0000
0020
0000
0030
0000
0001
0010
,
0001
0000
1000
0001
1000
0001
1000
0000
,
0001
1000
0001
0000
1001
0000
1000
0000
,
1001
0000
0001
1000
0001
1000
0001
0000
,
1000
0000
0100
1000
0100
1000
0100
1000
,
0100
1000
0100
1000
0100
1000
0100
1000
,
0100
1000
0100
1000
0100
1000
0100
1000
,
0100
1000
0100
1000
0100
1000
0001
1000
,
0001
1000
0001
0000
0000
0000
0100
0000
,
0000
0010
0000
1000
,
0100
0001
0000
0010
,
0000
0000
0100
0000
0000
0000
1000
0001
,
0100
0001
0100
0000
0000
0000
0010
0000
,
0000
1000
0000
0001
,
0000
0000
0010
0010
0000
0100
0000
0100
,
0000
0100
0100
0000
0000
0000
0010
0001
,
0010
0001
1000
0000
0001
0000
0100
0001
,
0100
0000
0010
0000
1000
0010
1000
0000
,
0100
1000
0100
0000
1000
0000
0001
1000
,
0001
0000
0100
0000
0010
0100
0010
0000
,
0100
0000
0001
0000
1000
0000
0001
1000
,
0001
0000
1000
0000
0100
1000
0100
0000
,
1000
0001
1000
0000
1001
0000
0001
0000
,
1001
0000
1000
0001
1000
0001
1000
0000
,
0000
0100
0010
0100
,
0001
2000
3000
0001
,
1000
0200
0300
0010
,
0001
0000
1000
0000
0010
0000
0100
0001
,
0100
0001
0100
0000
0010
0000
1000
0000
,
0001
0000
1000
0000
0100
0000
0010
0001
,
0010
0001
0010
0000
0100
0000
1000
0000
,
0001
0000
0100
0010
1000
0001
0100
0001
,
0100
0001
1000
0000
0100
0000
1000
0001
,
1000
0001
0100
0010
,
0100
0001
1001
1000
,
1001
0000
0001
1000
0001
1000
0001
0000
,
1000
0000
0100
0100
1000
1000
0001
0001
,
1000
1000
0100
0100
1000
1000
0001
0001
,
1000
1000
0100
0100
1000
1000
0001
0001
,
1000
1000
0100
0100
1000
1000
0001
0001
,
1000
1000
0100
0100
1000
1000
0001
0001
,
1000
1000
0100
0100
1000
1000
0001
0001
,
1000
1000
0100
1000
0001
1000
0100
1000
,
0001
1000
0100
1000
0001
1000
0100
1000
,
2002
3003
0000
0000
0000
0000
0000
0000
;

//---------------dance-single - ----------------
#NOTES:
     dance-single:
     :
     Easy:
     6:
     0.286239,0.377150,0.155841,0.267156,0.000000,180.000000,166.000000,14.000000,24.000000,0.000000,0.000000,0.286239,0.377150,0.155841,0.267156,0.000000,180.000000,166.000000,14.000000,24.000000,0.000000,0.000000:
0000
0000
0000
0000
,
0000
0000
0000
0000
,
0000
0000
0000
0000
,
0000
0000
0000
1000
,
1000
0002
0000
0203
,
0300
0010
0010
0200
,
0300
0002
0000
2003
,
3000
0100
0100
0020
,
0000
0032
0000
2003
,
0000
3010
0010
0200
,
0300
0000
1001
0000
,
1001
0000
0001
1000
0001
1000
0001
0000
,
0000
1000
1000
0001
,
0001
0100
0100
0010
,
0010
1000
1000
0100
,
0100
0000
0010
0000
0010
0000
0001
0010
,
0001
0010
0001
0000
0000
0000
1000
0000
,
0000
0010
0000
0100
,
0001
1000
0000
0100
,
0000
0010
0000
0001
,
1000
0010
0000
0100
,
0000
0001
0000
1000
,
0000
0000
0100
1000
0000
0100
0000
0100
,
0000
0100
0100
0000
0000
0000
1000
0000
,
0001
1000
0010
0100
,
0001
1000
0100
0010
,
0001
0010
0100
1000
,
0001
0000
0100
0000
0010
0000
0100
0010
,
0100
0010
1000
0001
,
1000
0100
0010
0001
,
1000
0001
1001
1000
,
1001
0000
0001
1000
0001
1000
0001
0000
,
1000
0020
0030
0100
,
0001
2000
3000
0100
,
0010
0002
0003
1000
,
0010
0100
0001
1000
,
0100
0010
0001
1000
,
0010
0100
0001
1000
,
0100
1000
0001
0100
,
0010
0000
0100
0010
0100
0010
0100
0000
,
0001
2000
3000
0002
,
0003
0100
0010
0100
,
0001
1000
1001
0001
,
1001
0000
1000
0001
1000
0001
1000
0000
,
0001
1000
0000
0001
,
0000
1000
0000
0220
,
0330
0001
0000
1000
,
0000
0002
0003
0220
,
0330
0001
0000
1000
,
0000
0002
0003
0220
,
0330
0001
0110
1000
,
0110
0001
1100
0101
,
2002
3003
0000
0000
0000
0000
0000
0000
;
