#TITLE:Moonlight Densetsu;
#SUBTITLE:Sailor Moon Opening;
#ARTIST:DALI;
#TITLETRANSLIT:;
#SUBTITLETRANSLIT:;
#ARTISTTRANSLIT:;
#CREDIT:Magna Trick;
#BANNER:MDBN.jpg;
#BACKGROUND:MDBG.jpg;
#LYRICSPATH:;
#CDTITLE:Magna Trick title!.png;
#MUSIC:Moonlight Densetsu.mp3;
#OFFSET:-0.053;
#SAMPLESTART:50.000;
#SAMPLELENGTH:11.000;
#SELECTABLE:YES;
#BPMS:0.000=139.520,27.500=558.080,31.500=139.700;
#STOPS:;
#BGCHANGES:0.063=Moonlight Densetsu.mpg=1.000=0=0=1,
217.000=MDBG.jpg=1.000=0=0=1,
99999=-nosongbg-=1.000=0=0=0 // don't automatically add -songbackground-
;

//---------------dance-single - ----------------
#NOTES:
     dance-single:
     :
     Hard:
     11:
     0.459,0.560,0.453,0.075,0.235:
0000
0000
0000
0000
,
0000
0000
0000
0000
0000
0000
0000
1001
0000
0000
0000
0000
0000
0000
0000
0000
,
0000
0000
0000
0000
0000
0000
0000
0000
0000
0000
0000
0000
0000
1001
0000
0000
,
0000
0000
0000
0000
,
0000
0000
0000
1001
0000
0000
0000
0000
0000
0000
0000
0000
0000
0000
0000
0000
,
0000
0000
0000
0000
,
0000
0000
0000
0000
0000
0000
0000
0002
,
0000
0000
0000
0000
0000
0000
0000
1003
,
0001
0000
1000
0001
1000
0001
1000
0000
0000
0000
1000
0000
1000
0000
0001
0000
,
0001
1000
0001
0000
1000
0010
0100
0001
,
0000
0001
0100
0000
0100
0010
0000
1010
,
0000
0101
0000
0000
0001
0010
0100
1000
,
0000
1000
0100
0000
0100
0010
0001
1100
,
0000
0011
0000
0000
0000
0000
0000
1001
,
0001
1000
0001
1001
1000
0001
1000
0110
,
0000
0110
0000
0000
0010
1000
0100
0010
,
0000
0010
0000
0001
0100
0000
0100
0000
,
0000
2001
0000
3000
0001
0010
0100
1000
,
0000
1000
0100
0000
0100
0010
0000
0011
,
0000
1100
0000
0000
0001
0100
0010
1000
,
0000
1000
0010
0000
0010
0100
0000
0101
,
0000
1010
0000
0000
1000
0100
0010
0001
,
0000
0001
0010
0000
0010
0100
1000
1001
,
0000
0110
0000
0000
0010
0100
0001
1000
,
0000
1000
0001
0010
0100
0000
0010
0000
,
0100
1000
0010
0100
0001
0010
0100
1000
,
0000
1000
0001
0000
0001
1000
0000
0110
,
0000
1001
0000
0000
0001
1000
0010
0100
,
0000
0010
1000
0100
0010
0000
0002
0000
,
0000
0023
0000
0030
0100
1000
0010
0100
,
0000
0001
1000
0000
1000
0001
0010
1100
,
0000
0011
0000
0000
0100
1000
0001
0101
,
0000
1010
0000
1100
0011
0000
2002
3003
,
0000
0001
0000
1000
0001
1000
0001
0010
,
0000
0010
0000
0100
0000
1000
0001
0100
,
0000
0010
0000
1000
0010
1000
0000
0001
,
0000
0100
0000
0001
0010
0001
1000
0001
,
0000
0100
0000
0001
0100
0010
1000
0100
,
0000
0100
0000
0010
0000
0001
1000
1000
,
0000
0000
0001
0000
0000
0000
0010
0000
0000
0010
0000
0000
0010
0000
0100
0000
,
1000
1000
0100
0010
0010
0001
0100
0100
,
0100
0010
0100
0000
0001
1000
0010
0100
,
0000
0100
0010
0000
0010
1000
0001
0011
,
0000
1100
0000
0000
0100
1000
0001
0100
,
0000
0100
0010
1000
0001
0000
2000
0000
,
0000
3002
0000
0000
1003
0001
0100
0010
,
0000
0010
1000
0000
1000
0001
0010
0110
,
0000
0110
0000
0000
0100
1000
0001
0101
,
0000
1010
0000
1100
0011
0000
1001
0000
,
0001
0000
0001
0000
1000
0001
1000
0000
0010
0000
0100
0000
0001
0000
1100
0000
,
0000
0011
0000
0101
1010
0000
1001
0000
,
0001
0000
0001
0000
0001
0000
1000
0001
1000
0001
0010
0000
0100
0000
1010
0000
,
0000
0011
0000
1100
0101
0000
1001
0000
,
0000
0220
0000
0000
0000
0000
0000
0330
;

//---------------dance-single - ----------------
#NOTES:
     dance-single:
     :
     Medium:
     7:
     0.384,0.448,0.106,0.099,0.130:
0000
0000
0000
0000
,
0000
0000
0000
0000
0000
0000
0000
1001
0000
0000
0000
0000
0000
0000
0000
0000
,
0000
0000
0000
0000
0000
0000
0000
0000
0000
0000
0000
0000
0000
1001
0000
0000
,
0000
0000
0000
0000
,
0000
0000
0000
1001
0000
0000
0000
0000
0000
0000
0000
0000
0000
0000
0000
0000
,
0000
0000
0000
0000
,
0000
0000
0000
0000
0000
0000
0000
2000
,
0000
0000
0000
0000
0000
0000
0000
3001
,
1000
0000
0000
0000
0000
0001
0001
1000
,
1000
0001
1000
0000
0001
0100
0010
1000
,
0000
1000
0010
0000
0010
0100
0000
0001
,
0000
1000
0000
0000
1000
0100
0010
0001
,
0000
0001
0010
0000
0010
0100
1000
0001
,
0000
1000
0000
0000
0000
0000
0000
1001
,
0000
0000
0000
1001
0000
0000
0000
0110
,
0000
0110
0000
0000
0100
0001
0010
0100
,
0000
0100
0000
1000
0010
0000
0010
0000
,
0000
1002
0000
0003
1000
0100
0010
0001
,
0000
0001
0010
0000
0010
0100
0000
1000
,
0000
0001
0000
0000
1000
0010
0100
0001
,
0000
0001
0100
0000
0100
0010
0000
1000
,
0000
0001
0000
0000
0001
0010
0100
1000
,
0000
1000
0100
0000
0100
0010
0001
1000
,
0000
0001
0000
0000
0100
0010
1000
0001
,
0000
0001
1000
0001
1000
0000
0100
0000
,
0010
0100
0010
0100
0010
0100
0010
0001
,
0000
0001
1000
0000
1000
0001
0000
1000
,
0000
0001
0000
0000
1000
0001
0100
0010
,
0000
0100
0001
0010
0100
0000
2000
0000
,
0000
3200
0000
0300
0010
0001
0100
0010
,
0000
1000
0001
0000
0001
1000
0001
1000
,
0000
0001
0000
0000
1000
0001
1000
0001
,
0000
1000
0000
0001
1000
0000
2002
3003
,
0000
1000
0000
0001
1000
0001
0000
0010
,
0000
0100
0000
0010
0000
0001
1000
0000
,
0000
1000
0000
0001
0100
0000
0000
0010
,
0000
0000
1000
0010
1000
0000
0002
0000
,
0000
0000
0000
0000
0003
1000
0000
0200
,
0000
0000
0000
0000
0000
0310
0002
0000
,
0000
0000
0003
0000
0000
0000
0100
0000
0000
0100
0000
0000
0100
0000
0010
0000
,
0001
0001
1000
0001
0001
1000
0001
0001
,
0001
1000
0001
0000
0001
1000
0001
1000
,
0000
1000
0001
0000
0001
1000
0000
0010
,
0000
0010
0000
0000
1000
0001
1000
0001
,
0000
1000
0001
0001
1000
0000
0001
0000
,
0000
1000
0000
0000
0100
0010
0100
0010
,
0000
0010
0100
0000
0100
0010
0100
0010
,
0000
0010
0000
0000
0001
1000
0001
1000
,
0000
0010
0000
0100
0001
0000
1000
0000
,
0000
0000
0000
0000
0000
0000
0000
1000
,
0000
0100
0000
0010
0001
0000
0010
0000
,
0000
0000
0000
0000
0000
0000
0000
0100
,
0000
1000
0000
0001
1000
0000
1001
0000
,
0000
0120
0000
0000
0000
0000
0000
0030
;

//---------------dance-single - ----------------
#NOTES:
     dance-single:
     :
     Easy:
     3:
     0.209,0.281,0.019,0.019,0.061:
0000
0000
0000
0000
,
0000
0000
0000
0000
,
0000
0000
0000
0000
,
0000
0000
0000
0000
,
0000
0000
0000
0000
,
0000
0000
0000
0000
,
0000
0000
0000
0000
,
0000
0000
0000
0000
0000
0000
0000
1000
,
1000
0000
0000
0000
0000
0001
0000
1000
,
0000
0001
1000
0000
0000
0000
0000
0010
,
0000
0000
0000
0100
0000
0000
0000
1000
,
0000
1000
0000
0000
0000
0000
0000
0010
,
0000
0000
0000
0100
0000
0000
0000
0001
,
0000
0001
0000
0000
0000
0000
0000
1000
,
0000
0000
0000
0001
0000
0000
0000
0110
,
0000
0110
0000
0000
0000
0000
0000
1000
,
0000
0001
0000
1000
0001
0000
1000
0000
,
0000
0001
0000
0000
0000
0000
0000
0010
,
0000
0000
0000
0100
0000
0000
0000
1000
,
0000
1000
0000
0000
0000
0000
0000
0010
,
0000
0000
0000
0100
0000
0000
0000
0001
,
0000
0001
0000
0000
0000
0000
0000
1000
,
0000
0000
0000
0001
0000
0000
0000
0010
,
0000
0010
0000
0000
0000
0000
0000
1000
,
0000
0000
0000
0001
0000
0000
0000
0100
,
0000
0100
0000
0100
0000
0100
0000
0100
,
0000
0000
0000
0010
0000
0000
0000
1000
,
0000
1000
0000
0000
0000
0000
0000
0001
,
0000
0000
0000
0010
0000
0000
0000
0100
,
0000
0100
0000
0000
0000
0000
0000
1000
,
0000
0000
0000
0001
0000
0000
0000
0100
,
0000
0100
0000
0000
0000
0000
0000
0010
,
0000
1000
0000
0001
0000
0100
0000
0010
,
0000
0000
0000
1000
0000
1000
0000
0001
,
0000
0001
0000
0010
0000
0010
0000
0100
,
0000
0100
0000
1000
0000
1000
0000
0001
,
0000
0001
0000
0100
0000
0100
0000
0010
,
0000
0000
0000
0000
0000
1000
0000
0001
,
0000
0000
0000
0000
0000
0001
0000
1000
,
0000
0000
0000
0001
0000
1000
0000
0100
,
0000
0010
0000
0010
0000
0001
0000
0001
,
0000
0100
0000
0010
0000
0000
0000
1000
,
0000
0000
0000
0001
0000
0000
0000
1000
,
0000
1000
0000
0000
0000
0000
0000
0001
,
0000
0000
0000
1000
0000
0000
0000
0001
,
0000
0001
0000
0000
0000
0000
0000
0010
,
0000
0100
0000
1000
0000
0001
0000
0100
,
0000
0100
0000
0000
0000
0000
0000
0010
,
0000
1000
0000
0001
0000
0100
0000
0010
,
0000
0000
0000
0000
0000
0000
0000
1000
,
0000
0100
0000
0010
0000
0001
0000
0010
,
0000
0000
0000
0000
0000
0000
0000
0001
,
0000
1000
0000
0010
0000
0100
0000
0001
,
0000
2000
0000
0000
0000
0000
0000
0000
,
3000
0000
0000
0000
;

//---------------dance-single - ----------------
#NOTES:
     dance-single:
     :
     Challenge:
     14:
     0.629,0.732,0.463,0.155,0.674: // measure 1
0000
0000
0000
0000
,  // measure 2
0000
0000
0000
0000
0000
0000
0000
2001
0000
0001
0000
3001
0000
0000
0000
0000
,  // measure 3
0000
0000
0000
0000
0000
0000
0000
0000
0000
0000
0000
0000
0000
1002
0000
1000
,  // measure 4
0000
1003
0000
0000
0000
0000
0000
0000
0000
0000
0000
0020
0000
0000
0000
0000
,  // measure 5
0000
0030
0000
2001
0000
0001
0000
3001
0000
0002
0000
0000
0000
0000
0000
0000
,  // measure 6
0000
0000
0000
0000
,  // measure 7
0000
0000
0000
0000
0003
0000
0000
2000
,  // measure 8
0000
0000
0000
0000
0000
0000
0000
3001
,  // measure 9
1000
0000
0001
1000
0100
0010
0001
0000
0000
0000
0001
0000
0001
0000
1000
0000
,  // measure 10
1000
0000
0110
0000
1001
0000
0000
0000
0001
1000
0001
1000
0010
0100
0001
0000
,  // measure 11
0000
0000
0000
0000
0000
0000
0001
0000
0000
0000
0000
0000
0010
0000
0000
0000
0000
0000
0000
0000
0000
0000
0000
0000
0010
0000
0000
0000
0000
0000
0100
0000
0000
0000
0000
0000
0000
0000
0000
0000
0000
0001
0200
0000
0000
0000
0000
0000
,  // measure 12
0000
0000
0000
0300
0000
0010
2000
0000
0000
0000
0000
0000
0000
0000
0000
0000
0000
0000
3000
0000
0000
0000
0000
0000
1000
0000
0000
0000
0000
0000
0100
0000
0000
0000
0000
0000
0010
0000
0000
0000
0000
0000
0001
0000
0000
0000
0000
0000
,  // measure 13
0000
0000
0000
0000
0000
0000
0001
0000
0000
0000
0000
0000
0010
0000
0000
0000
0000
0000
0000
0000
0000
0000
0000
0000
0010
0000
0000
0000
0000
0000
0100
0000
0000
0000
0000
0000
1000
0000
0000
0000
0000
0001
0020
0000
0000
0000
0000
0000
,  // measure 14
0000
0000
0000
0000
0000
0130
2000
0000
0000
0000
0000
0000
0000
0000
0000
0000
3000
0000
0000
0000
0000
0000
0000
0000
0010
0000
0000
0000
0000
0000
0100
0000
0000
0000
0000
0000
0010
0000
0000
0000
0000
0000
1001
0000
0000
0000
0000
0000
,  // measure 15
1000
0001
1000
1001
0001
1000
0001
0220
,  // measure 16
0330
2002
3003
0000
0100
0001
0010
0100
,  // measure 17
0000
0100
0000
1000
0010
0000
0110
0000
,  // measure 18
0000
1002
0000
0003
1000
0100
0010
0001
,  // measure 19
0000
0001
0010
0000
0010
0100
1000
1100
,  // measure 20
0000
0000
0011
0000
0001
1000
0001
0000
1000
0000
0010
0000
0100
0000
0001
0000
,  // measure 21
0000
0001
0100
0000
0100
0010
1000
1010
,  // measure 22
0000
0000
0000
0000
0000
0000
0101
0000
0000
0000
0000
0000
0001
0000
0000
1000
0000
0000
0001
0000
0000
0000
0000
0000
0001
0000
0000
0000
0000
0000
0010
0000
0000
0000
0000
0000
0100
0000
0000
0000
0000
0000
1000
0000
0100
0000
1000
0000
,  // measure 23
0100
0010
0001
0000
0100
0000
0000
0000
0100
0000
0010
0000
1000
0000
1001
0000
,  // measure 24
0000
0000
0110
0000
0100
0010
0100
0000
0100
0000
0010
0000
1000
0000
0001
0000
,  // measure 25
0000
0001
1000
0100
0020
0000
0130
0000
,  // measure 26
0010
0000
0010
0000
0001
1000
0001
1000
0100
0000
0010
0000
0010
0000
0001
0000
,  // measure 27
0000
0001
1000
0000
1000
0001
1000
0110
,  // measure 28
0000
0000
1001
0000
1000
0001
1000
0000
1000
0000
0001
0000
0100
0000
0010
0000
,  // measure 29
0000
0100
0001
0010
0100
0000
2000
0000
,  // measure 30
0000
0000
3100
0000
0010
0001
0010
0000
0010
0000
0001
0000
0100
0000
0010
0000
,  // measure 31
0000
1000
0001
0000
0001
1000
0100
0011
,  // measure 32
0000
0000
1100
0000
0100
1000
0100
0000
0010
0000
0001
0000
1000
0000
1010
0000
,  // measure 33
0000
0101
0000
0001
1000
0000
2002
3003
,  // measure 34
1000
0000
1000
0000
1000
0000
0100
0010
0001
0010
0100
1000
0100
0010
0001
0000
,  // measure 35
0000
0000
1000
0000
0001
0100
0001
0000
0100
0000
0010
0000
1000
0001
1000
0000
,  // measure 36
0000
1000
0100
0000
1000
0100
1000
0000
0001
0000
0010
0000
0100
0000
0010
0000
,  // measure 37
0000
0010
0100
0000
0100
1000
0100
0000
1000
0000
0001
0000
0100
0000
0010
0000
,  // measure 38
0000
0100
0010
0000
0100
0010
0100
0010
0100
0000
0001
1000
0001
0100
0010
0000
,  // measure 39
0000
1000
0001
0000
0001
1000
0001
0000
1000
0000
0001
0000
0010
0000
0100
0000
,  // measure 40
1000
0000
0001
0000
1000
0000
0001
0000
0000
0000
0000
0000
0000
0000
0000
0000
0000
0000
0110
0000
0000
0000
0000
0000
0000
0000
0000
0110
0000
0000
0000
0000
0000
0000
0000
0000
0110
0000
0000
0000
0000
0000
0010
0000
0000
0000
0000
0000
,  // measure 41
0001
0001
0010
0100
0100
1000
0010
0010
,  // measure 42
0010
0100
0010
0000
1000
0001
0100
0010
,  // measure 43
0000
0010
0100
0000
0100
0001
1000
1100
,  // measure 44
0000
0000
0011
0000
0001
1000
0001
0000
0010
0000
0001
0000
1000
0000
0010
0000
,  // measure 45
0000
0010
0100
0001
1000
0000
0002
0000
,  // measure 46
0000
0000
1003
0000
0100
0010
0100
0000
1000
0000
1000
0000
0010
0000
0100
0000
,  // measure 47
0000
0100
0001
0000
0001
1000
0100
0110
,  // measure 48
0000
0000
0110
0000
0010
0001
0010
0000
0010
0000
0001
0000
1000
0000
1010
0000
,  // measure 49
0000
0101
0000
0011
1100
0000
1001
0000
,  // measure 50
1000
0000
1000
0000
0001
1000
0001
0100
0010
1000
0010
0100
0001
0010
1001
0000
,  // measure 51
0000
0110
0000
1010
0101
0000
1001
0000
,  // measure 52
1000
0000
1000
0000
1000
0000
0001
1000
0001
1000
0100
0010
0001
1000
0101
0000
,  // measure 53
0000
1100
0000
1001
1001
0110
1001
0000
,  // measure 54
0000
0120
0000
0000
0000
0000
0000
0030
,  // measure 55
1000
0010
0100
0001
0000
0000
0000
0000
0000
0000
0000
0000
0000
0000
0000
0000
0000
0000
0000
0000
0000
0000
0000
0000
;
