#TITLE:Mix Openings Anime 3;
#SUBTITLE:Megamix Openings Covers Latino;
#ARTIST:The Covers Duo;
#TITLETRANSLIT:;
#SUBTITLETRANSLIT:;
#ARTISTTRANSLIT:;
#GENRE:;
#CREDIT:;
#BANNER:MOABN.jpg;
#BACKGROUND:MOABG.jpg;
#LYRICSPATH:;
#CDTITLE:;
#MUSIC:Mix Openings Anime 3 [ESPENG] Covers!.ogg;
#OFFSET:-0.161000;
#SAMPLESTART:190.600006;
#SAMPLELENGTH:19.681808;
#SELECTABLE:YES;
#DISPLAYBPM:138.000000:179.000000;
#BPMS:0.000000=179.000000
,98.000000=89.500000
,106.000000=179.000000
,122.000000=89.500000
,126.000000=179.000000
,246.000000=178.000000
,494.000000=165.000000
,498.000000=82.500000
,516.000000=165.000000
,626.000000=82.500000
,627.000000=330.000000
,629.000000=165.000000
,660.000000=330.000000
,662.000000=165.000000
,701.000000=82.500000
,705.000000=165.000000
,721.000000=140.000000
,925.000000=130.000000
;
#STOPS:
;
#BGCHANGES:0.000=1.avi=1.000=0=0=1=====,
246.000=2.avi=1.000=0=0=1=====,
496.500=3.avi=1.000=0=0=1=====,
721.000=4.avi=1.000=0=0=1=====,
920.500=5.avi=1.000=0=0=1=====,
1112.000=MOABG.jpg=1.000=0=0=1=====,
99999=-nosongbg-=1.000=0=0=0 // don't automatically add -songbackground-
;
#KEYSOUNDS:;
#ATTACKS:;

//---------------dance-single - ----------------
#NOTES:
     dance-single:
     :
     Challenge:
     17:
     0.741027,1.053519,0.663611,0.397248,0.494838,2259.000000,1970.000000,289.000000,173.000000,0.000000,1.000000,0.741027,1.053519,0.663611,0.397248,0.494838,2259.000000,1970.000000,289.000000,173.000000,0.000000,1.000000:
0000
0000
0000
0000
,
0000
0000
0000
0000
,
0000
0000
0000
0000
,
0000
0000
0000
0000
,
0000
0000
2001
0001
,
0001
0000
0000
3000
0010
0000
0000
0000
0200
0000
0000
0000
0001
0000
0000
0000
,
0001
0300
0010
0000
2001
0000
0001
0000
,
0001
3000
0000
1001
0000
1001
0001
0100
,
0001
0100
1000
0000
0100
1000
0000
0010
,
0000
0100
0000
0002
0000
0000
0003
0000
,
1000
0000
0100
0000
1000
0010
0000
1010
,
0000
0000
0110
0000
0000
0000
0202
0000
0000
0000
0000
0303
0000
0000
0000
0000
,
0001
1000
1100
1010
,
0100
0001
1000
0000
0100
0100
1000
0010
,
1000
0010
0100
0000
0001
0001
1000
0100
,
1000
0100
0100
1000
0010
0100
0001
1000
,
1000
0000
0010
0100
0001
0010
0001
0010
0100
0000
1000
0000
0000
0000
1100
0000
,
0000
0110
0000
2002
3003
0000
0001
0000
,
1001
0000
1100
0000
0100
0010
0000
1001
,
0000
0110
0000
2001
0000
3000
0100
0000
,
0010
0000
0001
0000
1000
0010
0100
0001
,
1000
0100
0010
0001
1000
0100
1000
0100
,
0100
1000
0010
0001
0100
0001
1000
0100
,
0001
1000
0010
0001
1000
1000
0100
0010
,
0001
0000
0000
0000
0100
0000
0000
0000
0001
0000
0000
0000
0001
0000
0000
0000
0020
0000
0000
0000
0000
0000
0000
0030
0000
0000
0000
0000
1000
0000
0100
0000
,
1000
0000
0000
1000
0000
0000
0001
0000
0100
0000
0000
0102
0000
0003
0000
0000
,
1000
0000
0000
0220
0000
0330
0000
0000
0001
0100
0001
1000
0010
0100
0001
1000
,
0001
0100
0001
1000
0001
0100
0001
1000
0001
0100
0001
1000
0001
0100
0001
1000
,
0010
1000
0001
0100
0001
0010
0100
1000
0100
0010
0001
1000
0100
0010
0001
0010
,
0001
0010
0001
0100
0010
1000
0100
1000
0010
0100
0010
1000
0100
0000
0000
0000
,
1001
0000
0000
0110
0000
0000
1010
0000
0120
0000
0000
1000
0000
0000
0100
0000
,
0000
0030
0000
0000
0000
0000
0000
0000
0002
0000
0023
0000
0230
0000
0300
0000
0110
0000
0000
0000
0000
0000
0000
0000
1001
0000
0000
0000
0000
0000
0000
0000
,
0100
1000
0010
0000
1000
0000
0001
0000
,
2200
3300
0000
0220
0330
0000
1001
0000
,
0100
1000
0010
0010
0000
1100
0000
1010
,
0000
1001
0000
0020
0000
0030
0000
0100
,
0110
0000
0000
0001
0101
0000
0000
0010
,
0011
0000
0000
0001
1001
0000
1000
1010
,
0000
0101
0000
0001
0000
1000
0100
0000
,
1000
0001
1000
0010
0100
0001
0010
0001
2000
0000
0000
0000
0100
0000
0000
3000
,
0010
0000
0000
0000
0010
0000
0000
0000
0200
0000
0000
0000
0010
0300
0000
0000
,
2000
0000
0000
0000
0000
3000
0010
0000
0200
0000
0000
0000
0001
0000
0000
0000
,
0000
0300
0010
1000
0000
0001
0000
0100
,
0000
0010
0000
2200
0000
3300
0000
1000
,
0010
0000
0000
0010
0001
0000
0000
0010
,
0100
0000
0000
0001
1000
0000
0010
0001
,
0000
0101
0000
0110
0000
0010
0100
1000
,
0100
0000
1000
0000
0010
1000
0001
1000
0100
0000
0000
0000
1001
0000
0000
0000
,
0100
0010
1001
0000
0100
0000
0010
0000
,
1000
0001
0000
0011
0000
0010
1000
1010
,
0000
0010
0100
0110
0000
0001
0100
0001
,
0011
0010
1001
1000
,
0010
0100
0000
0100
0000
0000
0001
0100
,
0000
1000
0000
0000
1100
1100
0000
0110
,
0110
0000
0000
0000
0011
0000
0011
0000
1000
0010
1000
0010
0100
0001
0100
0001
,
0010
0001
0010
0001
0100
0010
0100
0010
1000
0000
0001
0000
0010
0100
1000
0000
,
0100
0000
0010
0000
0001
0010
0100
0000
1000
0000
0001
0000
0010
0100
1000
0000
,
0001
0000
0010
0000
0100
1000
0001
0000
1000
0000
0100
0000
0010
0001
1000
0000
,
0100
0000
0010
0000
0001
0010
0100
0000
1000
0000
0100
0000
0010
0000
0001
0000
,
0010
0001
1000
0100
0010
0001
2000
0000
0000
0000
0000
0000
0000
0000
0000
0000
,
0000
3000
0000
0000
1001
0000
0110
0000
,
1001
0000
0000
0000
1010
0000
0000
0000
1000
0000
0000
0000
0010
0000
1000
0010
,
0100
0000
0001
0000
0010
0000
0100
1000
0001
0000
0100
0000
1100
0000
0000
0000
,
0110
0000
0000
0000
0101
0000
0000
0000
0010
0000
0000
0000
1000
0000
0010
0100
,
0001
0000
1000
0000
0100
0000
0010
0001
1000
0000
0001
0000
1100
0000
0000
0000
,
0110
0000
0000
0000
0011
0000
0000
0000
0001
0000
0000
0000
1000
0000
0100
0010
,
0001
0000
1000
0000
0010
0000
0100
0001
0010
0000
0100
0000
1001
0000
0000
0000
,
1001
0000
0000
0000
0110
0000
0001
0000
1000
0000
0000
0000
0001
0000
1000
0100
,
0010
0000
0100
0000
0010
0000
0001
0100
0020
0000
0000
0000
1000
0000
0000
0030
,
0100
0000
0010
0100
0001
0000
0000
0000
1000
0000
0000
0000
0011
0000
0000
0000
,
0010
1010
0010
1001
,
0100
1100
0010
0110
,
0010
1100
0100
0110
,
0100
1100
0010
0110
,
0010
0011
0010
0110
,
0010
1010
0010
0110
,
0010
0011
2001
0000
,
0020
0000
0000
0000
0000
0000
0030
3000
0000
0000
0000
0000
1001
0000
0000
0000
,
0010
0110
0010
1010
,
0010
0110
0001
0011
,
0001
1100
0100
0110
,
0100
0000
2000
3020
0030
0000
1010
0000
,
0010
1010
1000
1001
,
0010
0110
0001
1001
,
0001
0000
1010
0000
0001
0100
0010
1000
,
0001
1000
0001
1000
0001
0000
0100
0010
0100
0000
1000
0000
1100
0000
0000
0000
,
0010
0001
0110
0000
0010
0100
0011
0000
,
1000
0100
0110
0000
0001
1000
1100
0000
,
1000
0010
0110
0000
0011
0000
0110
0000
,
1100
0000
1000
0000
0100
0010
0011
0000
,
0001
0010
0110
0000
1000
0010
1100
0000
,
0001
1000
0110
0000
1000
0001
0011
0000
,
0010
0100
0110
0000
1100
0000
0110
0000
,
1001
2000
3020
0032
,
0023
2030
3200
0302
,
0203
2300
3020
0032
,
0023
2030
3200
0302
,
0003
0011
0100
0110
,
1100
0010
0110
0011
,
0010
1010
1001
0000
,
1100
0000
0110
0000
0001
0100
0001
1000
,
0010
1000
0010
1000
0001
1000
0001
1000
0010
0000
0100
0000
1000
0100
0010
0000
,
0001
0000
0010
0000
0100
1000
0100
0000
0010
0000
0000
0000
0010
0000
0000
0000
,
0100
0000
1000
0000
0010
0100
0001
0100
,
1000
0000
0100
0000
0001
0100
0010
0000
1001
0000
0000
0000
0001
0000
0000
0000
,
0011
0001
1001
0010
,
0110
0000
0000
0000
0202
0000
0000
0000
0000
0303
0000
0000
1001
0000
0000
0000
,
1000
1100
0011
0001
,
1010
0110
1001
0110
,
1000
0000
0001
0000
0010
0100
0010
0000
0001
0000
1000
0000
0010
0100
0001
0000
,
0100
0000
0010
0000
1000
0000
1000
0010
0100
0000
0001
0000
1000
0000
0000
0000
,
0100
0010
0010
1001
,
0100
0010
0001
0000
1010
0000
0101
0000
,
0100
1000
0200
0000
0320
0000
0032
0000
,
2003
3002
0203
0010
,
0300
1010
0001
1000
,
0110
0000
1001
0000
0110
0100
0100
0001
,
0010
0010
1010
0000
0001
0100
1000
0001
,
1000
0000
0010
0000
0100
0000
1000
0000
0010
1000
0100
0000
1000
0000
0001
0000
,
1000
0000
0001
0000
0010
0000
0100
0010
0001
0000
0000
0000
1100
0000
0000
0000
,
0001
0010
0100
0000
1000
0000
0100
0000
0100
0000
1000
0000
0100
0000
0010
0000
,
0001
0000
1000
0000
0010
0000
0100
1000
0001
0000
0000
0000
1000
0000
0100
0000
,
0110
0001
1000
0001
0020
0000
0030
0000
,
1200
0300
2001
0010
,
0010
0000
0000
0000
0010
0000
3000
0000
2002
3003
0000
1000
0010
1000
0010
0100
,
0001
0010
0001
0100
0001
0010
0001
0100
0010
1000
0000
0100
0000
1000
0100
1000
,
0100
1000
0010
0100
0010
1000
1001
0000
2002
3003
0000
0100
1000
0001
0100
0001
,
1000
0100
0010
0001
1000
0010
1000
0100
0010
0001
0010
0001
0100
0010
0100
0010
,
1000
0000
0000
0001
0100
0000
0010
0100
0000
0010
0200
0000
0000
0000
0300
0000
,
2002
3003
0010
0100
0001
0000
0100
0000
,
0001
0100
0000
0100
0000
0010
1001
0100
,
0010
1001
0000
1010
0000
0010
0100
0001
,
1000
0000
0000
0000
0100
0000
1000
0000
0001
0010
0001
0100
0010
0000
1000
0000
,
0010
0100
0001
1001
0000
0100
1000
1100
,
0000
0000
0100
0000
0010
0000
0110
0000
0000
0000
0101
0000
0000
0000
0100
0010
,
0001
0010
1000
0100
0001
1000
0010
0001
,
0010
0100
1001
1000
0100
0010
1001
0000
,
0000
1000
0010
1001
0000
0001
0010
0101
,
0000
0000
0001
0000
1000
0000
1100
0000
0000
0000
1100
0000
0000
0000
0001
0100
,
1000
0000
0000
0100
0001
0010
1000
0110
,
0000
0000
1000
0002
0003
0001
0020
0030
,
1001
0000
0010
1000
0000
0100
0001
0010
,
0010
0100
0001
0100
0010
0001
1000
0000
,
1000
0000
0001
0010
0100
0000
1000
0000
0001
0000
0100
0000
0100
0000
1000
0000
,
0100
0010
0010
1000
0010
0100
0001
0000
,
1001
1001
0010
0100
0000
0001
1000
0100
,
0010
0001
1000
0010
0000
1000
0001
0000
,
0010
1100
1010
0101
,
0011
0101
1010
1001
,
0002
0000
1003
0100
0020
0030
0101
0000
,
0001
0000
2000
0000
3000
0000
0100
0000
1000
0000
0010
0000
0100
0000
0001
1000
,
0001
0010
0100
1000
1001
0000
1000
0100
,
0011
0000
0010
0000
0001
0100
0000
1000
,
1100
0000
0100
0000
1010
0000
0010
0100
,
0011
0000
1001
0000
1100
1000
0010
1000
,
0001
0100
0010
1000
0001
1000
0100
1000
,
0100
0100
0100
0100
0000
0000
2002
0000
,
0000
0000
0000
0000
3003
0000
0001
0010
0100
0000
1000
0000
0100
0010
0001
0000
,
0100
0000
0010
0000
0001
0000
0010
0000
1000
0000
0010
0001
0010
0000
1000
0000
,
0010
0100
0000
0011
0000
1000
0100
0001
,
0001
0100
1000
0001
0100
1100
1100
0000
,
0002
2003
3200
0302
2003
3002
0203
2300
,
3002
0203
2300
3002
0023
0230
0302
2003
,
3200
0302
2003
3020
0032
2003
3020
0230
,
2300
3001
1002
0003
0011
0001
0011
0010
,
0002
0000
0000
0000
0003
0000
0000
0000
0000
0000
0001
0010
0100
0000
1000
0000
,
0010
0000
0100
0001
1000
0000
0010
0000
0100
0000
0001
1000
0010
0000
0100
0000
,
0100
1000
0100
0001
0100
1000
0010
0100
,
1000
0100
1020
0000
0030
1000
0001
0000
,
0010
0100
0000
0001
0100
0000
0001
0001
,
1000
0000
0100
0100
0010
0001
1000
0010
,
0010
1000
0010
1000
0010
0100
0001
0010
,
0001
0010
1100
0100
0110
0100
0101
0000
,
0101
0002
0000
0000
1000
0000
0000
0000
,
1000
0003
0001
1000
0001
0000
0110
0010
,
0110
0000
1000
0000
0001
0010
0100
1000
0010
0100
0001
1000
0100
0010
0001
1000
,
0001
0000
1000
0000
1001
0000
0010
0000
0100
0000
0001
1000
0010
0000
0100
0000
,
0001
0000
1000
0100
0010
0000
0001
0000
1000
0000
0100
0010
0100
0000
1000
0000
,
0001
0000
0010
0000
0100
1000
0001
0000
0010
0000
0100
1000
0001
0000
1000
0000
,
0001
0000
0010
0000
0100
1000
0100
0000
1000
0000
0010
0100
0001
1000
0010
0100
,
0001
0000
1000
0000
0010
0000
0000
0000
0000
1000
0000
0000
0000
0000
0000
0000
0000
0010
0000
0000
0000
1000
0000
0000
0000
0000
0000
0000
0000
0010
0000
0000
,
0000
0000
0000
0000
0000
0000
0000
0000
0000
0000
0000
0000
0100
0000
0000
0000
0000
0000
0000
0010
0000
0000
0000
0000
0000
0000
0000
0100
0000
0000
0000
0000
0000
0000
0001
0000
0000
0000
0000
0000
0000
0000
0100
0000
0000
0000
0000
0000
0000
0000
0000
0000
0000
0000
0000
0000
0000
0000
0001
0000
0000
0000
0000
0000
,
0000
0000
0000
0000
0000
1000
0000
0100
0000
1000
0000
0000
0000
0010
0000
0000
0000
0100
0000
0000
0000
0001
0000
0000
0000
1000
0000
0000
0000
0100
0000
0000
,
0000
1000
0000
0000
0000
0000
0000
0000
0000
1001
0000
0000
0000
0000
0000
0000
0000
0000
0000
0000
0000
0110
0000
0000
0000
0000
0000
0000
0000
0000
0000
0000
,
1001
0000
0000
0000
0000
1000
0000
0100
0000
0010
0000
0000
0000
0001
0000
0000
0000
0010
0000
0000
0000
0100
0000
1000
0000
0000
0000
0000
0000
1000
0000
0000
,
0000
0000
0000
0000
0000
0001
0000
0000
0000
1000
0000
0000
0000
0010
0000
0000
0000
0100
0000
0000
0000
0001
0000
0000
0000
0010
0000
0000
0000
0001
0000
0000
,
0000
0010
0000
0000
0000
0000
0000
0000
0000
1000
0000
0000
0000
0100
0000
0000
0000
0202
0000
0000
0000
0000
0000
0000
0000
0000
0003
0300
0000
0000
0000
0000
,
2002
0000
3003
0000
2002
0000
0000
3003
0001
0000
0200
0000
0300
0000
0002
0000
,
0003
0000
2002
0000
3003
0000
0100
0000
1000
0000
0010
0100
0010
0100
0001
0000
,
0001
0000
1000
0010
0100
0000
0000
0000
0100
0000
0101
0000
0000
0000
1100
0000
,
0000
1001
0000
1000
1100
0100
0101
0100
,
1100
0000
0100
0000
0100
0010
0100
0000
0100
0000
0100
1000
0100
0000
0100
1000
,
0100
0010
0100
0001
0100
0000
0000
0000
0000
0000
1001
0000
0000
0000
0010
0000
,
0100
0001
0101
0001
0000
0101
0000
0000
,
0000
0000
0100
0010
0001
0000
0001
0000
0010
0000
0110
0000
0000
0000
1001
0000
,
0000
0000
0100
0000
0000
0000
0010
0000
0001
0000
0100
0000
0202
0000
0000
0300
,
0003
0000
0000
0000
1100
0000
0000
0000
0000
0000
0110
0000
0000
0000
0001
0100
,
0010
1000
0100
1000
0000
0110
0000
0000
,
0000
0000
1000
0100
0010
0000
0001
0000
1000
0000
0100
0000
0000
0000
0010
0000
,
0000
0001
0000
0010
0100
1000
1001
0000
,
0100
0000
0000
0000
0000
0000
0001
0000
1000
0000
0100
1000
0000
0001
0010
0000
,
0100
0000
1000
0000
0001
0000
0100
0000
0001
0000
1000
0000
0000
0000
1000
0100
,
0010
0000
0001
0000
1000
0000
0001
0000
0010
0000
0100
0000
0000
1000
0100
0010
,
0001
1000
0000
0000
0001
1000
0000
0110
,
0000
0000
1001
0000
0000
0000
1000
0000
0100
0000
1000
0001
0000
1000
0010
0100
,
0001
0000
1001
0000
0001
0000
0010
0000
0100
0000
1000
0000
0000
0001
0010
0100
,
1000
1000
0001
0000
1000
0100
0000
1100
,
1000
0100
0000
0000
0001
1000
0000
0100
,
0010
0000
0000
0000
0000
0001
0010
0100
1000
0000
0001
0000
1000
0100
1000
0010
,
0100
0000
0001
0000
1000
0000
0100
0010
0100
0000
1000
0001
0010
0100
1000
0100
,
0010
0000
0001
0000
0000
0001
0010
0100
1000
0000
0100
0010
0000
0001
0010
0001
,
1000
0010
0110
0100
1100
0110
0000
1001
,
0110
0000
1000
0000
0001
0010
0100
1000
0100
0000
0001
0000
0001
1000
0100
0010
,
0001
0000
1000
0000
1000
0010
0100
0001
1000
0001
0010
0100
1000
0001
0010
0100
,
1000
0000
0001
0000
1000
0001
1000
0100
0010
0001
0100
0001
0010
0100
0010
0001
,
0100
0001
0101
0000
0100
0101
0000
0110
,
0100
0000
0001
0010
0001
0000
0100
0000
0110
0000
0010
0000
1000
0000
0001
0000
,
0010
0000
0001
1000
0001
0000
1000
0000
0110
0000
0001
1000
0100
0000
0010
0000
,
0110
0000
0100
1000
0010
0000
1000
0000
0110
0000
0001
0000
0110
0000
1000
0000
,
0010
0100
0010
1000
0000
0110
0000
0101
,
0000
0000
0001
1000
0001
0000
1000
0000
0100
0000
0010
0000
0000
0000
0001
0000
,
0000
0000
0010
0100
0010
0000
0001
0000
1000
0000
0010
0100
0000
0001
1000
0000
,
1000
0000
0010
0100
0010
0000
1000
0000
0001
0000
0010
0000
0100
0000
0010
0000
,
0001
0000
0010
0100
0010
0000
0100
1000
0100
0000
1000
0001
1000
0000
0010
1000
,
0001
0100
0010
1000
0001
0000
1000
0000
1001
0000
0010
0100
0010
0000
0100
0000
,
0101
0000
0001
1000
0100
0000
0010
0000
0110
0000
0001
1000
0010
0000
0100
0000
,
0110
0000
0010
0100
0010
0000
0100
0000
0101
0000
0001
0000
0011
0000
0001
0000
,
1000
0001
1000
0001
1000
0000
0100
0000
0010
0000
0011
0000
0000
0000
1010
0000
,
0000
0000
0010
1000
0001
0000
0000
0000
1000
0000
1010
0000
0000
0000
2000
0000
,
0000
0000
3000
0000
0001
0000
0010
0100
0000
0100
1000
0001
0100
0000
0010
0000
,
0010
0002
0000
0000
,
0003
0000
0000
0000
2000
0000
0000
3200
0000
0000
0320
0000
0000
0032
0000
0000
,
0203
0000
0320
0000
0230
0000
0300
0002
0000
0003
2000
0000
3000
0020
0000
0030
,
0002
0003
0000
0000
2000
0000
0000
3200
0000
0000
0301
0000
0000
2000
3000
0000
,
0100
0000
0010
0000
0021
0000
0030
2100
0000
0000
3220
0000
0000
0300
0000
0000
,
0000
0000
0030
0000
1001
0000
0000
0110
0000
0000
0101
0000
0001
1000
0001
0010
,
0100
1000
0100
0010
1001
0000
0000
1010
0000
0000
0101
0000
0000
0110
0000
0000
,
0100
0001
0010
0000
1100
0000
0000
1100
0000
0000
0110
0000
0100
0010
0001
1000
,
0010
0100
0001
1000
0001
0000
0000
1001
0000
0000
0110
0000
0000
1001
0000
0000
,
1001
0000
0000
0000
0000
0000
0000
0000
1100
0000
0000
0000
0000
0000
0011
0000
0000
0000
0000
0000
0110
0000
0000
0000
0000
0000
0000
1000
0000
0000
0000
0001
,
0000
0000
0100
0000
1001
0000
0010
0000
0100
0010
1000
0000
0100
0000
0010
0001
,
0000
0001
0100
0000
1001
0000
0000
0000
0110
0000
0000
0000
0202
0000
0000
0303
,
0000
2000
3200
0320
2030
3020
0230
2300
,
3002
0000
0023
0000
0230
0302
0203
0320
0032
2003
3200
0300
0000
0000
0001
0000
,
1000
0001
1000
0000
1000
0010
0100
0010
1000
0100
0010
0100
1000
0010
0100
1000
,
0100
0010
1000
0100
0010
1000
0010
0100
1000
0010
0100
1000
0100
0010
1000
0100
,
0010
0000
0000
0100
0000
0000
1000
0000
0000
0100
0000
0000
0010
0000
0000
0000
0001
0000
0000
0000
1000
0000
0000
0000
0001
0000
0000
0000
0000
0000
0000
0000
0000
0000
0000
0000
0010
0000
0000
0001
0000
0000
0100
0000
0000
0010
0000
0000
,
0000
0000
0000
0000
1001
0000
0000
0011
0000
0000
0110
0000
0000
1100
0000
0000
,
0001
1000
2002
0000
3003
0022
0000
0033
,
1000
0100
0022
0033
0000
2002
3003
1001
,
0200
2300
3002
1003
1000
1000
0001
0001
,
0001
0000
1000
0000
0010
0100
0001
1000
0100
0010
0001
0100
0010
0000
0000
0000
,
2000
0000
0000
0000
3002
0000
0103
0010
0000
0010
0100
0000
0010
1000
0001
0000
,
0001
1000
0100
0010
0001
0000
0001
0000
1000
0000
0001
0000
1000
0000
0001
0000
,
0010
0000
0100
0000
1000
0001
1000
0000
0100
0010
0100
0000
0010
0001
0010
0000
,
0010
0010
0010
0010
0001
0010
0100
1000
,
0001
1000
0010
0100
0001
0000
1000
0100
0000
0100
1000
0000
0100
0010
0001
0000
,
1000
0000
0010
1000
0001
0000
1000
0000
1010
0000
0010
0000
0110
0000
0000
1001
,
0000
0000
0010
0000
0010
0000
0000
1001
0000
0000
1002
0000
0000
0000
0010
0000
,
0000
0000
1003
0000
0010
1000
0010
1000
0001
1000
0010
0100
0001
1000
0010
0100
,
0001
1000
0010
1000
0001
0000
0100
0010
0000
0010
0100
0000
0001
0000
1000
0000
,
0100
1000
0100
0000
0010
0000
0001
0000
0010
0001
0010
0000
0001
0000
1000
0010
,
0000
0010
1000
0000
0001
0000
0100
0000
0010
0100
0010
0000
0100
0000
0001
0000
,
1000
0100
1000
0000
0001
0000
0010
0000
0100
0000
0010
0000
0001
1000
0010
0100
,
0002
0000
0000
0000
0203
0000
0301
0000
1000
0001
1000
0000
0010
0000
0100
0001
,
0000
0001
1000
0000
0100
0000
0100
0000
0010
0000
0010
0000
0001
0000
1000
0001
,
0000
0001
1000
0000
0010
0000
0100
0010
0000
0010
0100
0000
0010
0000
1000
0000
,
0001
0000
1000
0000
0100
1000
0100
1000
0001
0010
0001
0010
0100
1000
0001
0100
,
0010
1000
0001
1000
0001
0100
0010
0100
0001
0100
0010
1000
0100
0010
0100
1000
,
0100
0010
0001
1000
0010
1000
0001
1000
0010
1000
0001
0010
0001
1000
0010
1000
,
0001
1000
0010
0100
0001
1000
0100
1000
0001
0010
0001
0010
1000
0010
0001
1000
,
0010
0100
0001
1000
0010
1000
0100
1000
0010
0100
0001
0010
0100
1000
0001
1000
,
0010
1000
0100
0010
0001
0010
0100
0010
0001
0010
0100
1000
0010
0100
0010
0001
,
0010
0100
0001
1000
0001
0100
0010
0100
0001
0100
0010
0100
0001
0100
0010
0100
,
0001
0100
0010
1000
0100
0010
0100
1000
0100
0010
0100
1000
0100
0010
0100
1000
,
0100
0010
0001
1000
0010
0100
0001
1000
0100
0010
0001
1000
0010
0100
0001
0010
,
0100
0000
0010
0000
0010
1000
0000
0110
0000
0000
0010
0100
0000
1100
0000
0000
,
0100
0010
0000
0022
0000
0000
0000
0000
0000
0000
0033
0000
0022
0000
0000
0000
,
0000
0033
0000
0000
0000
0000
0000
0000
0000
0000
0000
0000
0000
0000
0000
0000
;

//---------------dance-single - ----------------
#NOTES:
     dance-single:
     :
     Hard:
     14:
     0.569466,1.053282,0.613094,0.303103,0.242253,1736.000000,1469.000000,267.000000,132.000000,0.000000,0.000000,0.569466,1.053282,0.613094,0.303103,0.242253,1736.000000,1469.000000,267.000000,132.000000,0.000000,0.000000:
// measure 0
0000
0000
0000
0000
,  // measure 1
0000
0000
0000
0000
,  // measure 2
0000
0000
0000
0000
,  // measure 3
0000
0000
0000
0000
,  // measure 4
0000
0000
2001
0010
,  // measure 5
0100
3001
0210
0001
,  // measure 6
0010
0300
0001
0000
2100
0000
0010
0000
,  // measure 7
0001
3000
0000
0001
0000
0010
0100
0010
,  // measure 8
0001
1000
0100
0000
0010
0100
0000
1010
,  // measure 9
0000
1001
0000
0020
0000
0030
0000
0000
,  // measure 10
0101
0000
0001
0000
1000
0100
0000
1001
,  // measure 11
0000
0110
0000
0201
0000
0000
0300
0000
,  // measure 12
0001
0000
1000
0000
0100
0000
0000
2000
,  // measure 13
0000
0000
0000
0000
0010
0000
0000
0001
,  // measure 14
0000
3000
0001
0000
2000
0000
0000
0000
,  // measure 15
0100
0000
0010
3000
,  // measure 16
0001
0100
0001
1000
0001
0100
0001
1000
0001
0000
0001
0000
0000
0000
1001
0000
,  // measure 17
0000
0110
0000
0201
0000
0000
0300
0000
,  // measure 18
0001
0000
0100
0000
0010
1000
0000
0101
,  // measure 19
0000
1010
0000
0101
0000
0000
1000
0000
,  // measure 20
1100
0000
0110
0000
1010
0000
0000
0220
,  // measure 21
0000
0000
0000
0000
,  // measure 22
0330
0000
0002
0003
,  // measure 23
2000
0000
0000
3000
0200
0000
0000
0300
,  // measure 24
0020
0000
0000
0000
0000
0000
0030
0000
0002
0000
0000
0000
0003
0000
1000
0100
,  // measure 25
0010
0000
0000
1001
0000
0000
0011
0000
0110
0000
0000
1001
0000
0000
0000
0000
,  // measure 26
1001
0000
0000
2002
0000
0000
3003
0000
1000
0000
0100
0000
0000
0000
0010
0000
,  // measure 27
0000
0001
0000
0002
0000
0000
0003
0000
,  // measure 28
1000
0000
0100
0000
1100
1100
0000
0110
,  // measure 29
0000
0101
0000
0022
0000
0033
0000
0000
,  // measure 30
2000
0000
0000
0000
0000
0000
3000
0000
0100
0000
0000
0010
0000
0000
0002
0000
,  // measure 31
0000
0000
0003
0000
1000
0100
0010
0000
2002
0000
0000
0000
0000
0000
0000
0003
,  // measure 32
3000
0110
0201
0300
,  // measure 33
0001
0000
0000
0002
0000
0000
0000
0000
,  // measure 34
0003
0000
1000
0100
0000
1010
0000
0110
,  // measure 35
0000
0011
0000
0101
0000
0000
0000
0001
,  // measure 36
1001
0000
0000
0100
1100
0000
0000
0010
,  // measure 37
0110
0000
0000
0001
0101
0000
0001
0101
,  // measure 38
0000
0101
0000
0101
0000
0000
0000
0000
,  // measure 39
1000
0100
0010
0000
0022
0000
0000
0000
,  // measure 40
0033
0110
1001
0000
,  // measure 41
0020
0000
0000
0230
0000
0000
0000
0000
,  // measure 42
0300
0000
1000
0100
0000
0010
0000
0001
,  // measure 43
0000
0010
0000
0100
0000
0000
0000
1000
,  // measure 44
0010
0000
0000
0100
0001
0000
0000
1000
,  // measure 45
0100
0000
0000
0010
0001
0000
1000
0010
,  // measure 46
0000
0101
0000
0101
0000
0001
1000
0100
,  // measure 47
1000
0010
0100
0001
0000
1000
1000
0000
,  // measure 48
0010
0100
0010
0000
0100
0000
0001
0000
,  // measure 49
1000
0100
0000
1000
0000
0010
0100
1001
,  // measure 50
0000
1000
0010
1001
0000
0010
0100
0010
,  // measure 51
1000
0100
1000
0010
,  // measure 52
0100
0001
0000
0010
0000
0000
0001
1000
,  // measure 53
0000
0100
0000
0000
1100
1100
0000
1100
,  // measure 54
1100
0000
0000
0000
0010
0000
1000
0000
0001
1000
0001
1000
0001
1000
0001
1000
,  // measure 55
0001
1000
0001
1000
0001
1000
0100
0010
0001
0000
0000
0000
1000
0000
0000
0000
,  // measure 56
0001
1000
0000
0110
0000
1001
0000
1100
,  // measure 57
0000
0110
0000
0011
0000
0000
1000
0000
,  // measure 58
0010
0100
0000
1001
0000
1100
0000
1000
,  // measure 59
0001
0010
0100
1000
0001
0010
0200
0000
0000
0000
0000
0000
0000
0000
0000
0000
,  // measure 60
0000
0000
0000
0000
0000
0000
2000
0000
0000
0000
0000
3000
0300
0000
0000
0000
,  // measure 61
2000
3000
0100
1000
,  // measure 62
0010
0100
0001
1000
1000
0010
1000
0000
,  // measure 63
1100
0110
1100
1001
,  // measure 64
1000
0010
0100
1000
0101
0000
0011
0000
,  // measure 65
0110
1001
1001
0100
,  // measure 66
1000
0100
0010
0001
1000
0100
0010
0000
,  // measure 67
0101
1001
0010
0100
,  // measure 68
0001
1000
0010
0000
2001
0000
3001
0000
,  // measure 69
0001
0010
0100
1000
0001
0000
0000
0000
0100
0000
0000
0000
0010
0000
0000
0000
,  // measure 70
0100
0001
1000
0100
,  // measure 71
1000
1001
0000
0100
,  // measure 72
0010
0001
0010
0100
,  // measure 73
0010
0110
0000
1000
,  // measure 74
0100
0001
0100
1100
,  // measure 75
1010
0220
0330
0001
,  // measure 76
1000
1100
2002
3003
,  // measure 77
0220
0000
0000
0330
0000
0000
0001
0000
,  // measure 78
0010
0100
1100
0010
,  // measure 79
0100
0102
0003
1000
,  // measure 80
0100
1000
0010
0100
,  // measure 81
0001
0000
1000
0100
0000
0000
1000
0000
,  // measure 82
0001
1000
0010
0100
,  // measure 83
1001
0220
0330
1000
,  // measure 84
0110
0000
0011
0000
0002
0000
0000
0003
,  // measure 85
1000
0100
0010
0001
1000
0100
0010
0001
1000
0000
0010
0000
0101
0000
0000
0000
,  // measure 86
0001
0000
1000
0000
0100
0010
1100
0000
,  // measure 87
0010
0000
0100
0000
0001
0010
0110
0000
,  // measure 88
1000
2000
3100
0020
,  // measure 89
0031
0000
1000
0000
0100
0100
1001
0000
,  // measure 90
0010
0000
0010
0000
0100
0010
0101
0000
,  // measure 91
0010
0000
1000
0000
0100
1000
1100
0000
,  // measure 92
0000
0002
0013
0200
,  // measure 93
1300
0000
0001
0000
2000
0000
0100
3000
,  // measure 94
0020
0000
0001
0030
2000
0000
3000
0000
,  // measure 95
0010
0000
0100
0000
0002
0000
1000
0003
,  // measure 96
0020
0000
1000
0030
0200
0000
1000
0300
,  // measure 97
0000
0020
0130
0020
,  // measure 98
0130
0020
0031
0200
,  // measure 99
0310
1001
1001
0000
,  // measure 100
1010
0110
1001
0110
,  // measure 101
1000
0010
0100
0001
1000
0010
0100
0001
1000
0000
0010
0000
0100
0000
0000
0000
,  // measure 102
1001
0100
1010
0010
,  // measure 103
0110
1001
1100
0110
,  // measure 104
0000
0001
2000
0000
,  // measure 105
0020
3000
0230
0300
,  // measure 106
0001
0000
0002
0000
0000
0003
1000
0000
,  // measure 107
0100
0010
0011
0000
,  // measure 108
0001
1000
1010
0110
,  // measure 109
1001
0100
1001
0100
1000
0010
0100
0001
,  // measure 110
1000
0100
0001
0100
,  // measure 111
1000
0100
0001
0012
,  // measure 112
0000
0003
1000
0000
0020
0000
0000
0000
,  // measure 113
0030
1100
0110
1100
,  // measure 114
1010
0000
0110
0000
0202
0000
0000
0003
,  // measure 115
0300
1100
1010
0110
,  // measure 116
1001
1100
0110
1100
,  // measure 117
0210
0000
0001
0300
0110
0000
1001
0000
,  // measure 118
1100
1010
0101
1001
,  // measure 119
1000
0010
0100
0001
0010
0001
1000
0100
1000
0000
0000
0000
0010
0000
0000
0000
,  // measure 120
0100
0001
1000
0100
0010
0001
1000
0000
,  // measure 121
0010
0100
0001
1000
,  // measure 122
0100
0010
0100
1000
0200
0000
0000
0300
,  // measure 123
2000
0000
3000
0000
2002
0000
0003
3000
,  // measure 124
0000
0000
0000
0000
0000
0000
0000
0000
1001
0000
0000
0100
0010
0100
0010
0100
,  // measure 125
0001
0000
1000
0000
1000
0000
0001
0000
1000
0000
0000
1001
0000
0000
0010
0000
,  // measure 126
0010
0000
0100
0000
0001
0010
0100
0000
1001
0000
0000
0100
0001
0010
0001
0010
,  // measure 127
0100
0010
0100
1000
0100
1000
0100
0000
0010
0000
0001
0000
1000
0000
0001
0000
,  // measure 128
1001
0000
0000
0000
1000
0000
0000
0020
0000
0000
0000
0000
0030
0000
0000
0000
,  // measure 129
1000
0000
0010
0100
0010
0000
1000
0000
,  // measure 130
0001
1000
0000
1100
0000
0001
0010
0100
,  // measure 131
1000
0001
0000
0101
0000
1000
0100
0010
,  // measure 132
0001
0000
0001
1000
0010
0100
0001
1000
,  // measure 133
0000
0100
1000
0010
0000
0100
0001
1000
,  // measure 134
0000
0000
0100
0000
0010
0000
0001
0000
0000
0000
1000
0000
0000
0000
0001
0010
,  // measure 135
0100
1000
1000
0010
0010
1000
1000
0010
,  // measure 136
1000
0010
0100
0001
0010
0100
1000
0000
,  // measure 137
0000
1000
0100
0010
0000
0001
0010
0001
,  // measure 138
0000
0000
0001
0000
0100
0000
0001
0000
0000
0000
0100
0000
0000
0000
0001
0010
,  // measure 139
0100
0000
0000
1000
1000
0100
1000
0010
,  // measure 140
0000
0000
0010
1010
0000
0100
0110
0000
,  // measure 141
0000
0000
0001
1000
0000
0100
1000
0010
,  // measure 142
0100
0010
0100
0001
0010
0001
0010
0000
,  // measure 143
0000
0010
0001
0100
0001
1000
0010
1000
,  // measure 144
0100
0010
0001
1000
0100
0010
0001
0000
,  // measure 145
1000
0000
0010
0100
0000
0010
0100
0001
,  // measure 146
1000
0100
0010
0001
0000
0011
0000
0000
,  // measure 147
0000
0000
2000
0000
0010
0000
0001
3000
,  // measure 148
0002
0000
0100
0000
1000
0003
0100
0000
,  // measure 149
2000
0000
0000
0000
3020
0000
0000
0030
,  // measure 150
0200
0000
0000
0300
0002
0000
0003
0000
,  // measure 151
1000
0100
1000
0010
0100
0000
0010
0100
,  // measure 152
0001
0000
0100
0000
0001
0010
0001
0100
,  // measure 153
0010
0000
1000
0000
1100
0000
0100
0010
,  // measure 154
0001
0000
0011
0000
0001
1000
0100
0000
,  // measure 155
1000
0100
1000
0010
0100
0001
0010
0001
,  // measure 156
1001
1001
0110
0110
0000
0000
2002
0000
,  // measure 157
0000
3003
0000
0001
0010
1000
0010
0001
,  // measure 158
1000
0010
0001
0010
1000
0100
0010
0001
,  // measure 159
1000
1100
0000
0110
0000
0010
0100
1000
,  // measure 160
0100
1000
1000
0100
0100
1000
1000
0000
,  // measure 161
2020
0000
0000
3030
0010
0000
0100
0000
,  // measure 162
0011
0000
0000
1000
0000
0100
1000
0000
,  // measure 163
1100
0000
0010
0100
0000
0001
0100
0010
,  // measure 164
1000
0100
0100
1000
0010
0100
0001
1000
,  // measure 165
0202
0000
0000
0303
0000
0010
0100
1000
,  // measure 166
0100
0010
1000
0100
0001
0100
0010
0001
,  // measure 167
1000
0100
0001
0100
1000
0001
1000
0100
,  // measure 168
0010
0001
1001
0000
0000
0001
1000
0000
,  // measure 169
0010
0100
0000
0001
2000
0000
0010
0000
,  // measure 170
0001
3000
0002
0000
0100
0003
1000
0000
,  // measure 171
0001
0000
1000
0100
1000
0010
1000
0100
,  // measure 172
0010
0100
1000
0010
1000
0100
0010
0000
,  // measure 173
0100
0200
0000
0020
0000
0000
0000
0000
,  // measure 174
0000
0330
0001
0000
1000
0000
0010
0100
,  // measure 175
0001
0000
0000
0000
1000
0001
1000
0001
0100
0010
0100
0001
0010
0001
0010
0001
,  // measure 176
0010
0000
1001
0000
2002
3003
0000
0000
0001
0000
0100
0000
0010
0000
0000
0000
,  // measure 177
0100
0000
0001
1000
0000
1100
0000
0100
,  // measure 178
1000
0010
0100
0001
0000
1001
0000
1000
,  // measure 179
0100
0010
0001
0000
1000
0010
0100
0001
,  // measure 180
1000
0002
0000
0003
,  // measure 181
0000
0000
0000
0000
0000
2000
0000
0000
0000
0000
0000
0000
0000
0000
0000
0000
,  // measure 182
0000
0000
0000
0000
0000
0000
0000
0000
3000
0000
0000
0000
0000
0000
0000
0000
0000
0000
0000
0000
0000
0000
0000
0000
0000
0000
0000
0000
0000
0000
0000
0000
0000
0000
0000
0000
0000
0000
0000
0000
0000
0000
0000
0000
0000
0000
0000
0000
0000
0000
0000
0000
0000
0000
0002
0000
0000
0000
0000
0000
0000
0000
0000
0000
0000
0000
0000
0000
0000
0000
0000
0000
0000
0000
0000
0000
0000
0000
0000
0000
0000
0000
0000
0000
0000
0000
0000
0000
0000
0000
0000
0000
0000
0000
0000
0000
0000
0000
0000
0000
0000
0000
0000
0000
0000
0000
0000
0000
0000
0000
0000
0000
0000
0000
0000
0000
0000
0000
0000
0000
0000
0000
0000
0000
0000
0000
0000
0000
0000
0000
0000
0000
0000
0000
0000
0000
0000
0000
0000
0000
0000
0000
0000
0000
0000
0000
0000
0000
0000
0000
0000
0000
0000
0000
0000
0000
0000
0000
0000
0000
0000
0000
0000
0000
0000
0000
0000
0000
0000
0000
0000
0000
0000
0000
0000
0000
0000
0000
0000
0000
0000
0000
0000
0000
0000
0000
0000
0000
0000
0000
0000
0000
,  // measure 183
0000
0003
0000
0000
0000
0000
0000
0000
0000
2000
0000
0000
0000
0000
0000
0000
0000
0000
0000
0000
0000
0000
0000
0000
0000
0000
0000
3000
0000
0000
0000
0000
,  // measure 184
0000
0000
0000
0000
0000
0000
0000
0000
0000
0020
0000
0000
0000
0000
0000
0000
0000
0000
0000
0000
0000
0000
0000
0000
0000
0000
0000
0030
0000
0000
0000
0000
,  // measure 185
0000
0000
0000
0000
0000
0000
0000
0000
0000
0200
0000
0000
0000
0000
0000
0000
0000
0000
0000
0000
0000
0000
0000
0000
0000
0000
0000
0300
0000
0000
0000
0000
,  // measure 186
0000
0000
0000
0000
0020
0000
0000
0000
0000
0000
0000
0000
0000
0000
0000
0030
,  // measure 187
0000
0000
1000
0000
0001
0100
0000
0100
,  // measure 188
0000
2002
3003
0000
0001
0000
1000
0100
,  // measure 189
1000
0010
0100
0000
0001
0110
0000
0101
,  // measure 190
0000
1001
0000
1000
0100
1000
0010
0100
,  // measure 191
0001
0000
1000
0000
0001
0010
0100
0000
1000
0000
0100
0010
0001
0000
0001
0000
,  // measure 192
1000
0100
0010
0000
1001
0000
0000
0000
0000
0000
1001
0000
0000
0000
1000
0000
,  // measure 193
0010
0100
0010
1001
0000
0011
0000
0000
,  // measure 194
0000
1000
0001
1000
0000
0001
0000
0100
,  // measure 195
0000
0010
0000
1000
0010
0100
0001
0000
,  // measure 196
0000
0000
1100
0000
0000
1001
0000
0010
,  // measure 197
0100
0001
0010
0001
0000
0101
0000
0000
,  // measure 198
0000
0000
1000
0000
0100
0000
0010
0000
0000
0000
0000
1001
0000
0000
0000
1000
0000
0000
0000
0000
0001
0000
0000
0000
0000
0000
0000
0000
0010
0000
0000
0000
,  // measure 199
0000
1000
0000
0010
0100
0010
0100
0000
,  // measure 200
0000
0000
0000
0000
0000
0000
0001
0000
1000
0000
0000
0010
0000
0000
0100
0000
,  // measure 201
0001
0000
0000
0000
1000
0000
0100
0000
0001
0000
0100
0000
0000
1000
0000
0000
,  // measure 202
0001
0000
0100
1000
0010
0100
0001
0100
,  // measure 203
1000
0000
0000
0000
1000
0100
0000
1000
,  // measure 204
0000
0000
0010
0000
0000
0000
0100
0000
0001
0000
0000
0010
0000
0000
0100
0000
,  // measure 205
1000
0000
0001
0010
0001
0100
0000
0000
,  // measure 206
0010
0000
1000
0000
0100
0010
0000
0001
,  // measure 207
1000
0010
0000
0000
0100
0001
0000
1000
,  // measure 208
0100
0000
0000
0000
0001
0010
0100
0000
1000
0000
0100
0000
0010
0000
0001
0000
,  // measure 209
0100
0000
0001
0000
0000
0000
0001
1000
0001
0000
0000
0010
0000
0000
0100
0000
,  // measure 210
1000
0000
0001
0000
0000
0001
1000
0001
1000
0000
0000
0001
0000
0000
1000
0000
,  // measure 211
0100
0010
0100
0000
0001
0101
0000
0001
,  // measure 212
1001
0100
1000
0100
1000
0010
0100
0001
,  // measure 213
0100
0000
0001
0000
0000
0001
1000
0000
0100
0000
1000
0000
0010
0000
0100
0000
,  // measure 214
0001
0000
0100
0000
0000
0001
0010
0000
0100
0000
1000
0000
0010
0000
0100
0000
,  // measure 215
0001
0000
0010
0000
0100
0000
0000
0000
1000
0000
1001
0000
0000
0000
1000
0100
,  // measure 216
1000
0010
1000
0100
1000
0000
0001
0000
0010
0000
0100
0000
0000
0000
1000
0000
,  // measure 217
0000
0001
1000
0100
0000
1100
0000
0110
,  // measure 218
0000
0000
0001
0010
0100
0000
1000
0000
0010
0000
0001
0000
0010
0000
1000
0000
,  // measure 219
0100
0010
0100
0010
0000
1001
0000
0101
,  // measure 220
0000
0010
0001
0010
1000
0100
0000
0001
,  // measure 221
0000
0000
0100
0000
1000
0000
0100
0000
0010
0000
0000
0100
0000
0000
0002
0000
,  // measure 222
0000
0000
0000
0000
0000
0000
0003
1000
0000
0000
0000
0100
0000
0000
0000
0010
0000
0000
0000
0000
0000
0000
0000
0000
0001
0000
0000
0000
1000
0000
0000
0000
,  // measure 223
0100
0000
0000
0000
0010
0001
1000
0100
0010
0000
0001
1000
0001
0000
1000
0000
,  // measure 224
0100
1000
0100
1000
0001
0000
0000
0000
0001
0000
1001
0000
0000
0000
0010
0000
,  // measure 225
0000
0100
0010
0001
1000
0101
0000
0101
,  // measure 226
0000
0000
1000
0100
0010
0000
0001
0000
1000
0000
0010
0000
0100
0000
0010
0000
,  // measure 227
0100
0000
1100
0000
0001
0011
0000
1001
,  // measure 228
0000
0010
1000
0000
0001
0100
0000
0010
,  // measure 229
0000
0000
0000
0000
1000
0000
0100
0010
0000
0001
0010
0001
0010
0000
0100
0000
,  // measure 230
1100
2002
0000
0000
,  // measure 231
3003
2000
0000
0000
,  // measure 232
3000
0020
0000
0000
,  // measure 233
0030
0000
0200
0000
0000
0000
0000
0300
,  // measure 234
0000
0000
0000
0000
1000
0000
0000
0001
0000
0000
2000
0000
0000
0000
0000
0000
,  // measure 235
3000
0000
0000
0000
1001
0000
0000
0110
0000
0000
0110
0000
0000
0011
0000
0000
,  // measure 236
0101
0000
0000
0000
0011
0000
0000
1100
0000
0000
0110
0000
0000
0011
0000
0000
,  // measure 237
1100
0000
0000
0000
1010
0000
0000
0011
0000
0000
0110
0000
0000
1100
0000
0000
,  // measure 238
1100
0000
0000
0000
0011
0000
0000
0110
0000
0000
1100
0000
0000
0101
0000
0000
,  // measure 239
2001
0000
0000
0000
0001
0000
0000
0001
0000
0000
0001
0000
0000
0000
3001
0000
,  // measure 240
0001
0010
2200
0300
3000
0010
0202
0003
,  // measure 241
0300
0001
1010
0000
0110
0000
0011
0000
,  // measure 242
0000
0001
1000
0010
0100
0001
1000
1100
,  // measure 243
0110
0000
0000
0000
0001
0010
0100
1000
0001
0010
0200
0000
0000
0000
0000
0000
,  // measure 244
0300
0000
1000
0000
0001
0010
0001
0100
0001
0010
0001
0100
0001
0010
0100
1000
,  // measure 245
0001
0010
0100
1000
0001
0010
0001
0100
0001
0010
0100
1000
0001
0010
0001
0100
,  // measure 246
0010
0000
0000
1000
0000
0000
0100
0000
0000
1000
0000
0000
0001
0000
0000
0000
0010
0000
0000
0000
0100
0000
0000
0000
1000
0000
0000
0000
0000
0000
0000
0000
0000
0000
0000
0000
0001
0000
0000
0010
0000
0000
0100
0000
0000
2000
0000
0000
,  // measure 247
0000
3000
0000
0000
1001
0000
0000
1001
0000
0000
1001
0000
0000
0110
0000
0000
,  // measure 248
0110
0000
0002
0000
0000
2003
0000
3000
,  // measure 249
0010
0100
0002
0000
0000
2000
0003
3000
,  // measure 250
1000
0000
0100
0010
0001
0000
0010
0000
0001
0000
0010
0000
0100
0000
1000
0000
,  // measure 251
0100
1000
1010
0000
0110
0000
0101
0000
,  // measure 252
0022
0033
1001
0000
0000
0101
0010
0101
,  // measure 253
0100
1010
0100
0101
0010
1001
0200
0000
,  // measure 254
0000
0300
2000
0000
3100
0000
0010
0101
,  // measure 255
1000
0011
0100
1010
0100
1001
0010
0101
,  // measure 256
1000
0000
0022
0000
0033
0001
1000
1100
,  // measure 257
0000
0000
1000
0100
0010
0000
0001
0000
0010
0000
0100
0000
1000
0000
0000
0100
,  // measure 258
0000
0000
1001
0000
1001
0000
0000
1001
0000
0000
2002
0000
0000
0000
3003
0000
,  // measure 259
0000
0000
0000
0000
1000
0001
0000
0010
0100
0000
1000
0010
0100
0001
1000
0001
,  // measure 260
1000
0000
0000
0000
1000
0000
0100
0010
0001
0000
0010
0000
0101
0000
1000
0000
,  // measure 261
0101
0000
0001
0000
0100
0010
1000
0000
1100
0000
0110
0000
0110
0000
0001
0000
,  // measure 262
1000
0010
0101
0001
1001
0001
1001
0010
,  // measure 263
1000
0000
0001
0000
1001
0000
1100
0000
0110
0000
0011
0000
1000
0010
0100
0001
,  // measure 264
0010
0100
1000
0010
0200
0000
0000
0000
0300
0000
0001
0000
1000
0000
1100
0000
,  // measure 265
0000
0000
1000
0100
0010
0000
0001
0000
1000
0000
0010
0000
0101
0000
0000
0110
,  // measure 266
0000
0000
1010
0000
1010
0000
0000
0011
0000
0000
0202
0000
0000
0000
0000
0000
,  // measure 267
0003
0300
0000
1001
0100
1001
0010
0000
,  // measure 268
0100
0000
0000
0000
1000
0100
0010
0001
1000
0100
1000
0010
0100
0001
0010
0001
,  // measure 269
1000
0100
0010
0001
1000
0100
1000
0010
0100
0001
0010
0001
1000
0100
0010
0001
,  // measure 270
1000
0100
1000
0010
0100
0001
0010
0001
1000
0100
0010
0001
1000
0100
0010
0001
,  // measure 271
1000
0100
0010
0001
1000
0000
0010
0100
0001
0000
0101
0000
0011
0000
0000
0000
,  // measure 272
0100
0000
0000
0000
1000
0100
1000
0010
1000
0001
1000
0001
1000
0010
1000
0100
,  // measure 273
1000
0100
1000
0010
1000
0010
1000
0001
1000
0001
1000
0010
1000
0010
1000
0100
,  // measure 274
0010
0001
0010
0001
0100
0010
0100
0010
1000
0100
1000
0100
1000
0010
0100
0010
,  // measure 275
1000
0100
0010
0001
0010
0001
0100
0010
1000
0100
1000
0010
0100
0001
0010
0100
,  // measure 276
1000
0100
0010
0001
1000
0100
0000
0011
0000
0000
1000
0100
0000
1100
0000
0000
,  // measure 277
1000
0001
0000
2002
0000
0000
0000
0000
3003
0000
0000
0000
2002
0000
0000
0000
,  // measure 278
3003
0000
0000
0000
;

//---------------dance-single - ----------------
#NOTES:
     dance-single:
     :
     Easy:
     6:
     0.284733,0.606708,0.250289,0.358212,0.005741,868.000000,759.000000,109.000000,156.000000,0.000000,0.000000,0.284733,0.606708,0.250289,0.358212,0.005741,868.000000,759.000000,109.000000,156.000000,0.000000,0.000000:
0000
0000
0000
0000
,
0000
0000
0000
0000
,
0000
0000
0000
0000
,
0000
0000
0000
0000
,
0000
0000
2000
0000
,
0000
3000
0000
0000
0002
0000
0000
0000
,
0000
0003
2000
0000
,
0000
0000
0000
3000
0000
0000
0000
0000
,
0000
0000
0000
0000
1000
0000
0000
0100
,
0000
1000
0000
0100
0000
0000
0000
0000
,
1001
0000
0000
0000
0001
0000
0000
0010
,
0000
0001
0000
0010
0000
0000
0000
0000
,
0110
0000
1001
0000
1001
0000
0000
0020
,
0000
0000
0000
0000
,
0000
0030
0000
0000
0000
0000
0000
0000
,
2000
3000
0020
0030
,
0200
0000
0300
0000
0010
0000
0000
0010
,
0000
0010
0000
0010
0000
0000
0000
0000
,
1000
0000
0000
0000
0001
0000
0000
0100
,
0000
0010
0000
0100
0000
0000
0010
0000
,
0100
0000
0010
0000
0100
0000
0000
0200
,
0000
0000
0000
0000
,
0300
0000
0000
0000
0020
0000
0000
0030
,
1000
0000
0001
0000
,
0200
0000
0300
0000
0002
0003
0000
1000
,
0001
0000
0000
1000
0000
0000
0000
0000
0010
0000
0000
0000
0000
0000
0000
0000
,
0020
0000
0030
0000
1000
0000
0000
0010
,
0000
0010
0000
0010
0000
0000
0000
0000
,
0100
0000
0000
0000
0010
0000
0000
1000
,
0000
1000
0000
2000
0000
3000
0000
0000
,
0001
0000
0200
0000
,
0300
0010
2000
0000
,
3000
0000
0100
0000
2000
0000
0000
3000
,
0010
0000
0000
0200
0000
0000
0000
0300
,
0000
0000
0000
0001
0000
1000
0000
0100
,
0000
0010
0000
0001
0000
0000
0000
0000
,
1001
0000
0110
0000
,
1001
0000
0000
0000
0110
0000
0000
1001
,
0000
1001
0000
1001
0000
0000
0000
0000
,
0010
0100
0002
0000
,
0003
1000
0200
0300
,
1000
0000
0000
0020
0000
0000
0000
0030
,
0000
0000
0100
0000
0000
0010
0000
1000
,
0000
0010
0000
1000
0000
0000
0000
0000
,
1001
0000
0110
0000
,
1001
0000
0000
0000
1000
0000
0000
0001
,
0000
0001
0000
0001
0000
0000
0000
0000
,
1000
0000
0000
0200
0000
0000
0300
0000
,
0000
0010
0001
1000
,
0010
0000
0000
0200
0000
0000
0000
0000
,
0000
0000
0000
0300
0000
0000
0000
0000
,
0010
1000
0010
0100
,
0010
0000
0000
0100
0000
0000
0000
1001
,
0000
0000
0000
0000
1001
0000
0000
0110
,
0000
0000
1001
0000
0000
1000
0000
0000
,
0010
0100
0000
0001
,
1000
1000
0000
0001
0000
1000
0000
0001
,
0000
0100
0000
0020
0030
0000
0100
0000
,
0001
0001
0000
0010
0000
0100
0000
1000
,
0000
0010
0000
0200
0000
0000
0000
0000
,
0000
0000
0000
0000
0010
0000
0010
0300
,
0020
0030
1000
0001
,
0100
0010
1000
0100
,
1000
0010
0100
0001
,
1000
0100
1000
0010
,
0100
0001
1000
0100
,
1000
0010
1000
0010
,
0100
0010
0100
0001
,
0010
0001
2002
3003
,
0220
0000
0000
0330
0000
0000
0001
0000
,
1000
0100
1000
0010
,
0100
0010
0000
1000
,
0001
0100
0001
1000
,
0010
1000
0000
0010
,
0100
0010
0100
0001
,
0100
0001
0000
1000
,
0100
1000
0020
0030
,
0200
0000
0000
0300
0000
0000
0010
0000
,
1000
0100
0010
0001
,
1000
0020
0030
0100
,
0010
1000
0010
0100
,
0001
0000
0010
0001
0000
0000
1000
0000
,
0010
0100
0010
0100
,
0001
2000
3000
0001
,
0100
0010
0200
0300
,
0010
1000
0010
0100
,
0000
0001
1000
0001
,
0000
0100
0010
0100
,
0000
0001
1000
0001
,
1000
0000
0010
0100
,
0000
0001
1000
0001
,
0000
0100
0010
0100
,
0000
0001
1000
0001
,
1000
0001
0100
0010
,
1000
0000
0100
0000
2000
0000
0000
3000
,
0010
0000
0100
0001
,
1000
0100
1000
1000
,
0000
0010
0100
0010
,
0100
0001
0100
0001
,
0010
0001
0010
0000
,
0001
0010
0100
1000
,
0010
0100
1001
0110
,
1001
0100
1000
0010
,
0100
0010
1100
1001
,
0000
0000
1000
0000
0020
0030
0000
0000
,
0200
0300
0000
0000
0002
0000
0003
0000
,
1000
0000
0002
0000
0000
0003
0100
0000
,
0010
1000
0100
0000
,
1100
1100
1010
1010
,
0110
0000
1000
0001
,
0100
0010
0100
0001
,
1000
0100
1100
1010
,
0000
0000
0110
0000
0202
0000
0000
0303
,
0000
1000
0100
1000
,
0010
0000
0100
0000
0020
0000
0000
0030
,
0000
0001
0010
0001
,
0100
0010
0100
0001
,
0020
0030
0001
1000
,
0100
0010
0002
0000
,
2000
3003
1000
0010
,
0100
0001
1000
1001
,
0110
1001
1000
0100
,
0010
0000
0001
0000
2000
0000
0000
3000
,
0020
0000
0000
0030
0200
0000
0000
0300
,
0000
0000
0000
0000
0001
0000
1000
0010
,
0100
0000
0001
0000
1000
0000
0100
0000
1000
0000
0000
1000
0000
0000
0000
0000
,
0010
0000
0000
0000
0010
0000
0010
0000
0200
0300
0000
0000
0010
0000
1000
0000
,
0001
0100
0010
0100
0001
0001
1000
0001
,
2000
3000
0010
0000
0020
0000
0030
0000
,
2000
3000
0010
0000
0100
0000
0001
0000
,
0100
0000
0000
0010
0000
0000
1000
0000
,
0001
0000
0000
0100
0000
0000
0010
0000
,
1000
0000
0001
0100
,
0000
0000
0000
1001
0000
0000
0000
0110
,
0000
0000
0000
0101
0000
0011
0000
0000
,
0001
1000
0010
0100
,
0001
1000
0100
1000
,
0000
0000
0000
0110
0000
0000
0000
1001
,
0000
0000
0000
1100
0000
1100
0000
0000
,
0010
0000
0100
0100
,
0000
0000
0001
0001
0000
0001
0001
0000
,
0000
1000
0010
0100
,
0001
1000
0100
1000
,
0000
0010
0100
0010
,
0100
0001
0010
0001
,
0000
1000
0100
1000
,
0010
0000
0000
0100
0000
0200
0000
0300
,
0000
0000
0002
0003
0020
0030
0200
0300
,
2000
3000
0020
0030
2002
3003
0220
0330
,
2002
0000
0000
0000
,
0000
0003
3000
0000
0000
0000
0000
0000
,
2000
0000
0001
3000
,
0020
0000
0000
0000
0100
0030
0000
0000
,
0200
0000
0310
0000
,
2000
0000
3001
0000
,
1000
0010
0100
0001
,
1000
0001
1000
0002
0003
0000
2000
0000
,
0000
3000
0000
0000
0010
0000
0100
0000
,
0001
1000
0100
1000
,
0001
0000
0000
0100
0000
0000
0010
0000
,
0010
1000
1000
0001
,
2002
0000
0000
3003
0000
0000
0000
0000
,
0220
0000
0330
0000
,
0022
0000
0033
0000
,
2002
0000
0000
0000
0000
3003
0000
0000
,
2002
0000
0000
3003
0000
0000
1000
0000
,
0010
0100
0001
1000
,
0100
1010
0110
1001
,
0110
1001
0000
1000
,
0000
0200
0000
0020
0000
0000
0000
0000
,
0330
0001
1000
0010
,
0100
0001
0001
0010
,
0100
1000
0100
0010
,
1001
2000
0000
0000
0000
0000
0000
0000
,
3000
2000
0000
3000
,
0010
0000
0200
0000
0000
0000
0000
0300
,
0000
1001
0010
0100
,
0001
0000
0100
0000
0000
0010
0000
0000
,
1000
0000
0001
0000
0000
0100
0000
0000
,
0010
0100
0000
0001
,
0000
2000
0000
0000
,
0000
0000
0000
0000
,
0000
0000
0000
0000
,
0000
0000
0000
0000
,
0000
0000
0000
0000
,
0000
0000
0000
0000
,
0000
0000
0000
0000
0000
3000
0000
0000
,
0000
2002
0000
3003
,
0000
0220
0000
0000
0000
0000
0330
0000
,
0000
0022
0000
0033
,
0000
2200
0000
0000
0000
0000
0000
3300
,
0000
0000
0010
0000
0100
0000
0001
0100
,
0010
0100
0001
0000
0000
0001
0000
0000
,
0000
0000
1000
0000
0000
1000
0000
0000
,
0000
0000
0010
0000
0000
0010
0000
0000
,
0000
0000
0100
0000
0000
0100
0000
0000
,
0000
0000
0010
0000
0000
0010
0000
0000
,
0000
0000
1000
0000
0000
1000
0000
0000
,
0000
0000
0010
0000
0000
0010
0000
0000
,
0000
0000
0100
0000
0000
0100
0000
0000
,
0000
0000
0010
0000
0000
0010
0000
0000
,
0000
0000
0100
0000
0000
0100
0000
0000
,
0000
0000
0010
0000
0000
0010
0000
0000
,
0000
0000
1000
0000
0000
1000
0000
0000
,
0000
0000
0001
0000
0000
0001
0000
0000
,
0000
0000
0100
0000
0000
0100
0000
0000
,
0000
0000
0010
0000
0000
0010
0000
0000
,
0000
0000
1000
0000
0000
1000
0000
0000
,
0000
1000
0010
0100
,
0010
0000
1000
0001
,
0200
0300
0000
0000
0010
0000
1000
0000
,
0010
0000
0100
0000
0000
0001
0000
0000
,
0001
0001
0000
0000
1000
0000
0010
0000
,
0200
0300
0000
0000
0010
0000
1000
0000
,
0001
0000
0000
0100
0000
0000
0010
0000
,
1000
0000
0001
0000
0000
0100
0000
0000
,
0010
0000
1000
0000
0000
0010
0000
0010
,
0000
0000
0100
0000
0000
0001
0000
0001
,
0000
1000
0100
1000
,
0010
0000
0100
0000
0000
0001
0000
1000
,
0000
0000
0001
0000
0000
0100
0000
0010
,
0000
0000
2000
0000
0000
3000
0002
0000
,
0003
0200
0000
0300
,
0000
0000
1001
0000
0000
0220
0000
0330
,
0000
2002
0000
3003
,
0000
2200
0000
3300
,
0000
1001
0010
0100
,
0001
0000
2000
0000
0000
0020
3000
0030
,
0000
0100
0000
0002
,
0003
1000
0010
0100
,
0001
2000
0000
0000
,
0000
0000
0000
0000
,
0000
0000
0000
0000
0000
0000
0000
3000
,
0000
0020
0000
0000
,
0000
0030
0000
0000
0000
0000
0000
0000
,
0000
2020
0000
0000
,
0000
0000
0000
0000
,
0000
0000
0000
0000
,
0000
0000
0000
0000
0000
0000
0000
3030
,
0000
0000
0000
0000
,
0000
1000
2000
0000
3000
0010
0020
0000
,
0030
0100
0100
0000
0010
0000
1000
0000
,
0000
0000
0001
0000
0100
0000
0010
0100
,
0001
0000
1000
0001
1000
0002
0000
0003
,
0000
0001
0001
0100
0001
1000
0010
0100
,
0001
1000
0100
0000
1000
0000
0020
0000
,
0030
0000
0200
0000
0000
0300
0020
0000
,
0030
2002
0000
0000
,
3003
0000
2002
0000
3003
1001
0000
0000
,
0110
0110
2002
0000
3003
1001
0000
0000
,
1000
0000
0001
1000
0010
1000
0010
0100
,
0010
0100
1001
0000
0110
0000
1001
0000
,
0220
0330
2002
3003
0000
0010
0100
0001
,
0010
0001
0100
0010
0100
0001
0020
0000
,
0030
0000
0001
0000
1000
0000
0100
1000
,
0010
1000
0010
0100
0001
0010
0001
0010
,
0002
0000
2003
0000
3000
0010
0010
0010
,
0000
0100
0010
1000
,
0010
0000
0200
0000
0300
0200
0000
0300
,
0000
2002
0000
3003
,
0110
0000
0002
0000
0003
1000
0001
0100
,
0010
1000
0010
0100
0001
1000
0020
0000
,
0030
1000
0001
0200
,
0300
0010
0100
0001
0010
0001
0010
0000
,
1001
0000
2100
3000
0000
1000
0100
1000
,
0000
0010
0100
0001
,
0000
0000
1000
0000
0000
0020
0000
0000
,
0030
0000
1001
0110
,
1001
2200
0000
3300
,
0110
0000
0022
0000
0000
0000
0000
0033
,
0110
2200
0000
3300
,
0110
0000
0010
0001
0010
0001
0010
0000
,
0011
0000
0022
0000
0000
0000
0000
0033
,
0000
0220
0000
0000
,
0330
2200
0000
0000
,
3300
1010
0110
1001
,
1001
0000
0000
0000
1000
0000
0000
1001
0000
0000
1001
0000
0000
1001
0000
0000
,
1001
0000
0000
2002
0000
0000
0000
0000
3003
0000
0000
0000
2002
0000
0000
0000
,
0000
3003
0000
0000
0000
0000
0000
0000
;

//---------------dance-single - ----------------
#NOTES:
     dance-single:
     :
     Medium:
     10:
     0.412666,0.734271,0.358212,0.466135,0.071183,1258.000000,1102.000000,156.000000,203.000000,0.000000,0.000000,0.412666,0.734271,0.358212,0.466135,0.071183,1258.000000,1102.000000,156.000000,203.000000,0.000000,0.000000:
0000
0000
0000
0000
,
0000
0000
0000
0000
,
0000
0000
0000
0000
,
0000
0000
0000
0000
,
0000
0000
2000
0000
,
0000
3000
0000
0000
0002
0000
0000
0000
,
0000
0003
2000
0000
,
0000
0000
0000
3000
0000
0000
0000
0000
,
0000
0000
0000
0000
1000
0100
0000
0010
,
0000
0001
0000
1000
0000
0000
0000
0000
,
1001
0000
1001
0000
1000
0010
0000
0100
,
0000
0001
0000
0010
0000
0000
0000
0000
,
0110
0000
1001
0000
1001
0000
0000
0020
,
0000
0030
0000
0000
0200
0000
0300
0000
,
0002
0000
0000
0003
2002
0000
0000
3003
,
2000
3000
0020
0030
,
1000
0001
1000
0000
0001
0000
0000
1001
,
0000
0110
0000
1001
0000
0000
0000
0000
,
1100
0000
0110
0000
2002
3003
0000
0110
,
0000
0010
0000
0100
0000
0000
0010
0000
,
0100
0000
0010
0000
1001
0000
1000
0001
,
1000
0001
0100
0001
1000
0001
0100
0001
,
1000
0001
0100
0000
0020
0000
0000
0030
,
1000
0000
0001
0000
,
0200
0000
0300
0000
0002
0003
0000
1000
,
0001
0000
0000
1000
0000
0000
0010
0000
0010
0000
0000
0010
0000
0000
0000
0000
,
0020
0000
0000
2000
3030
0000
0000
0000
1000
0000
0001
0000
0000
0000
1100
0000
,
0000
0110
0000
1100
0000
0000
0000
0000
,
0100
0000
0010
0000
0001
1000
0000
1001
,
0000
1010
0000
2100
0000
3000
0000
0000
,
0001
0000
0000
0000
0000
0000
0000
0000
0210
0000
0000
0010
0000
0000
0010
0000
,
0300
0000
0000
0000
0001
1000
0001
0000
2100
0000
0000
0000
0000
0000
0000
0000
,
3000
0000
0101
0000
2001
0000
0000
3000
,
0010
0000
0000
0200
0000
0000
0000
0300
,
0000
0000
1000
0001
0000
1000
0000
0100
,
0000
0010
0000
0001
0000
0000
0000
1001
,
1001
0000
0000
0110
0110
0000
0000
1001
,
1001
0000
0000
0001
1000
0000
0001
0001
,
0000
0010
0000
0100
0000
0000
0000
0000
,
1000
0100
0010
0000
0002
0000
0000
0000
,
0003
1000
0200
0300
,
1000
0000
0000
0020
0000
0000
0000
0030
,
0000
0000
0100
0010
0000
0010
0000
1000
,
0000
0010
0000
1000
0000
0000
0000
1001
,
1001
0000
0000
0110
0110
0000
0000
1001
,
1001
0000
0000
1000
1000
0000
0000
0011
,
0000
0110
0000
1100
0000
0000
0000
0001
,
1000
0100
1000
0200
0000
0000
0300
0000
,
0000
0110
1001
1010
,
0110
0110
0000
0200
0000
0000
0000
0000
,
0000
0000
0000
0300
0000
0000
0000
0000
,
0010
1000
0010
0100
,
0010
0100
0000
0100
0000
0000
1001
1001
,
0000
0110
0000
0000
1001
0000
0000
0110
,
0000
0000
1001
0000
0000
1000
0100
0010
,
0001
1000
0100
0010
0001
0000
0001
0000
,
1000
1000
0000
0001
0000
1000
0000
0001
,
0000
0100
0000
0020
0030
0000
0100
0000
,
0001
0001
0000
0010
0000
0100
0000
1000
,
0000
0010
0000
0200
0000
0000
0000
0000
,
0000
0000
0000
0000
0010
0000
0010
0300
,
0020
1030
1000
0001
,
0100
0000
0010
0000
1000
0100
0010
0000
,
1001
0010
0100
1000
,
1000
0100
0010
0000
1001
0000
0010
0000
,
0100
0001
1000
0100
,
1000
0010
0100
0000
1001
0000
0010
0000
,
0100
0010
0100
0001
,
0010
0100
1000
0000
2002
0000
3003
0000
,
0220
0000
0000
0330
0000
0000
0001
0000
,
1000
0100
1000
0010
,
0100
0010
0000
1000
,
0001
0100
0001
1000
,
0010
1000
0000
0010
,
0100
0010
0100
0001
,
0100
0001
0000
1000
,
0100
1000
0020
0030
,
0200
0000
0000
0300
0000
0000
0010
0000
,
1000
0100
0010
0001
,
1000
0020
0030
0100
,
0010
1000
0010
0100
,
0001
0000
0010
0001
0000
0000
1000
0000
,
0010
0100
0010
0100
,
0001
2000
3000
0001
,
0100
0010
0200
0300
,
0010
1000
0010
0100
,
0000
0001
1000
0001
,
0000
0100
0010
0100
,
0000
0002
0023
0230
,
2300
3001
0010
0100
,
0000
1000
1000
0001
,
0000
0100
0010
0100
,
0000
0002
0023
0230
,
2300
0000
3002
0003
0200
0300
0020
0030
,
2000
3000
0200
0300
2000
0000
0000
3000
,
0020
0030
0000
0000
0200
0300
0002
0003
,
2000
3000
0200
0300
2000
3000
2000
3000
,
0000
0000
0020
0030
0200
0300
0020
0030
,
0200
0300
0002
0003
0200
0300
0002
0003
,
0020
0030
0002
0003
0020
0030
0000
0000
,
0002
0003
0020
0030
0200
0300
2000
3000
,
0010
0000
0100
0000
1000
0100
0010
0000
,
1001
0110
1001
0010
,
0100
0010
1100
1001
,
0000
0000
1010
0000
0120
0030
0000
0000
,
0200
0300
0000
0000
0002
0000
0003
0000
,
1001
0000
1002
0000
0000
0003
0100
0000
,
0010
1000
0100
0000
,
1100
0110
0011
0110
,
1100
0000
0000
0000
1000
0100
0010
0000
,
1001
0110
0101
1001
,
1001
0110
1100
1010
,
0000
0000
0110
0000
0202
0000
0000
0303
,
0000
1000
0100
1000
,
0010
0000
0100
0000
0020
0000
0000
0030
,
0000
1001
0110
1001
,
0100
0010
0100
0001
,
0020
0030
0011
1100
,
0110
0011
0002
0000
,
2000
3003
1000
0010
,
1000
0100
0010
0001
1000
0001
1000
0000
,
0110
1001
1000
0100
,
0010
0001
1000
0000
2001
0000
0000
3000
,
0020
0000
0000
0030
0200
0000
0000
0300
,
0000
0000
0000
0000
0001
0000
1000
0010
,
0100
0000
0001
0000
1000
0000
0100
0000
1000
0000
0000
1000
0000
0000
0010
0000
,
0010
0000
0010
0000
0010
0000
0010
0000
0200
0300
0000
0000
0010
0000
1000
0000
,
0001
0100
0010
0100
0001
0010
0100
1000
,
2002
0000
3003
0000
0010
0000
0000
0020
0000
0000
0000
0000
0030
0000
0000
0000
,
2000
3000
0010
0100
0001
0000
1001
0000
,
0100
0010
0000
1001
0000
1000
1000
0000
,
0001
0000
0000
0100
0000
0000
0010
0000
,
1000
0000
0010
0100
0001
1000
0100
0010
,
0000
0001
1000
0100
0000
0100
0100
1000
,
0000
0010
0010
0010
0000
1001
0000
1000
,
0001
1000
0010
0100
0001
0010
0001
0000
,
0001
0000
1000
0000
0010
0100
0001
0000
,
0000
1000
0100
1000
0000
0001
0010
0001
,
0000
1000
0100
1000
0000
1001
0000
0010
,
0010
0000
0000
0100
0100
0000
0100
0000
,
0000
0000
0001
0010
0000
0100
1000
0000
,
0000
0000
1000
0001
0000
0000
0100
0000
,
0001
0010
0100
0000
1000
0000
1000
0000
,
0000
0010
0010
0000
0100
0000
0010
0000
,
0100
0000
0001
0010
0100
0000
1000
0000
,
0000
0000
1000
0100
0000
0000
1000
0000
,
0010
0000
0000
0100
0000
0200
0000
0300
,
0000
0000
0002
0003
0020
0030
0200
0300
,
2000
3000
0020
0030
2002
3003
0220
0330
,
2002
0000
0000
0000
,
0000
0003
3000
0000
0000
0000
0000
0000
,
1000
0100
0010
0000
0001
0000
0000
0000
,
0020
0000
0000
0000
0100
0030
0000
0000
,
0200
0000
0310
1000
,
2000
0002
3003
0000
,
1000
0010
0100
0001
0010
0100
1000
0001
,
0010
0001
0100
0020
0030
0000
2000
0000
,
0000
3000
0000
0010
1000
0001
0100
0001
,
1000
0010
0100
0001
0100
0001
1000
0000
,
0001
0001
0000
0100
0000
0000
0010
0100
,
0001
1000
0100
0010
0001
0000
0001
0000
,
2002
0000
0000
3003
0000
0000
0000
0000
,
0220
0000
0330
0000
,
0022
0000
0033
0000
,
1000
1000
0001
0100
0100
0001
0010
0000
,
2002
0000
0000
3003
0000
1000
1000
0010
,
0100
0001
0010
0001
1000
0100
1000
0010
,
0100
0000
0001
0010
0100
1000
0001
0010
,
0100
0010
0001
0000
0000
0000
1000
0000
,
0000
0200
0000
0020
0000
0000
0000
0000
,
0330
0000
0001
0000
1000
0000
0010
0100
,
0001
0010
0001
0100
0001
1000
0010
1000
,
0100
1000
0010
1000
0001
0100
0001
0010
,
0001
2000
0000
0000
0000
0000
0000
0000
,
3000
0000
0220
0000
0000
0330
0000
0000
,
0010
0000
0200
0000
0000
0000
0000
0300
,
0000
0000
1001
0000
0010
0100
0001
0000
,
0001
0000
0100
0100
0000
0010
0000
1000
,
1000
0000
0001
1000
0000
0100
0000
0000
,
0010
0001
1000
0000
0001
1000
0001
0010
,
0100
1000
2000
0000
0000
0000
0000
0000
,
0000
0000
0000
0000
,
0000
0000
0000
0000
,
0000
0000
0000
0000
,
0000
0000
0000
0000
,
0000
0000
0000
0000
,
0000
0000
0000
0000
0000
3000
0000
0000
,
0000
0000
1000
0000
0001
0100
0000
1001
,
0000
0220
0000
0000
0000
0000
0000
0330
,
0000
0000
1000
0000
0010
0100
0000
0001
,
0000
1000
0000
0100
0010
0001
0000
0010
,
0100
0000
1000
0000
0001
0010
0001
0000
1000
0000
0100
1000
0001
0000
0000
0000
,
1001
0000
1000
0000
0000
1000
0000
0000
,
0000
0000
0010
0000
0000
0020
0000
0030
,
0000
0100
0100
0000
0000
0200
0000
0010
,
0300
0010
0000
0010
0010
0000
0020
0000
,
0030
0000
0100
0000
0000
0100
0000
0000
,
0000
0000
0000
0000
0010
0000
0000
0000
0000
0000
0020
0000
0000
0030
0000
0000
,
0000
0000
1001
0000
0000
0010
0000
0010
,
0000
0100
0000
0001
0010
0001
0200
0000
,
0000
0300
0000
0000
0000
0000
0000
0000
0001
0000
0000
0000
0000
0000
0000
0000
,
1000
0000
0010
0000
0000
0010
0000
0000
,
0000
0000
0100
0000
0000
0100
0000
0000
,
0100
0100
0000
0000
0010
0010
0000
1000
,
0000
0000
1001
0000
0000
1001
0000
0000
,
0000
0000
0100
0000
0000
0100
0000
0000
,
0100
0100
0010
0000
0000
0010
0000
0010
,
0010
0010
0000
0000
1000
0100
0000
1000
,
0010
0000
0000
0000
0000
1000
0100
0000
0010
0000
0001
0000
0010
0000
0100
0000
,
1000
0000
0001
0000
0000
0000
0001
0010
0100
0000
1000
0000
0100
0000
0010
0000
,
0001
0000
1000
0000
0000
0000
0000
0000
0010
0000
0000
0000
1000
0000
0001
0010
,
0100
1000
0001
0000
0100
0001
0000
1000
,
0100
0000
1000
0000
0000
0000
0010
1000
0001
0000
1000
0000
0100
0000
0010
0000
,
0001
0000
0001
0000
0000
0000
0010
0001
1000
0000
0100
0000
0010
0000
0100
0000
,
1000
0001
0000
1001
1000
0000
0001
0000
,
0010
0000
0100
0000
1000
0100
0000
0100
,
1000
0100
1000
0000
0000
0010
0000
0010
,
0000
0000
0100
0000
0000
0100
0000
0100
,
0000
0000
0001
0010
0001
0000
0100
0000
0010
0000
1000
0000
0010
0000
0000
0000
,
0000
0010
1000
0100
0000
0010
0000
1001
,
0000
0000
0002
0000
0003
0100
0000
0100
,
0000
0000
0000
0000
0020
0000
0000
0000
0000
0030
0000
0000
2000
0000
0000
0000
,
0000
3000
0002
0000
0000
0000
0003
0000
,
0000
0000
1000
0001
1000
0100
0000
1000
,
0010
0000
0100
0000
0100
0100
0000
0100
,
0000
0001
0100
0010
1000
0100
0000
0010
,
0000
0001
1000
0010
0100
0001
0010
0100
,
1000
0000
0200
0000
0000
0000
0000
0300
,
0000
0000
0010
0000
0010
0020
0030
1001
,
0000
0000
1000
0000
0001
0000
1000
0001
,
0100
0020
0000
0000
,
0000
0000
0030
0000
2000
0000
0000
0000
0000
0000
0000
0000
0000
0000
0000
3000
,
0000
0002
0000
0000
,
0003
0000
0200
0000
0000
0000
0000
0300
,
0000
0000
0000
0000
1001
0000
0000
0110
0000
0000
0220
0000
0000
0000
0000
0000
,
0030
0300
0000
0000
0001
0000
0000
1000
0000
0000
0010
0000
0000
0100
0000
0000
,
0001
0000
0001
0000
1000
0000
0000
0010
0000
0000
0100
0000
0000
0000
0000
0000
,
0010
0000
0000
0000
1000
0000
0000
0100
0000
0000
0010
0000
0000
0000
0000
0000
,
0001
0000
0000
0000
1000
0000
0000
0001
0000
0000
0101
0000
0000
1001
0000
0000
,
0101
0000
0000
0000
1000
0000
0000
0010
0000
0000
0100
0000
0000
0100
0000
0100
,
0000
0000
0001
0000
2000
0000
0000
3000
0000
0000
0010
0000
0200
0000
0000
0300
,
0000
0000
0001
0000
2000
0000
0000
3000
0100
0000
0000
0000
0020
0000
0000
0030
,
0000
0001
0010
0100
0010
0001
1000
0100
,
0010
0000
0000
0000
0010
0100
0010
0100
0010
0100
0020
0000
0000
0000
0000
0030
,
0000
0001
0001
1000
0010
0100
0001
0100
,
0010
1000
0100
0010
0001
1000
0220
0000
,
0000
0000
0000
0330
0000
0000
0000
0000
0000
0000
0000
0000
1000
0000
0000
0000
0100
0000
0000
0000
0010
0000
0000
0000
0001
0000
0000
0000
0000
0000
0000
0000
0000
0000
0000
0000
0001
0000
0000
1000
0000
0000
0001
0000
0000
1000
0000
0000
,
0000
0220
0000
0000
,
0000
0330
0000
0000
1001
0000
0000
0000
1001
0000
0000
0000
0110
0000
0000
0000
,
0101
0011
0011
1001
,
1000
0001
1000
0001
1000
0000
0010
0000
0100
0000
0010
0000
0100
0000
0001
0000
,
0100
0000
0001
0000
0022
0033
0000
0000
0220
0000
0330
0000
2200
0000
0000
3300
,
0220
0330
0000
0000
0220
0000
0000
0330
0000
0000
0010
0000
0100
0000
0001
0000
,
1000
0001
1000
0010
0100
0001
0020
0000
,
0000
0030
0000
0000
1000
0000
0000
0000
0100
0000
0000
0000
0010
0000
0001
0000
,
1000
0010
0110
1001
0110
1001
1100
1001
,
2000
0000
0000
3000
0020
0000
0000
0000
0030
0000
0100
0000
0001
0000
0010
0000
,
0000
0000
0001
0000
1000
0000
0100
0000
1000
0000
0010
0000
0100
0000
0000
0001
,
0000
0000
0000
0000
1000
0000
0000
1000
0000
0000
2000
0000
0000
0000
0000
0000
,
3000
0000
0000
0000
1000
0001
0000
1000
0001
0000
1000
0001
1000
0001
1000
0000
,
0010
0000
2000
3020
0230
0302
2003
3200
,
2300
3020
0230
0302
2003
3002
0203
0302
,
0023
0032
0203
0320
2030
3000
2002
0000
,
3003
1000
0100
1000
0010
0100
0001
0000
,
2100
0000
0000
3000
0000
0020
0000
0000
0030
0000
0200
0000
0302
0000
2003
0000
,
3200
0000
2300
0000
3020
0000
0230
0000
0302
0000
2003
0000
3200
0000
0300
1000
,
0000
1000
0010
0100
0001
1000
0100
1000
,
0010
1000
0001
0100
0010
1000
0001
0000
,
1001
0000
0000
0000
1000
0000
0000
0010
0000
0000
0100
0000
0000
0001
0000
0000
,
1000
0000
0100
0000
0010
0000
0000
0001
0000
0000
1000
0000
0000
0010
0000
0000
,
0100
0000
0001
0000
1000
0000
0000
0100
0000
0000
0010
0000
0000
0001
0000
0000
,
1000
0010
0100
0001
1000
0010
1000
0000
,
1001
0000
0000
0000
0110
0000
0000
1001
0000
0000
1010
0000
0000
1001
0000
0000
,
1001
0000
1001
0000
0110
0000
0000
1001
0000
0000
1100
0000
0000
0010
0000
0000
,
0100
0000
0001
0000
1001
0000
0000
1010
0000
0000
0101
0000
0000
1010
0000
0000
,
0001
0000
1000
0000
0010
0000
0000
0100
0000
0000
0001
0000
0000
1000
0000
0000
,
0001
0000
0000
0000
1000
0100
0000
0010
0000
0000
0001
0010
0000
0100
0000
0000
,
1000
0100
0000
2002
0003
0000
0000
0000
0000
0000
0000
0000
0002
0000
0000
0000
,
3000
0003
0000
0000
0000
0000
0000
0000
0000
0000
0000
0000
0000
0000
0000
0000
;
