#TITLE:Mi Maņana;
#SUBTITLE:Digimon Tamers Ending Latino;
#ARTIST:Marta Fernanda;
#TITLETRANSLIT:;
#SUBTITLETRANSLIT:;
#ARTISTTRANSLIT:;
#GENRE:;
#CREDIT:;
#BANNER:MMBN.jpg;
#BACKGROUND:MMBG.jpg;
#LYRICSPATH:;
#CDTITLE:cdtitleitachi.png;
#MUSIC:My Tomorrow.ogg;
#OFFSET:0.092000;
#SAMPLESTART:55.843620;
#SAMPLELENGTH:14.906830;
#SELECTABLE:YES;
#BPMS:0.000000=161.000000
;
#STOPS:
;
#BGCHANGES:0.125=Ending Digimon 3 (Espaņol Latino) con letra Pandatio.avi=1.000=0=0=1=====,
222.000=MMBG.jpg=1.000=0=0=1=====,
99999=-nosongbg-=1.000=0=0=0 // don't automatically add -songbackground-
;
#KEYSOUNDS:;
#ATTACKS:;

//---------------dance-single - ----------------
#NOTES:
     dance-single:
     :
     Easy:
     4:
     0.185372,0.297988,0.000000,0.130951,0.000000,109.000000,109.000000,0.000000,11.000000,0.000000,0.000000,0.185372,0.297988,0.000000,0.130951,0.000000,109.000000,109.000000,0.000000,11.000000,0.000000,0.000000:
0000
0000
0000
0000
,
1000
0000
1000
0000
,
2000
0000
0000
0000
0000
3000
0000
0000
,
1000
0000
0100
0000
,
0200
0000
0000
0000
0000
0300
0000
0000
,
0010
0000
0010
0000
,
0020
0000
0030
0000
,
0001
0000
0000
0000
0001
0000
0000
0002
,
0000
0000
0003
0000
,
1000
0000
0000
0000
,
1000
0000
0000
0000
,
0010
0000
0000
0000
,
0010
0000
0000
0000
,
0010
0000
0000
0000
0010
0000
0000
0010
,
0000
0000
0000
0010
0000
0000
0000
0000
,
0010
0000
0000
0010
0000
0000
0010
0000
,
0010
0000
0000
0010
0000
0000
0000
0000
,
1000
0000
0000
0000
,
1000
0000
0000
0000
,
1000
0000
0000
0000
,
0001
0000
0000
0000
,
0100
0000
0100
0000
,
0100
0000
0100
0000
,
0200
0000
0000
0000
,
0000
0300
0000
0000
,
0010
0000
0010
0000
,
0010
0010
0010
0010
,
0010
0000
0000
0010
0000
0000
0010
0000
,
0020
0000
0000
0030
0000
0000
0000
0000
,
1000
0000
1000
0000
,
1000
1000
1000
0000
,
1000
0000
0000
1000
0000
0000
1000
0000
,
1000
0000
1000
0000
,
0001
0000
0000
0002
0000
0003
0000
0000
,
0100
0000
0000
0200
0000
0300
0000
0000
,
0010
0000
0000
0010
0000
0000
0000
0000
,
0010
0000
0000
0010
0000
0010
0000
0000
,
0010
0000
0001
0001
,
0000
0000
1000
0001
,
1000
0000
0010
0000
,
0000
0000
0100
0010
,
0100
0000
0100
0000
,
0000
0000
0001
1000
,
0001
0000
0001
0000
,
0000
0000
0000
0000
0100
0000
0000
0200
,
0000
0000
0300
0000
,
0000
0010
0100
0010
,
0100
0010
0100
0010
,
1000
0010
1000
0010
,
1000
0010
1000
0010
,
0100
0010
0100
0010
,
0100
0001
0100
0001
,
1000
0001
1000
0001
,
2000
0000
0000
3000
,
2000
0000
0000
0000
,
0000
0000
0000
0000
0000
3000
0000
0000
;

//---------------dance-single - ----------------
#NOTES:
     dance-single:
     :
     Medium:
     6:
     0.338431,0.429459,0.154760,0.214283,0.000000,199.000000,186.000000,13.000000,18.000000,0.000000,0.000000,0.338431,0.429459,0.154760,0.214283,0.000000,199.000000,186.000000,13.000000,18.000000,0.000000,0.000000:
0000
0000
1000
1000
,
0001
0000
1000
0100
,
1000
0010
0010
0010
,
0000
0000
0100
0001
,
0100
0001
1001
0110
,
0000
0000
0000
0100
0001
0100
0001
0100
,
0001
1000
0010
0110
,
0000
0000
0000
1000
0001
1000
0001
2000
,
0000
0000
0000
3000
,
0010
0000
0100
0000
,
0010
0000
0000
0010
0000
0000
1000
0000
,
0001
0000
0000
0100
0010
0100
0010
0100
,
0001
0000
0000
0100
0000
0100
0000
0000
,
0001
0000
0001
0000
1000
0000
0100
1000
,
0000
0000
0000
0010
0000
0000
0000
0000
,
0010
0000
0000
0100
0000
0000
0001
0000
,
1000
0000
0000
0010
0000
0000
0000
0000
,
1001
0000
0010
0100
,
0010
0000
0000
0200
0000
0000
0300
0000
,
0000
0000
0000
0001
1000
0000
0001
0000
,
0100
0000
0010
0200
0000
0300
0000
0001
,
1000
0001
1000
1000
,
0010
0100
0001
1000
,
0100
1000
0010
0100
,
0001
0010
0001
0100
,
0001
0001
1000
1000
,
0100
0100
1000
0010
,
0100
0000
0000
0101
0000
0000
0101
0000
,
0202
0000
0303
0000
,
1100
0000
0011
0000
,
0001
1001
0010
0110
,
0001
0000
0000
1000
0000
0000
0001
0000
,
2000
0000
0000
3000
0002
0000
0000
0003
,
1000
0000
0100
2000
0000
0000
3000
0000
,
0010
0000
0100
0002
0000
0000
0003
0000
,
0100
0000
0010
0100
0000
0001
0000
1000
,
0010
0000
0100
0010
0000
0100
0001
0100
,
0001
0010
1001
1001
,
0000
0000
0000
1000
0100
1000
0100
1000
,
0010
0100
0001
0010
,
0000
0000
0000
0001
0010
0001
0010
0001
,
1000
0100
0010
0002
,
0003
0000
0000
0001
0010
0100
1000
0010
,
1000
0010
1000
0020
,
0030
0000
0000
0100
0010
0100
0010
0200
,
0000
0000
0000
0000
0000
0000
0000
0300
,
0001
0000
1000
0000
0100
1000
0010
1000
,
0010
0100
0001
1000
,
0100
0000
1000
0000
0010
1000
0010
1000
,
0010
0000
0000
0100
0002
0000
0000
0003
,
2000
0000
0000
0010
0000
0000
0010
0000
,
3020
0000
0000
0100
,
0100
0000
0000
0200
0000
0030
0000
0000
,
0302
0000
0000
0000
,
2000
0000
0000
0000
,
0000
0000
0000
0000
0000
0000
0000
0003
3000
0000
0000
0000
0000
0000
0000
0000
;

//---------------dance-single - ----------------
#NOTES:
     dance-single:
     :
     Hard:
     10:
     0.535708,0.559071,0.559517,0.130951,0.000000,315.000000,268.000000,47.000000,11.000000,0.000000,0.000000,0.535708,0.559071,0.559517,0.130951,0.000000,315.000000,268.000000,47.000000,11.000000,0.000000,0.000000:
0000
0000
1010
0101
,
0010
0000
1000
0001
1000
0010
0100
0001
,
0100
0101
1100
0101
,
1000
0000
0010
1000
0001
1000
0010
0100
,
0101
0101
0101
0101
,
1000
0000
0100
1000
0010
0100
0010
0001
,
1100
1100
1100
1100
,
0100
0000
1000
0010
0100
0001
0100
0002
,
0000
0000
0000
1000
0000
0000
1000
0003
,
2000
0000
3000
0010
0100
0001
0000
1000
,
0100
0000
1000
0200
0000
0000
0000
0300
,
1000
0000
0000
0010
0100
0001
0100
0001
,
0100
0000
0010
0100
0000
0010
0000
0000
,
1100
0000
0010
0000
1100
0000
0010
1100
,
0000
0000
0000
0010
0000
0000
0101
0000
,
0101
0000
0000
1001
0000
0000
0110
0000
,
0002
0000
0000
1000
0000
0000
1000
0003
,
1001
0000
0000
0010
0100
0000
0001
1000
,
0100
0000
1000
0020
0000
0000
0000
0030
,
0100
0000
0000
0001
0100
0000
0010
0000
,
0100
0000
0010
0100
0000
0000
0000
0001
,
0100
0000
0010
0100
0000
0000
0001
0000
,
0100
0010
0100
0001
,
1000
0000
0100
0000
0010
0000
0001
0010
,
0000
0100
1000
0000
0010
0100
0001
0100
,
0001
1001
0010
0110
,
0001
1010
1001
0110
,
0101
0000
0000
0001
0000
0000
1001
0000
,
0220
0000
0330
0001
,
1000
0010
0100
0100
,
0101
0110
0101
1001
,
1100
0000
0000
0011
0000
0000
1100
0000
,
0011
0000
1100
0000
,
0001
0000
1000
0020
0000
0000
1000
0030
,
0001
0000
0100
0020
0000
0000
0100
0030
,
0001
0000
1000
0100
0000
1000
0000
0010
,
1000
0001
1000
0010
0000
0100
0001
0100
,
0001
1001
0110
0101
,
1000
0100
1000
0010
0100
0001
0100
0010
,
0100
0101
1001
1010
,
0010
1000
0001
0100
0010
0100
0001
1000
,
0100
0010
0001
0010
,
0100
1000
0010
0100
0001
0010
0100
1000
,
0001
1001
0110
0101
,
1000
0100
1000
0010
0100
0001
0100
0001
,
0100
0000
0010
0100
0000
0001
1000
0100
,
1000
0010
0100
0001
0100
0001
0100
0010
,
0100
0001
1000
0001
1000
0100
1000
0010
,
1000
0010
0100
0001
0100
0010
0100
0001
,
1000
0100
0010
0001
0010
0100
1000
0001
,
1000
0010
1000
0001
1000
0010
1000
0001
,
0100
0010
0100
0001
0100
0010
0100
0001
,
1000
0100
1000
0010
1000
0100
1000
0010
,
2000
0000
0000
0000
,
3200
0000
0000
0000
,
0000
0300
0000
0000
;

//---------------dance-single - ----------------
#NOTES:
     dance-single:
     :
     Challenge:
     12:
     0.629244,0.727595,0.476185,0.488089,0.142855,370.000000,330.000000,40.000000,41.000000,0.000000,0.000000,0.629244,0.727595,0.476185,0.488089,0.142855,370.000000,330.000000,40.000000,41.000000,0.000000,0.000000:
// measure 0
0000
0000
1001
0110
,  // measure 1
0001
0100
0010
0001
0010
0100
0001
1000
,  // measure 2
1100
0110
1001
1010
,  // measure 3
0010
0100
0010
0100
0001
1000
0100
0010
,  // measure 4
0011
0110
1100
0110
,  // measure 5
0001
1000
0100
0010
0100
1000
0001
1000
,  // measure 6
1100
0110
1010
0110
,  // measure 7
0100
1000
0010
0100
0001
0001
1000
0100
,  // measure 8
2002
0000
3003
0000
0000
0000
2002
0000
0000
0000
3003
0000
0001
0010
0001
0010
,  // measure 9
0001
0000
0000
1000
0100
0010
0000
0001
,  // measure 10
1000
0000
0000
0000
0010
0000
2000
0000
0000
0000
0000
0000
0000
3000
0000
0000
,  // measure 11
0010
0000
0000
0100
0001
0010
0001
1000
,  // measure 12
0100
0000
2000
3200
0300
0020
0030
0000
,  // measure 13
0001
0000
1000
0000
0010
0000
0100
0020
,  // measure 14
0000
0030
0000
2000
0000
0000
3100
0000
,  // measure 15
0020
0000
0030
0002
0003
0000
2000
3000
,  // measure 16
0020
0030
0000
0200
0300
1001
1001
0000
,  // measure 17
1000
0000
0000
0100
1000
0000
0010
0100
,  // measure 18
0001
0000
0000
0000
0100
0000
0020
0000
0000
0000
0000
0030
0000
0000
0000
0000
,  // measure 19
1001
0000
0000
2000
3200
0300
2200
3300
,  // measure 20
0220
0330
0001
0020
0030
0000
0000
0001
,  // measure 21
0010
0000
0100
2000
0000
3000
1001
0000
,  // measure 22
1010
0101
0110
1100
,  // measure 23
0200
0000
0001
0000
0010
0300
0001
1000
,  // measure 24
0000
0000
0100
0000
1000
0000
0010
0000
0100
0000
1001
0000
0010
0100
0001
1000
,  // measure 25
0010
1000
0010
0100
0010
0100
0001
0100
,  // measure 26
0001
0010
0001
0010
0001
0100
0001
0000
,  // measure 27
1001
0000
0000
0101
0000
0000
0101
0000
,  // measure 28
2002
3003
0000
1000
0010
0100
0001
1000
,  // measure 29
0001
1000
0100
1000
0010
1000
0010
1000
,  // measure 30
0010
0100
0010
1000
0010
0100
0001
1000
,  // measure 31
0101
0000
0000
1100
0000
0000
0110
0000
,  // measure 32
1001
0000
1010
0100
,  // measure 33
0010
0000
1000
0010
0000
0100
0001
0000
,  // measure 34
1100
0000
0001
0010
0000
0100
1000
0000
,  // measure 35
0010
0000
0100
0001
0000
1100
0000
0200
,  // measure 36
2300
3020
0230
0302
0003
2000
3200
0320
,  // measure 37
0032
0000
0003
0000
1000
0100
0010
0001
1000
0000
0000
0000
1001
0000
0000
0000
,  // measure 38
0001
1000
0001
1000
0010
0100
0001
1000
,  // measure 39
0100
0010
0001
0000
1000
0000
0001
0000
0100
0010
1000
0000
0001
0000
1000
0000
,  // measure 40
0100
0010
0001
1000
0010
0100
0001
1000
,  // measure 41
0100
0010
0001
0000
1000
0000
0010
0000
0100
0010
1000
0000
0001
0100
0001
0000
,  // measure 42
0100
0010
0001
0010
0100
0001
1000
1000
,  // measure 43
0100
1000
0100
0000
0010
0000
0001
0000
1000
0001
0010
0000
0100
0000
1000
0000
,  // measure 44
0010
0100
0001
1000
0100
1000
0100
0010
,  // measure 45
0002
0000
0000
0000
0103
0000
1000
0000
0000
0000
0010
0000
0100
0000
0010
0100
,  // measure 46
0010
0000
1000
0000
0001
0000
1000
0000
0100
0000
0010
0000
0001
0000
1000
0010
,  // measure 47
0100
0000
0001
0010
0100
0000
1000
0010
0100
0000
0010
1000
0001
0000
1000
0000
,  // measure 48
0010
0000
0010
0000
1000
0000
0001
0000
0010
0000
0100
0000
1000
0000
0100
0010
,  // measure 49
0002
0000
0003
0000
0000
0000
0001
0010
0200
0000
0300
0000
1001
0000
0000
0000
,  // measure 50
0001
1000
0010
0100
0001
1000
0100
1000
,  // measure 51
0010
0100
0001
0010
0100
0010
0001
0100
,  // measure 52
0010
0001
0010
0100
0001
0010
0100
0010
,  // measure 53
0002
0000
0000
0000
0000
0003
0000
0100
0000
0000
0000
0000
0000
0010
0000
0000
,  // measure 54
0000
0100
0000
0000
0000
0000
0000
0200
0000
0000
0000
0000
0000
0000
0000
0000
,  // measure 55
0000
0000
0000
0000
0000
0000
0000
0000
0000
0300
0000
0000
0000
0000
0000
0000
;
