#TITLE:Man Human;
#SUBTITLE:Devilman -Crybaby- Opening;
#ARTIST:Denki Groove;
#TITLETRANSLIT:;
#SUBTITLETRANSLIT:;
#ARTISTTRANSLIT:;
#GENRE:;
#CREDIT:Magna Trick;
#BANNER:MHBN.jpg;
#BACKGROUND:MHBG.jpg;
#LYRICSPATH:;
#CDTITLE:Magna Trick title!.png;
#MUSIC:Man Human.mp3;
#OFFSET:0.142746;
#SAMPLESTART:17.020000;
#SAMPLELENGTH:14.000000;
#SELECTABLE:YES;
#BPMS:0.000000=133.339996
;
#STOPS:
;
#BGCHANGES:0.083=Man Human.avi=1.000=0=0=1=====,
199.000=MHBG.jpg=1.000=0=0=1=====,
99999=-nosongbg-=1.000=0=0=0 // don't automatically add -songbackground-
;
#KEYSOUNDS:;
#ATTACKS:;

//---------------dance-single - ----------------
#NOTES:
     dance-single:
     :
     Hard:
     9:
     0.504292,0.499249,0.022413,0.224130,0.000000,315.000000,313.000000,2.000000,20.000000,0.000000,0.000000,0.504292,0.499249,0.022413,0.224130,0.000000,315.000000,313.000000,2.000000,20.000000,0.000000,0.000000:
0000
0000
0000
0000
0001
1000
0000
0100
,
0000
0100
0000
0100
0000
0100
0000
0100
,
0000
0100
0000
0100
1000
0001
0000
0100
,
0000
0100
0000
0100
0000
0100
0000
0100
,
0000
0100
0000
0100
0001
0010
0000
0100
,
0000
0100
0000
0100
0000
0100
0000
0100
,
0000
0100
0000
0100
0010
1000
0000
0100
,
0000
0100
0000
0100
0000
0100
0000
0100
,
0000
0100
0000
0100
0001
0010
0001
0100
,
0001
1000
0001
0010
0001
0100
0001
1000
,
0001
0010
0001
0100
0001
1000
0100
0010
,
0100
0001
0100
1000
0100
0010
0100
0001
,
0000
0100
1000
0000
0010
0001
0010
0100
,
0010
1000
0010
0001
0010
0100
0010
1000
,
0000
0001
0010
0000
0100
1000
0100
0010
,
0100
0001
0100
1000
0100
0010
0100
0001
,
0000
0100
1000
0000
1001
0001
0100
0100
,
0010
1000
0100
0100
0010
0001
1000
1000
,
0010
0100
0001
0001
1000
0100
0010
0010
,
0100
1000
0001
0001
0100
0010
0001
0001
,
0010
1000
0100
0100
0010
1000
0001
0001
,
0100
1000
0010
0010
0001
1000
0100
0100
,
0010
1000
0100
0100
0010
0001
1000
1000
,
0010
0001
1000
1000
0100
0010
1000
1000
,
0100
0010
0001
0001
1000
0100
1000
0010
,
1000
0001
1000
0100
1000
0010
1000
0001
,
1000
0000
0000
0000
0001
0010
0001
1000
,
0001
0100
0001
0010
0001
1000
0001
0000
,
0000
0100
0010
0000
0100
0010
0100
0001
,
0100
1000
0100
0010
0100
0001
0100
1000
,
0000
0100
0001
0000
0010
0100
0010
1000
,
0010
0001
0010
0100
0010
1000
0010
0001
,
0000
1000
0001
0000
1001
0000
1000
1000
,
1000
0000
0001
0001
0001
0000
0100
0100
,
0100
0000
0010
0010
0010
0000
1000
1000
,
1000
0000
0001
0001
0001
0000
0010
0010
,
0010
0000
0100
0100
0100
0000
1000
1000
,
1000
0000
0001
0001
0001
0000
0100
0100
,
0100
0000
0010
0010
0010
0000
1000
1000
,
1000
0000
0001
0001
0001
0000
0010
0010
,
0010
0000
0100
0100
1000
0001
0100
0010
,
1000
0001
0100
0010
1000
0001
1000
0100
,
0010
0001
1000
0100
0010
0001
0010
0100
,
1000
0001
0100
0010
1000
0001
0100
0010
,
1000
0100
1000
0001
0200
0000
0320
0000
,
2030
3200
0302
0023
,
2030
3200
0302
0023
,
2030
3200
0302
0023
,
2030
0000
3200
0000
0302
0003
0002
0003
,
0002
0003
0002
0003
0001
0000
0000
0000
;

//---------------dance-single - ----------------
#NOTES:
     dance-single:
     :
     Medium:
     5:
     0.329791,0.277361,0.000000,0.224130,0.000000,206.000000,206.000000,0.000000,20.000000,0.000000,0.000000,0.329791,0.277361,0.000000,0.224130,0.000000,206.000000,206.000000,0.000000,20.000000,0.000000,0.000000:
0000
0000
0000
0000
0001
1000
0000
0100
,
0000
0100
0000
0100
0000
0100
0000
0100
,
0000
0100
0000
0100
1000
0001
0000
0100
,
0000
0100
0000
0100
0000
0100
0000
0100
,
0000
0100
0000
0100
0001
1000
0000
0100
,
0000
0100
0000
0100
0000
0100
0000
0100
,
0000
0100
0000
0100
1000
0001
0000
0100
,
0000
0100
0000
0100
0000
0100
0000
0100
,
0000
0100
0000
0100
1000
0000
0001
0000
,
1000
0001
1000
0001
,
1000
0001
1000
1000
,
1000
1000
0001
1000
,
0000
1000
0001
0000
1000
0000
1000
0000
,
1000
1000
1000
1000
,
1000
0001
1000
0000
0001
0000
0001
0000
,
0001
0000
0001
0000
0001
0000
0001
1000
,
0000
0001
1000
0000
0001
0100
0000
0100
,
0000
0010
0000
0010
0000
1000
0000
1000
,
0000
1000
0000
1000
0000
0001
0000
0001
,
0000
0001
0000
0001
0000
0010
0000
0010
,
0000
0010
0000
0010
0000
0100
0000
0100
,
0000
0100
0000
0100
0000
1000
0000
1000
,
0000
1000
0000
1000
0000
0001
0000
0001
,
0000
0001
0000
0001
0000
0100
0000
0100
,
0000
0100
0000
0100
0010
0000
0100
0000
,
0001
1000
0100
0010
,
0001
0000
1000
0010
,
0100
0001
1000
0100
,
0000
0010
0001
0000
1000
0000
0001
0000
,
0100
0010
1000
0001
,
0000
1000
0001
0000
0100
0000
0010
0000
,
1000
0000
0100
0000
0010
0000
0001
1000
,
0000
0001
1000
0000
0001
0000
1000
0000
,
0010
0100
0001
1000
,
0100
0010
0001
1000
,
0010
0100
0001
1000
,
0100
0010
0100
1000
,
0001
0100
0010
0100
,
0001
1000
0100
0010
,
0001
1000
0001
0100
,
0010
0000
1000
0000
0001
1000
0000
0001
,
0000
1000
0000
0001
0000
0001
0000
1000
,
0000
1000
0000
0010
0000
0100
0000
0001
,
0000
1000
0000
1000
0000
0001
0000
0001
,
1000
0000
1000
0001
0200
0000
0320
0000
,
2030
3200
0302
0023
,
2030
3200
0302
0023
,
2030
3200
0302
0023
,
2030
0000
3200
0000
0302
0003
0002
0003
,
0002
0003
0002
0003
0001
0000
0000
0000
;

//---------------dance-single - ----------------
#NOTES:
     dance-single:
     :
     Easy:
     1:
     0.163295,0.221889,0.000000,0.011206,0.000000,102.000000,102.000000,0.000000,1.000000,0.000000,0.000000,0.163295,0.221889,0.000000,0.011206,0.000000,102.000000,102.000000,0.000000,1.000000,0.000000,0.000000:
0000
0000
0000
0000
,
0000
0000
0000
0000
,
0000
0000
0000
0000
0000
0000
0000
1000
,
0000
1000
0000
1000
0000
1000
0000
1000
,
0000
1000
0000
0000
0000
0000
0000
0001
,
0000
0001
0000
0001
0000
0001
0000
0001
,
0000
0001
0000
0000
0000
0000
0000
0100
,
0000
0100
0000
0100
0000
0100
0000
0100
,
0000
0100
0000
0000
0000
0000
0010
0000
,
0000
0100
0000
0010
,
0000
0100
0000
0001
,
0000
1000
0000
0001
,
0000
1000
0000
0001
,
0000
0000
0100
0000
,
0010
0000
1000
0000
,
0001
0000
0010
0000
,
0000
0000
0100
0000
,
0010
0000
0001
0000
,
1000
0000
0010
0000
,
0100
0000
0001
0000
,
1000
0000
0100
0000
,
0010
0000
0001
0000
,
1000
0000
0010
0000
,
0100
0000
0001
0000
,
1000
0000
0001
0001
,
0001
0001
0001
0001
,
0001
0000
1000
1000
,
1000
1000
1000
1000
,
0000
0000
0001
0001
,
0001
0001
0001
0001
,
0000
0000
1000
1000
,
1000
1000
1000
1000
,
0000
1000
0000
0001
,
0000
0100
0000
0010
,
0000
0100
0000
0010
,
0000
0100
0000
0001
,
0000
1000
0000
0100
,
0000
0010
0000
0001
,
0000
1000
0000
0010
,
0000
0100
0000
0001
,
0000
1000
0000
1000
,
0000
0001
0000
0001
,
0000
0100
0000
0100
,
0000
0010
0000
0010
,
0000
1000
0000
0001
,
0000
1000
0000
0100
,
0000
0020
0000
0000
,
0000
0000
0000
0000
,
0000
0000
0000
0000
,
0000
0000
0030
0000
;

//---------------dance-single - ----------------
#NOTES:
     dance-single:
     :
     Challenge:
     17:
     1.147865,0.915290,0.000000,0.044826,1.888294,717.000000,717.000000,0.000000,4.000000,0.000000,0.000000,1.147865,0.915290,0.000000,0.044826,1.888294,717.000000,717.000000,0.000000,4.000000,0.000000,0.000000:
// measure 0
0000
0000
0000
0000
0000
0000
0000
0000
2000
0000
3001
0010
0001
0100
0001
0010
,  // measure 1
0001
0100
0001
0010
0001
0100
0001
0010
0001
0100
0001
0010
0001
0100
0001
0010
,  // measure 2
0001
0100
0001
0010
0001
0100
0001
0010
0002
0000
1003
0010
1000
0100
1000
0010
,  // measure 3
1000
0100
1000
0010
1000
0100
1000
0010
1000
0100
1000
0010
1000
0100
1000
0010
,  // measure 4
1000
0100
1000
0010
1000
0100
1000
0010
2000
0000
3100
0001
0100
1000
0100
0001
,  // measure 5
0100
1000
0100
0001
0100
1000
0100
0001
0100
1000
0100
0001
0100
1000
0100
0001
,  // measure 6
0100
1000
0100
0001
0100
1000
0100
0001
0200
0000
0310
0001
0010
1000
0010
0001
,  // measure 7
0010
1000
0010
0001
0010
1000
0010
0001
0010
1000
0010
0001
0010
1000
0010
0001
,  // measure 8
0010
1000
0010
0001
0010
1000
0010
0001
1000
0100
1000
0100
0010
0001
0010
0001
,  // measure 9
0100
0010
0100
0010
1000
0001
1000
0001
0100
1000
0100
1000
0001
0010
0001
0010
,  // measure 10
1000
0100
1000
0100
0010
0001
0010
0001
0100
0010
0100
0010
1000
0001
1000
0001
,  // measure 11
0100
0010
0100
0010
1000
0100
1000
0100
0010
0001
0010
0001
0100
1000
0100
0000
,  // measure 12
0000
0000
0001
0000
0010
0000
0000
0000
0100
1000
0100
1000
0010
0100
0010
0100
,  // measure 13
0001
0010
0001
0010
0100
1000
0100
1000
0001
0100
0001
0100
0010
1000
0001
0000
,  // measure 14
0000
0000
1000
0000
0001
0000
0000
0000
0010
0001
0010
0001
1000
0100
1000
0100
,  // measure 15
0001
1000
0001
1000
0010
0001
0010
0001
1000
0000
0000
0000
0001
0000
1000
0000
,  // measure 16
0000
0000
0001
0000
1000
0000
0000
0000
0001
0100
0001
0100
0001
0100
0001
0100
,  // measure 17
0001
0100
0001
0100
0001
0100
0001
0100
0010
1000
0010
1000
0010
1000
0010
1000
,  // measure 18
0010
1000
0010
1000
0010
1000
0010
1000
0100
0010
0100
0010
0100
0010
0100
0010
,  // measure 19
0100
0010
0100
0010
0100
0010
0100
0010
0001
1000
0001
1000
0001
1000
0001
1000
,  // measure 20
0001
1000
0001
1000
0100
0010
0100
0010
0001
0100
0001
0100
0001
0100
0001
0100
,  // measure 21
0001
0100
0001
0100
0001
0100
0001
0100
0010
1000
0010
1000
0010
1000
0010
1000
,  // measure 22
0010
1000
0010
1000
0010
1000
0010
1000
0100
0010
0100
0010
0100
0010
0100
0010
,  // measure 23
0100
0010
0100
0010
0100
0010
0100
0010
0001
1000
0001
1000
0001
1000
0001
1000
,  // measure 24
0001
1000
0001
1000
0010
0100
0010
0100
0001
0010
0100
1000
0001
0010
0100
1000
,  // measure 25
0001
0010
0100
1000
0001
0010
0100
1000
0001
0010
0100
1000
0001
0010
0100
1000
,  // measure 26
0001
0010
0100
0000
0000
0000
0000
0000
1000
0100
0010
0001
1000
0100
0010
0001
,  // measure 27
1000
0100
0010
0001
1000
0100
0010
0001
1000
0100
0010
0001
1000
0100
0010
0000
,  // measure 28
0000
0000
0001
0000
1000
0000
0000
0000
0010
0100
0001
1000
0010
0100
0001
1000
,  // measure 29
0010
0100
0001
1000
0010
0100
0001
1000
0010
0100
0001
1000
0010
0100
0001
0000
,  // measure 30
0000
0000
1000
0000
0001
0000
0000
0000
0100
0010
1000
0001
0100
0010
1000
0001
,  // measure 31
0100
0010
1000
0001
0100
0010
1000
0001
0100
0010
1000
0001
0100
0010
1000
0100
,  // measure 32
0010
0001
0100
0010
1000
0100
0010
0001
0100
0010
1000
0100
0010
0001
0010
0001
,  // measure 33
0100
0010
1000
0100
0010
0001
0010
0001
0100
0010
1000
0100
0010
0001
0010
0001
,  // measure 34
0100
0010
1000
0100
0010
0001
0010
0001
0100
0010
1000
0100
0010
0001
0010
0001
,  // measure 35
0100
0010
1000
0100
0010
0001
0010
0001
0100
0010
1000
0100
0010
0001
0010
0001
,  // measure 36
0100
0010
1000
0100
0010
0001
0010
0001
0100
0010
1000
0100
0010
0001
0010
0001
,  // measure 37
0100
0010
1000
0100
0010
0001
0010
0001
0100
0010
1000
0100
0010
0001
0010
0001
,  // measure 38
0100
0010
1000
0100
0010
0001
0010
0001
0100
0010
1000
0100
0010
0001
0010
0001
,  // measure 39
0100
0010
1000
0100
0010
0001
0010
0001
0100
0010
1000
0100
0010
0001
0010
0001
,  // measure 40
0100
0010
1000
0100
0010
0001
0010
0001
0100
0010
1000
0001
0100
0010
0100
0010
,  // measure 41
1000
0100
0010
0001
0100
0010
0100
0010
1000
0001
0010
0100
1000
0010
1000
0010
,  // measure 42
0100
0001
0010
0100
1000
0001
1000
0001
0010
0100
1000
0001
0100
0010
0100
0010
,  // measure 43
1000
0100
0010
0001
1000
0100
1000
0100
0010
0001
0100
0010
1000
0001
1000
0001
,  // measure 44
0010
0100
1000
0001
0100
0010
0100
0010
1000
0000
1000
0100
1000
0000
1000
0100
,  // measure 45
1000
0000
1000
0100
1000
0000
1000
0100
1000
0000
1000
0100
1000
0000
1000
0100
,  // measure 46
1000
0000
1000
0100
1000
0000
1000
0100
1000
0000
1000
0100
1000
0000
1000
0100
,  // measure 47
1000
0000
1000
0100
1000
0000
1000
0100
1000
0000
1000
0100
1000
0000
1000
0100
,  // measure 48
1000
0000
1000
0100
1000
0000
1000
0100
1000
0000
1000
0100
1000
0000
1000
0100
,  // measure 49
1000
0000
1000
0100
1000
0000
1000
0100
0010
0000
0000
0000
0000
0000
0000
0000
;
