#TITLE:Make You;
#SUBTITLE:Escuela de Detectives Opening Latino;
#ARTIST:Marycel Gonzalez;
#TITLETRANSLIT:;
#SUBTITLETRANSLIT:;
#ARTISTTRANSLIT:;
#GENRE:;
#CREDIT:;
#BANNER:MYBN.jpg;
#BACKGROUND:MYBG.jpg;
#LYRICSPATH:;
#CDTITLE:cdtitleitachi.png;
#MUSIC:Escuela de Detectives Opening Espanol Latino.ogg;
#OFFSET:-0.419000;
#SAMPLESTART:54.239998;
#SAMPLELENGTH:13.000000;
#SELECTABLE:YES;
#BPMS:0.000000=125.999992
,108.000000=118.000000
,109.000000=125.999992
;
#STOPS:
;
#BGCHANGES:0.063=Escuela de Detectives Opening Espanol Latino.=0.000=0=0=1=====,
188.000=MYBG.jpg=1.000=0=0=1=====,
99999=-nosongbg-=1.000=0=0=0 // don't automatically add -songbackground-
;
#KEYSOUNDS:;
#ATTACKS:;

//---------------dance-single - ----------------
#NOTES:
     dance-single:
     :
     Easy:
     2:
     0.164189,0.230003,0.000000,0.209973,0.000000,104.000000,104.000000,0.000000,19.000000,0.000000,0.000000,0.164189,0.230003,0.000000,0.209973,0.000000,104.000000,104.000000,0.000000,19.000000,0.000000,0.000000:
0000
0000
0000
0000
,
0000
1000
0000
0000
,
0000
1000
0000
0000
,
1000
0000
0010
0000
,
0010
0000
0010
0000
,
0000
0000
0100
0000
,
0100
0000
0200
0000
0000
0000
0000
0300
,
0000
0010
0000
0010
,
0000
0020
0030
0000
,
0010
0000
0010
0000
,
0010
0010
0010
0010
,
0010
0000
0100
0000
,
0100
0000
0100
0200
,
0300
0000
0010
0000
,
0010
0010
0010
0010
,
0010
0000
0100
0000
,
0010
0000
1000
0000
,
0001
0001
0000
2000
,
0000
0200
3300
0100
,
0000
0200
0000
0000
,
0000
0300
0000
0000
0000
0000
0010
0000
,
0010
0020
0000
0000
,
0000
0030
0000
0000
0000
0000
0100
0000
,
0100
0200
0000
0300
,
0000
0020
0000
0030
,
0000
1000
0000
0001
,
0000
0000
0100
0000
0000
0100
0000
0000
,
0200
0000
0000
0300
0000
0000
0000
0000
,
0000
0010
0010
0010
,
0000
1000
1000
1000
,
0000
0001
1000
0001
,
1000
0000
0001
0000
0000
0000
0002
0003
,
0000
0100
0100
0100
,
0100
0010
0010
0010
,
0010
0100
0000
0100
,
0000
0200
0000
0300
,
0000
0001
0001
0001
,
0000
1000
1000
1000
,
0000
0010
0010
0100
,
0100
0010
0000
0020
,
0030
1000
0001
2000
,
3000
0010
0100
0200
,
0300
0010
0100
0010
,
0100
0001
0100
0002
,
0003
2000
0000
3000
,
0010
0000
0200
0000
0000
0000
0300
0010
,
0020
0130
0000
0000
;

//---------------dance-single - ----------------
#NOTES:
     dance-single:
     :
     Medium:
     6:
     0.281016,0.357782,0.033154,0.176819,0.088410,178.000000,175.000000,3.000000,16.000000,0.000000,0.000000,0.281016,0.357782,0.033154,0.176819,0.088410,178.000000,175.000000,3.000000,16.000000,0.000000,0.000000:
0000
0000
0000
0000
,
0000
0000
1000
1000
0000
0000
0000
0000
,
0000
0000
0010
0010
0000
0000
0000
0000
,
0000
1000
0001
0100
,
0000
0000
0000
0000
0010
0000
0000
0000
0010
0000
0000
0010
0000
0000
0000
0000
,
0000
0000
0000
0100
0100
0000
0001
0000
,
1000
0000
0001
1000
1000
0010
0100
0010
,
0100
0001
0001
0000
,
0000
0000
0000
0000
0100
0000
0000
0000
0100
0000
0000
0200
0000
0000
0000
0000
,
0300
0000
0000
0010
0000
0000
1000
0000
,
0001
0100
0010
0100
,
0100
0100
0000
0001
0000
0000
1000
0000
,
0000
0000
0010
0000
0000
0100
0200
0000
,
0000
0300
0000
0010
0010
0000
0100
0000
,
0001
1000
0001
1000
,
0010
0000
0000
1000
0100
1000
0000
0100
,
1000
0100
0000
1000
0100
1000
0100
1000
,
0100
0010
0001
0000
0000
0000
1000
0000
,
0000
0000
0200
0000
0300
0000
0001
0010
,
0001
0010
0200
0000
0000
0000
0000
0000
,
0300
0000
0000
0000
0000
0001
1000
0001
,
1000
0000
0001
0000
1000
0000
0000
0000
0010
0000
0000
0000
0100
0000
0000
0001
,
0000
0002
0000
0000
0003
0000
1000
0000
,
0010
0000
0100
0000
0001
0000
1000
0001
,
0000
0000
0000
0000
1000
0000
0000
0010
0000
0000
0020
0000
0000
0000
0000
0000
,
0030
0000
1000
0001
1000
0100
1000
0100
,
1000
0001
1000
0000
0000
0001
0000
0000
,
0002
0000
0000
0003
0000
0000
0000
0000
,
0000
0000
0000
0000
1100
0000
0000
0000
1000
0000
0000
0001
0000
1000
0000
0000
,
0001
0000
1000
0000
0100
0000
0000
0000
0100
0000
0000
0100
0000
0000
0100
0000
,
0001
0000
1000
0000
0001
0000
0000
0000
0010
0000
0000
0000
0010
0000
0000
0010
,
0000
0000
1000
0000
0001
0000
0000
0100
0000
0000
0001
0000
0001
0000
0000
0000
,
0000
0000
0000
0000
1000
0000
0000
0000
0010
0000
0000
0100
0000
0000
0001
0000
,
1000
0000
0001
0000
1000
0000
0000
0000
1000
0000
0000
1000
0000
0000
1000
0000
,
0010
0000
0000
0000
1000
0000
0000
0000
0010
0000
0000
0000
0020
0030
0000
0010
,
0000
0000
0010
0000
0010
0000
0000
0010
0000
0000
0010
0000
0020
0000
0000
0000
,
0030
0000
0100
0000
1000
0000
0100
1000
,
0100
0000
1000
0000
0100
0000
0000
0000
1000
0000
0000
0001
0000
0000
1000
0000
,
0100
0000
1000
0000
0002
0000
0000
0000
1003
0000
0000
0000
0010
0000
0000
0010
,
0000
0200
0300
0200
,
0000
0300
0001
0000
0000
0000
0001
0000
,
0000
1000
0000
1000
,
0010
0100
0010
1000
,
0001
0000
1000
0000
1000
0000
0000
0001
0000
0000
0100
0000
0100
0000
0000
0000
,
0000
0220
0000
0000
,
0000
0330
2002
0000
0000
0000
3003
0000
,
1000
0001
0000
0000
;

//---------------dance-single - ----------------
#NOTES:
     dance-single:
     :
     Hard:
     11:
     0.509933,0.642350,0.430996,0.143665,0.281805,323.000000,284.000000,39.000000,13.000000,0.000000,0.000000,0.509933,0.642350,0.430996,0.143665,0.281805,323.000000,284.000000,39.000000,13.000000,0.000000,0.000000:
0000
0000
0000
0000
,
0000
0000
0000
0000
0010
0000
1000
0000
0010
0000
0000
0100
0000
0000
0001
0000
,
1000
0000
0000
0000
0010
0000
0100
0000
0010
0000
0000
1001
0000
0000
0010
0000
,
0100
0000
0000
0000
0001
0000
1000
0000
0100
0000
0010
0001
0000
0000
1000
0000
,
0000
0000
0010
0000
0100
0000
0001
0000
0010
0000
0001
1000
0000
0000
0001
0000
,
1000
0000
0100
1000
0010
0100
0001
1000
,
0100
0000
1000
0000
0010
0000
0010
0000
1000
0000
0001
1000
0000
1000
0000
0010
,
0100
0000
1001
0000
0100
0000
0010
0000
0100
0000
0001
1000
0000
0000
0100
0000
,
0000
0000
1000
0000
0100
0000
1000
0000
0010
0000
0100
0001
0000
0000
0000
0000
,
1000
0000
0010
0100
0001
1000
0100
1000
,
0010
0100
0001
0100
0010
1000
0010
1000
,
0001
0000
1000
0000
0000
0000
0100
0000
1000
0000
0010
0000
0100
0000
0000
0001
,
0000
0000
0001
0000
0001
0000
0000
1000
0000
0000
1000
0000
2000
0000
0000
0000
,
3000
0000
0000
0010
0100
0001
1000
0000
,
0100
1000
1100
0000
0110
0000
1001
0000
,
0110
0000
0001
1000
0100
0010
0000
0001
,
1000
0100
0000
0010
0001
0010
0001
0100
,
0010
0100
0010
0000
1001
0000
0020
0000
,
0000
0030
2000
0000
3000
0001
0010
0100
,
1000
0000
0010
0000
2000
0000
0000
0000
0010
0000
0000
0000
0001
0000
0000
0001
,
0000
0000
0002
0000
0003
3000
0000
0000
0000
0000
0010
0000
0100
0000
0001
0000
,
1000
0000
0100
0000
1000
0000
0000
0000
1100
0000
0000
0000
0110
0000
0000
1001
,
0000
0000
2002
0000
0000
0000
0000
3003
0000
0000
0010
0000
0100
0000
0001
0000
,
1000
0000
0100
0000
1100
0000
0000
0000
0110
0000
0000
0000
0001
0000
0000
1000
,
0000
0000
0010
0000
0100
0000
0001
0000
1000
0100
0000
2000
0000
0000
0000
3000
,
0000
0010
0100
0001
1000
0100
0010
0001
,
1001
0000
0010
0000
0110
0000
0000
1001
0000
0000
1100
0000
0000
0010
0000
0000
,
0010
0000
0000
0000
1000
0001
1000
0001
1000
0001
1000
0001
1000
0001
1000
0001
,
1000
0001
1000
0001
1000
0000
0000
0000
0110
0000
0000
0001
0000
1000
0000
0000
,
0100
0000
1000
0000
1010
0000
0000
0000
0110
0000
0000
0001
0000
1000
0000
0000
,
1000
0000
0100
0000
1001
0000
0000
0000
0110
0000
0000
0000
0001
0000
0000
1000
,
0000
0000
0100
0000
0010
0000
0000
0001
0000
0000
0100
0000
1001
0000
0000
0000
,
0001
0000
1000
0000
0010
0000
0000
0000
0110
0000
0000
1001
0000
0000
1000
0000
,
0100
0000
1000
0000
0010
0000
0000
0000
0100
0000
0000
1001
0000
0000
1000
0000
,
0100
0000
1000
0000
0101
0000
0000
0000
0101
0000
0000
0000
1000
0000
0000
0100
,
0000
0000
1000
0000
1001
0000
0000
1001
0000
0000
0110
0000
2002
0000
0000
0000
,
3003
0000
0000
0000
0010
0000
0000
0000
0100
0000
0000
0001
0000
1000
0000
0000
,
0100
0000
1000
0000
2002
3003
0000
0000
0110
0000
0000
0001
0000
1000
0000
0000
,
0100
0000
0010
0000
0011
0000
0000
0000
1100
0000
0000
0000
1000
0000
0000
0010
,
0000
0000
0100
0000
0001
0000
0000
0010
0000
0000
0100
0000
1001
0000
0000
0000
,
0001
0000
0100
0000
0010
0000
0000
0000
0100
0000
0000
0001
0000
0000
1000
0000
,
0010
0000
1000
0000
0001
0000
0000
0000
0100
0000
0000
0010
0000
0000
1000
0000
,
0001
1000
0101
0000
1001
0000
0001
0000
,
1000
0000
0010
0000
0100
0000
0000
0001
0000
0000
1000
0000
0100
0000
0000
0000
,
1000
0000
0000
0000
0010
0000
0100
0000
0001
0000
1000
0100
0000
0010
0001
0000
,
1000
0000
0100
1000
0001
0000
1000
0000
0010
0000
0100
0001
0000
1000
0100
0000
,
1000
0001
2000
0000
0000
0000
0000
0000
3000
0000
0000
0000
0000
0000
0000
0000
;

//---------------dance-single - ----------------
#NOTES:
     dance-single:
     :
     Challenge:
     12:
     0.558874,0.649257,0.232075,0.254177,0.436522,354.000000,333.000000,21.000000,23.000000,0.000000,0.000000,0.558874,0.649257,0.232075,0.254177,0.436522,354.000000,333.000000,21.000000,23.000000,0.000000,0.000000:
// measure 0
0000
0000
0000
0000
0001
1000
0001
1000
0001
0000
1000
0001
1000
0001
0000
0000
,  // measure 1
0000
0000
0000
0000
1001
0000
0100
0000
0001
0000
0100
0010
0000
0100
0001
0000
,  // measure 2
0010
0000
0000
0000
1010
0000
0100
0000
0001
0000
1000
0100
0000
0010
0001
0000
,  // measure 3
1000
0001
0100
0000
0000
0000
0010
0000
1000
0000
0010
0100
0000
0000
1001
0000
,  // measure 4
0000
0000
0010
0000
0001
0000
0100
0000
0010
0000
1000
0200
0000
0000
0000
0000
,  // measure 5
0300
0000
0000
0010
0100
0001
1000
0100
,  // measure 6
1000
0000
0010
0000
0100
0000
0100
0000
1000
0000
0100
0100
0000
0010
0000
0001
,  // measure 7
0001
0000
1000
0000
0110
0000
0001
0000
1000
0000
0010
0200
0000
0000
0302
0000
,  // measure 8
0000
0003
1000
0000
0100
0000
0100
0000
1000
0000
0100
0020
0000
0000
0000
0000
,  // measure 9
0000
0030
0000
0000
0000
0000
1000
0000
0100
0000
0010
0000
0100
0000
1000
0000
,  // measure 10
0001
0000
0010
0000
0001
0000
1000
0000
0100
0000
1000
1000
0000
0001
0000
0010
,  // measure 11
0010
0000
0200
0000
0300
0000
1000
0000
1000
0000
0100
0000
0010
0000
0000
0001
,  // measure 12
0000
0000
1000
0000
0010
0000
0000
0100
0000
0000
0100
0000
0200
0000
0000
0000
,  // measure 13
0000
0000
0300
0001
0010
0100
1100
0000
,  // measure 14
0010
0100
1001
0000
1100
0000
0110
0000
,  // measure 15
0101
0000
0001
1000
0100
0001
0000
0001
,  // measure 16
0010
1000
0000
0100
1000
0001
0100
0010
,  // measure 17
0100
0001
0020
0000
0000
0030
0002
0000
,  // measure 18
0000
0003
0000
0000
2000
0000
0000
0000
0000
3000
0010
0000
0100
0000
0001
0000
,  // measure 19
0010
0000
0100
0000
2000
0000
0000
0000
0010
0000
0000
0000
0001
0000
0000
0001
,  // measure 20
0000
0000
0002
0000
0000
3000
0003
0000
0000
0000
0100
0000
0010
0000
0100
0000
,  // measure 21
0001
0000
0010
0000
0100
0000
0000
0000
1000
0000
0000
0000
0010
0000
0000
0100
,  // measure 22
0000
0000
2000
0000
0000
0000
0000
3000
0000
0000
0100
0000
1000
0000
0100
0000
,  // measure 23
0010
0000
1000
0000
0200
0000
0000
0000
0320
0000
0000
0000
0032
0000
0000
0010
,  // measure 24
0003
0000
0001
0000
0010
0000
1000
0000
0010
0001
0000
0020
0000
0000
0000
0000
,  // measure 25
0030
0010
1000
0001
0010
0100
1000
0010
,  // measure 26
0100
0000
1000
0000
0100
0000
0000
0010
0000
0000
0010
0000
0000
0010
0000
0000
,  // measure 27
0100
0000
0001
0000
1000
0010
0100
0001
1000
0001
1000
0010
0100
0001
1000
0001
,  // measure 28
0010
0100
1000
0000
1001
0000
0000
0000
1010
0000
0000
0010
0000
0100
0000
0000
,  // measure 29
0001
0000
1000
0000
1001
0000
0000
0000
0110
0000
0000
1000
0000
0001
0000
0000
,  // measure 30
0100
0000
0010
0000
1010
0000
0000
0000
0110
0000
0000
0000
1001
0000
0000
0110
,  // measure 31
0000
0000
0001
0000
1000
0000
0000
0100
0000
0000
0010
0000
0200
0000
0000
0000
,  // measure 32
2000
0000
3300
0000
0001
0000
1000
0000
0001
0000
0100
0010
0000
0100
0010
0000
,  // measure 33
1000
0000
0100
0000
0020
0000
0000
0000
0031
0000
1000
0001
0000
1000
0001
0000
,  // measure 34
0100
0000
0001
0000
1001
0000
0000
0000
1100
0000
0000
0000
1010
0000
0000
0110
,  // measure 35
0000
0000
0001
1000
0010
0000
0000
0100
0000
0000
0001
0000
1000
0000
0100
0000
,  // measure 36
1000
0001
1000
0001
0100
0000
0001
0000
1000
0000
0100
1000
0000
0010
0100
0000
,  // measure 37
0001
0000
1000
0000
0100
0000
0010
0000
0001
0000
1000
0010
0000
1000
0010
0000
,  // measure 38
0100
0000
0001
1000
0100
0000
0010
0000
0002
0000
0000
0000
0013
0000
0000
0100
,  // measure 39
0000
0000
1000
0000
0100
0000
1000
0000
0010
0000
0100
0001
0000
1000
0100
0000
,  // measure 40
1000
0001
1000
0001
0100
0000
0001
0000
1000
0000
0100
1000
0000
0010
1000
0000
,  // measure 41
0010
0100
0001
0100
0010
0000
1000
0000
0001
0000
1000
0010
0000
0100
0001
0000
,  // measure 42
1000
0010
0100
0001
1000
0000
0100
0000
0020
0000
0000
0000
0032
0000
0000
0000
,  // measure 43
1003
0000
0100
0000
1000
0000
0000
0010
0000
0000
0100
0001
0000
0100
0001
0000
,  // measure 44
0010
0100
1000
0000
0001
0000
0010
0000
0100
0000
1000
0100
0000
1000
0100
0000
,  // measure 45
0010
0001
0100
0000
1000
0000
0100
0000
0010
0000
1000
0001
0000
1000
0001
0000
,  // measure 46
0001
1000
0100
0010
0002
0000
0000
0000
0000
0000
0000
0000
0000
0000
0000
0000
,  // measure 47
0003
0000
0000
0000
;
