#TITLE:Lost in Paradise;
#SUBTITLE:Jujutsu Kaisen Ending;
#ARTIST:ALI feat. AKLO;
#TITLETRANSLIT:;
#SUBTITLETRANSLIT:;
#ARTISTTRANSLIT:;
#GENRE:;
#CREDIT:Magna Trick;
#BANNER:LIPBN.jpg;
#BACKGROUND:LIPBG.jpg;
#LYRICSPATH:;
#CDTITLE:Magna Trick title!.png;
#MUSIC:Lost in Paradise.mp3;
#OFFSET:-0.050151;
#SAMPLESTART:40.500000;
#SAMPLELENGTH:14.000000;
#SELECTABLE:YES;
#BPMS:0.000000=122.000000
;
#STOPS:
;
#BGCHANGES:0.000=Lost in Paradise.avi=1.000=0=0=0=StretchNoLoop====,
178.500=LIPBG.jpg=1.000=0=0=1=====,
99999=-nosongbg-=1.000=0=0=0 // don't automatically add -songbackground-
;
#KEYSOUNDS:;
#ATTACKS:;

//---------------dance-single - ----------------
#NOTES:
     dance-single:
     :
     Challenge:
     14:
     0.624010,0.744180,0.465632,0.321508,0.548781,394.000000,352.000000,42.000000,29.000000,0.000000,0.000000,0.624010,0.744180,0.465632,0.321508,0.548781,394.000000,352.000000,42.000000,29.000000,0.000000,0.000000:
// measure 0
0000
0000
0000
0000
0010
0100
1000
0001
0000
0000
0000
0000
0000
0000
0000
0000
,  // measure 1
0000
0000
0000
2000
0000
0000
0000
0000
0000
0002
3000
0000
0000
0000
0000
0200
0003
0000
0000
0000
0000
0020
0300
0000
,  // measure 2
0000
0000
0000
0000
0030
0000
2000
0000
0000
0000
0000
0000
0000
0000
0000
3002
0000
0000
0000
0000
0000
0000
0000
0000
,  // measure 3
0000
0000
0003
0000
1000
0100
0000
1000
0000
0001
0000
0100
0000
0010
1000
0100
,  // measure 4
1000
0010
0100
0001
0010
0100
0010
0001
0000
0000
2000
0000
0000
0000
3001
1000
,  // measure 5
0001
0000
1000
0000
0100
0000
0010
0001
1000
0100
0100
0010
0000
0000
0020
0000
,  // measure 6
0000
0030
0010
0001
0100
0000
0010
0000
1000
0000
0100
0010
0001
0100
0100
0010
,  // measure 7
1000
0100
1000
0000
0100
0010
1000
0010
0001
0100
0010
0100
0001
1000
0100
0010
,  // measure 8
1000
0001
0000
0000
0001
0100
1000
0010
0001
0010
1000
0000
0010
0000
1000
0100
,  // measure 9
0010
0001
0100
0010
0000
1000
0100
0000
0010
0001
0010
0100
1000
0000
0000
1000
,  // measure 10
0001
0000
0000
0000
0100
1000
0100
0001
0010
0000
0000
0010
0001
0100
0010
1000
,  // measure 11
0001
0000
0000
1000
0100
0000
0000
1000
0001
0000
0000
0100
0010
0000
0100
0000
,  // measure 12
0001
1000
0000
0000
0002
0000
0000
0000
0203
0000
0000
0000
0320
0000
0000
0000
,  // measure 13
0230
0302
0000
2003
3000
1100
0000
0101
,  // measure 14
0000
0000
1001
0000
1000
0000
0000
0001
0100
0000
0000
0010
0100
0000
1000
0000
,  // measure 15
0001
0200
0010
0300
1000
0001
0010
1000
,  // measure 16
0100
0000
1000
0000
0002
0000
0000
0000
2003
0000
3000
0010
1000
0000
0001
0000
,  // measure 17
0100
0020
0000
0230
0300
0101
0000
1010
,  // measure 18
0000
0000
1001
0000
1000
0000
0000
0100
1000
0000
0000
0001
0010
0000
0001
0000
,  // measure 19
0100
1001
0000
1001
1001
1001
1001
0110
,  // measure 20
0201
0000
0000
0300
0001
0000
0001
0000
0100
0000
0100
0000
0010
0000
0010
0000
,  // measure 21
0100
0000
0100
0001
0001
0000
0001
0000
0100
0000
0100
0000
1000
0000
1000
0000
,  // measure 22
0100
0000
0010
0000
1000
0000
0100
0000
0010
0001
0000
0000
0010
0000
0001
1000
,  // measure 23
0000
0000
0010
1000
0001
0000
0100
0000
0010
1000
0000
0000
0100
0010
0001
1000
,  // measure 24
0000
0100
0010
0000
0001
0000
0010
0000
0200
0000
0310
0000
1000
0000
0010
0000
,  // measure 25
0100
0000
0010
0001
0001
0000
0010
0000
0100
0000
0010
0000
1000
0000
0010
0000
,  // measure 26
0100
0000
0010
0000
0001
0000
1000
0000
0010
0100
0000
0000
0100
0000
0010
0100
,  // measure 27
0000
0001
1000
0000
1100
0000
0000
0000
0101
0000
0000
0001
1000
0000
0010
0000
,  // measure 28
0100
0000
0001
0100
1010
0000
0000
0000
1100
0000
0000
0000
0011
0000
0001
0000
,  // measure 29
1000
0000
0020
0000
0000
0000
1030
0000
0100
0010
0000
0001
0000
0010
0000
0000
,  // measure 30
0100
0000
1000
0100
0011
0000
0001
0000
0101
0000
0000
0000
1010
0000
0010
0000
,  // measure 31
1000
0000
0002
0000
0000
0000
0013
0000
0001
1000
0000
0100
0000
0000
0010
0000
,  // measure 32
0001
0010
0000
0000
1010
0000
0000
0000
0101
0000
0000
0000
1001
0000
0010
0000
,  // measure 33
1000
0000
0200
0000
0000
0000
1300
0000
0100
1000
0000
0001
0000
0100
0000
0000
,  // measure 34
0010
0000
1000
0100
0011
0000
0000
0000
1100
0000
0000
0000
1001
0000
0010
0000
,  // measure 35
0100
0000
0002
1000
2000
0000
3003
0000
2000
0000
3000
0000
0100
1000
0001
1000
,  // measure 36
0010
0100
0000
0000
1100
0000
0000
0000
0101
0000
0000
0000
1001
0000
0001
0000
,  // measure 37
1000
0001
0000
0001
1000
0000
0100
0010
0100
0010
0001
1000
0100
0000
0010
0001
,  // measure 38
0010
0100
1000
0001
1001
0000
0001
0000
0011
0000
0000
0000
0011
0000
0001
0000
,  // measure 39
2000
0000
0000
0000
3000
0001
0100
0000
0100
0010
0000
0000
1000
0000
0010
0100
,  // measure 40
0000
0001
1000
0010
0101
0000
0000
0000
1100
0000
0000
0000
0101
0000
0010
0000
,  // measure 41
1000
0000
1100
0000
0101
0000
1100
0010
,  // measure 42
0001
0000
1010
0000
0011
0000
1010
0001
,  // measure 43
0100
0000
0000
0000
0001
0000
1000
0000
0100
0000
0010
0001
1000
0010
1000
0100
,  // measure 44
0010
0001
0100
0010
0002
0000
0000
0000
0000
0000
0000
0000
0003
0000
0000
0000
;

//---------------dance-single - ----------------
#NOTES:
     dance-single:
     :
     Hard:
     12:
     0.551156,0.595344,0.421286,0.421286,0.399113,348.000000,310.000000,38.000000,38.000000,0.000000,0.000000,0.551156,0.595344,0.421286,0.421286,0.399113,348.000000,310.000000,38.000000,38.000000,0.000000,0.000000:
0000
0000
0000
0000
1000
0001
1000
0001
0000
0000
0000
0000
0000
0000
0000
0000
,
0000
0000
0000
0002
0000
0000
0000
0000
0000
2000
0003
0000
0000
0000
0000
0020
3000
0000
0000
0000
0000
0200
0030
0000
,
0000
0000
0000
0000
0300
0000
0002
0000
0000
0000
0000
0000
0000
0000
0000
2003
0000
0000
0000
0000
0000
0000
0000
0000
,
0000
0000
3000
0000
0001
0010
0000
0001
0000
1000
0000
0010
0000
0100
0001
1000
,
0001
1000
0010
0100
0010
0100
0001
1000
0000
0000
0002
0000
0000
0000
1003
0001
,
1000
0000
0001
0000
0010
0000
0100
1000
0100
1000
0100
0010
0000
0000
0200
0000
,
0000
0300
0100
0010
0100
0000
0010
0000
0001
0000
1000
0001
1000
0000
0010
0000
,
0100
0000
0001
1000
0001
0000
0010
0000
0100
0000
1000
0010
1000
0000
0001
0000
,
1000
0001
0000
0000
1000
0000
0100
0010
0100
0010
0001
0000
0100
0000
0001
0010
,
0100
0000
0010
0100
0000
0010
0001
0000
1000
0100
1000
0100
0010
0000
0000
0001
,
1000
0000
0000
0000
0010
1000
0010
1000
0100
0000
0000
0100
1000
0000
0100
1000
,
0100
0000
0000
0010
0001
0000
0000
0001
1000
0000
0000
1000
0001
0000
0010
0000
,
0100
0010
0000
0000
0200
0000
0000
0000
0320
0000
0000
0000
0230
0000
0000
0000
,
0320
0032
0000
2003
3000
0011
0000
1010
,
0000
0000
1001
0000
0001
0000
0000
0000
0010
0000
0000
0100
0010
0000
0001
0000
,
1000
0020
0000
0130
0010
0000
1000
0001
,
0010
0000
0001
0000
2000
0000
0000
0000
3002
0000
0003
0100
0001
0000
1000
0000
,
0010
0200
0000
0320
0030
1010
0000
0101
,
0000
0000
1001
0000
0001
0000
0000
0010
0001
0000
0000
1000
0100
0000
1000
0000
,
0010
1001
0000
1000
1000
0001
0001
0100
,
1002
0003
2000
0000
3010
0010
0200
0000
,
0320
0000
1030
1000
0010
0010
0001
0001
,
0010
0000
0000
0100
0000
0000
0001
0000
0100
1000
0000
0000
0100
0000
0010
1000
,
0000
0000
0100
0010
0000
0000
0010
0000
0001
0100
0000
0000
0010
0100
0001
0100
,
0000
0010
0100
0000
2000
0000
0010
0000
3020
0000
0130
0000
0001
0000
0100
0000
,
0020
0000
1030
0100
0010
0100
0001
0100
,
0010
0000
0000
0100
0000
0000
1000
0000
0100
0010
0000
0000
0010
0000
0100
0010
,
0000
0000
0001
0000
0011
0000
0000
0000
1010
0000
0000
1000
0001
0000
0100
0000
,
0010
0000
1000
0001
1000
0000
0000
0000
0011
0000
0000
0000
1100
0000
1000
0000
,
0001
0000
0200
0000
0000
0000
0301
0000
0010
0100
0000
1000
0000
0100
0000
0000
,
0010
0001
1100
0000
1010
0000
0101
0100
,
0001
0000
2000
0000
0000
0000
3100
0000
1000
0001
0000
0010
0000
0000
0100
0000
,
1000
0100
0000
0000
0101
0000
0000
0000
1010
0000
0000
0000
1001
0000
0100
0000
,
0001
0000
0020
0000
0000
0000
0031
0000
0010
0001
0000
1000
0000
0010
0000
0000
,
0100
0000
0001
1000
0200
0000
0300
0000
0011
0000
0000
0000
1001
0000
0100
0000
,
0010
0000
2000
0000
0002
0000
3003
0000
0002
0000
0003
0000
0010
0001
0010
0100
,
1000
0100
0000
0000
0011
0000
0000
0000
1010
0000
0000
0000
1001
0000
1000
0000
,
0001
0000
1001
0000
0101
0000
0101
0001
,
1000
0000
1001
0000
1100
0000
1100
1000
,
0002
0000
0000
0000
0003
1000
0010
0000
0010
0100
0000
0000
0001
0000
0100
0010
,
0000
1000
1010
0000
0011
0000
1010
0100
,
0001
0000
0011
0000
1010
0000
0011
0100
,
1000
0000
0101
0000
1100
0000
0101
1000
,
0010
0000
0000
0000
2000
0000
0001
0000
3020
0000
0100
0000
2030
0000
0001
3000
,
0100
0010
0100
0010
2000
0000
0000
0000
0000
0000
0000
0000
3000
0000
0000
0000
;

//---------------dance-single - ----------------
#NOTES:
     dance-single:
     :
     Medium:
     8:
     0.356351,0.396896,0.110865,0.676275,0.127494,225.000000,215.000000,10.000000,61.000000,0.000000,1.000000,0.356351,0.396896,0.110865,0.676275,0.127494,225.000000,215.000000,10.000000,61.000000,0.000000,1.000000:
0000
0000
0000
0000
,
0000
0000
0000
0000
,
0000
0000
0000
0000
,
0000
0000
0000
0000
0001
1000
0000
0001
0000
1000
0000
0001
0000
0000
0000
0000
,
0000
0000
1000
0100
1000
0000
0010
0000
,
0100
0000
0001
0100
0001
0100
0000
0000
,
0000
0000
0010
1000
0010
0000
0100
0001
,
0100
0000
0001
1000
0001
1000
0001
0001
,
1000
0010
1000
0100
,
0010
0001
1000
0010
,
0100
0000
0010
0100
0010
0000
0100
0000
,
0001
1001
1001
0110
,
0110
0000
0010
1000
0010
0000
0100
0001
,
0100
0000
0001
0000
1000
0100
0000
1000
,
0000
0001
0100
0000
0010
0000
1000
0000
,
0001
1000
0000
0001
0000
1000
0100
1000
,
0100
1000
0001
0000
0010
0000
0001
0010
,
0001
0010
0000
0001
0000
1001
0000
0110
,
0000
0110
1001
0000
0100
0000
1000
0001
,
0100
0010
0000
1000
0001
1000
0001
1000
,
1001
0002
2003
3200
,
0320
0032
0203
0320
,
2030
0000
0000
3000
0001
0000
1000
0000
0000
0100
0000
0000
1000
0000
0000
0010
,
0000
0000
0100
0001
0000
0000
1000
0000
0000
0100
0000
0000
0010
0100
0010
0100
,
0000
0000
0010
0000
0002
0000
0000
0003
2000
0000
0000
0000
3020
0000
0000
0000
,
0230
0302
2003
3200
,
0320
0000
0000
0000
0031
0000
1000
0000
0000
0010
0000
0000
1000
0000
0000
0100
,
0000
0000
0010
0000
0002
0000
0000
0003
2000
0000
0000
3000
0020
0000
0000
0000
,
0230
0000
0000
0300
0002
0000
0000
0000
2003
0000
0000
0000
3200
0000
0000
0000
,
0310
0000
0200
0000
0000
0000
1300
0000
0001
0100
0000
0010
0000
1000
0000
0000
,
0001
1000
0002
0000
2003
0000
3200
0000
,
0310
0000
0002
0000
0000
0000
1003
0000
0010
0100
0000
0001
0000
1000
0000
0000
,
0100
1000
0002
0000
0023
0000
0230
0000
,
1300
0000
0002
0000
0000
0000
0103
0000
0010
1000
0000
0001
0000
0010
0000
0000
,
0100
1000
0002
0000
0203
0000
0320
0000
,
1030
0000
0001
0000
2000
0000
0000
3000
2000
0000
0000
3000
1000
0000
0001
0000
,
1000
0000
0020
0000
0230
0000
0301
1000
,
0200
0000
0000
0300
0020
0000
0000
0000
0032
0000
0000
0000
0103
0000
0010
0000
,
2000
0000
3200
0000
0320
0000
0031
0100
,
0020
0000
0000
0000
0000
0000
1030
0000
0001
1000
0000
0000
0001
0000
1000
0001
,
0000
0000
2000
0000
3200
0000
0310
0001
,
0200
0000
0320
0000
2030
0000
3100
0010
,
0002
0000
0203
0000
0320
0000
1030
0100
,
0020
0000
0000
0030
0002
0000
0000
0000
2003
0000
0000
0000
3002
0000
0000
0000
,
2003
3220
0000
0330
;

//---------------dance-single - ----------------
#NOTES:
     dance-single:
     :
     Easy:
     5:
     0.267659,0.322027,0.022173,0.266075,0.038803,169.000000,167.000000,2.000000,24.000000,0.000000,0.000000,0.267659,0.322027,0.022173,0.266075,0.038803,169.000000,167.000000,2.000000,24.000000,0.000000,0.000000:
0000
0000
0000
0000
,
0000
0000
0000
0000
,
0000
0000
0000
0000
,
0000
0000
0001
1000
0001
1000
0001
0000
,
1000
0100
0100
0000
,
1000
0001
0100
0000
,
0010
0000
0100
0000
,
0001
0000
0000
0000
1000
0000
0100
0100
,
0010
0001
1000
0000
,
0010
1000
0001
0100
,
0000
0010
0010
0000
,
0100
0000
0001
1000
,
1000
0001
1000
0001
,
0010
0000
0010
0000
0100
1000
0000
0001
,
0000
1000
0001
0000
0100
0000
0010
0000
,
0100
0001
0000
1000
0000
0000
0100
0000
,
1000
0001
1000
0010
,
1000
0001
0000
0100
0000
0001
0000
0001
,
0000
1000
0001
0000
1000
0000
0100
0000
,
0010
0100
0000
1000
0001
0000
1000
0000
,
1001
0001
0100
0010
,
1000
0001
0100
0010
,
1000
0000
0000
0000
0001
0000
1000
0000
0000
0001
0000
0000
0000
1000
0000
0000
,
0001
0000
1000
0001
0000
0000
1000
0000
0000
0001
0000
0000
1000
0000
0000
0001
,
0000
1000
0100
0000
0010
0000
0001
0000
,
1000
0100
0010
0001
,
1000
0000
0000
0000
0100
0000
0010
0000
0000
0001
0000
0000
1000
0000
0000
0001
,
0000
1000
0010
0000
0100
0000
0001
1000
,
0001
0000
0000
0000
2000
0000
3000
0000
0200
0000
0000
0300
0020
0000
0000
0030
,
0001
0000
0200
0000
0000
0300
0020
0000
0000
0000
0000
0000
0030
0000
0000
0000
,
0000
0000
0000
0000
2000
0000
0000
3000
0002
0000
0000
0000
0023
0000
0000
0000
,
0130
2000
0000
3002
0000
0000
0003
0000
,
0000
0200
0320
2030
,
3100
0000
0020
0000
0000
0030
0002
0000
0000
0000
0000
0000
0000
0003
0000
0000
,
0000
0000
0000
0000
0200
0000
0000
0300
0020
0000
0000
0000
2030
0000
0000
0000
,
3100
0020
0000
0032
0000
0000
0000
0003
,
0000
0000
1000
0000
1000
0000
0001
1000
,
0001
0000
1000
0000
1000
0000
0001
1000
,
0001
0000
1000
0000
1000
0000
0001
1000
,
0001
0000
0000
1000
0100
0000
1000
0000
,
0002
0000
0103
0000
0010
0000
1000
1000
,
1000
0000
0000
0000
0001
0000
0000
0000
0200
0000
0000
0300
0010
0000
0010
0000
,
0010
0000
1000
0000
0001
0000
0100
0100
,
0100
0010
0010
0010
,
0010
0000
0000
0000
0220
0000
0000
0000
0000
0000
0000
0330
0000
0000
0000
0000
;
