#TITLE:Limit Break x Survivor;
#SUBTITLE:Dragon Ball Super Opening 2;
#ARTIST:Kiyoshi Hikawa;
#TITLETRANSLIT:;
#SUBTITLETRANSLIT:;
#ARTISTTRANSLIT:;
#GENRE:;
#CREDIT:Magna Trick;
#BANNER:LMXSBN.jpg;
#BACKGROUND:LMXSB.jpg;
#LYRICSPATH:;
#CDTITLE:Magna Trick title!.png;
#MUSIC:Limit Break x Survivor.mp3;
#OFFSET:-0.040000;
#SAMPLESTART:55.799999;
#SAMPLELENGTH:18.000000;
#SELECTABLE:YES;
#BPMS:0.000000=187.500000
;
#STOPS:
;
#BGCHANGES:0.063=Limit Break x Survivor.avi=1.000=0=0=1=====,
259.000=LMXSB.png=1.000=0=0=1=====,
99999=-nosongbg-=1.000=0=0=0 // don't automatically add -songbackground-
;
#KEYSOUNDS:;
#ATTACKS:;

//---------------dance-single - ----------------
#NOTES:
     dance-single:
     :
     Hard:
     12:
     0.615778,0.908689,0.652392,0.081549,0.000000,370.000000,314.000000,56.000000,7.000000,0.000000,1.000000,0.615778,0.908689,0.652392,0.081549,0.000000,370.000000,314.000000,56.000000,7.000000,0.000000,1.000000:
0000
0000
0000
0000
,
0001
1000
0000
0000
1000
0001
0000
0000
,
0001
1000
0000
0001
0000
0001
0000
0000
,
0010
0100
0000
0000
0100
0010
0000
0000
,
0010
0100
0000
0100
0000
0000
1001
0000
,
0010
1000
0100
1000
0010
1000
0100
1000
,
0000
0000
0010
0001
0100
0001
0010
0001
,
0000
0000
1000
0001
1000
0001
1000
0001
,
0000
0010
0110
0000
1001
0000
0110
0000
,
0001
0000
0010
0000
0100
0000
1000
0100
,
0000
0010
0000
0001
1000
0000
0000
0000
,
1001
0000
0010
0000
1000
0000
0100
1000
,
0000
1000
0000
0100
1100
0000
0010
0000
,
0001
0000
0010
0000
0100
0000
0010
0001
,
0000
0001
0000
0010
0011
0000
0001
0000
,
0101
0100
1100
1000
,
1010
0010
0110
0100
,
0101
0001
1001
1000
,
1100
0100
0110
1000
,
0010
1000
0100
1000
0010
1000
0100
1000
,
0000
0010
0000
1000
1010
0000
0001
0000
,
0010
0001
0100
0001
0010
0001
0100
0001
,
0000
0010
0000
0001
0011
0000
0001
0000
,
0101
0100
1100
1000
,
1010
0010
0011
0001
,
0101
0100
0110
0010
,
1010
1000
1001
0001
,
0110
0110
0010
0100
,
1000
0001
0000
0001
1000
0000
0010
0000
,
0110
0110
0100
1000
,
0001
1000
0000
1000
0001
0000
0001
0000
,
0010
0000
0100
0000
1000
0001
1000
0000
,
0001
0000
1000
0000
0100
0010
0100
0000
,
0010
0000
0001
0100
0000
0100
0010
0000
,
1000
0000
0100
0010
0000
0010
0100
0000
,
0110
0110
0010
1000
,
0001
0010
0001
0010
0001
0000
0010
0000
,
0110
0110
0100
1000
,
0100
1000
0100
1000
0100
0000
1000
0000
,
0001
1000
0001
1000
0000
0000
0001
0000
,
1000
0001
1000
0001
0000
0000
1000
0000
,
0010
1000
0010
0100
0001
0100
0010
1000
,
0100
0010
0001
0010
0100
1000
0001
0000
,
1010
0000
0000
0101
0000
0000
0110
0000
,
1001
0000
0000
0000
0000
0010
1000
0100
,
1000
0000
0010
0000
0100
0001
0000
0002
,
0000
0000
0000
0000
0003
0010
0001
0100
,
0001
0000
0010
0000
0100
1000
0000
2000
,
0000
0000
0000
0000
3000
0001
1000
0010
,
0100
0000
0000
0110
0000
1000
0001
0100
,
0010
0000
0000
1001
0000
0001
0010
0100
,
1000
0001
0100
0010
,
1000
0000
0001
0000
1000
0001
1000
0001
,
1000
0000
0001
0000
0010
0100
0000
0200
,
0000
0000
0000
0000
0300
0010
0100
1000
,
1000
0010
1000
0100
0010
0001
0000
0010
,
0000
0001
1000
0000
0010
1000
0010
1000
,
1010
0000
0000
0110
0000
0001
0100
0001
,
0101
0000
0000
1001
0000
0001
1000
0100
,
0010
0010
0001
0001
,
1000
0000
1000
0000
0001
1000
0001
1000
,
0110
0100
0010
0110
0010
0100
0110
0010
,
0110
0100
0010
0110
0100
0010
0110
1000
,
1001
0000
0002
0000
2003
0000
3011
1100
,
0000
1100
0011
0110
2002
0000
0000
0000
,
3003
0000
0000
0000
;

//---------------dance-single - ----------------
#NOTES:
     dance-single:
     :
     Medium:
     10:
     0.542550,0.530068,0.582493,0.081549,0.000000,326.000000,276.000000,50.000000,7.000000,0.000000,0.000000,0.542550,0.530068,0.582493,0.081549,0.000000,326.000000,276.000000,50.000000,7.000000,0.000000,0.000000:
0000
0000
0000
0000
,
1000
0001
0000
0000
0001
1000
0000
0000
,
1000
0001
0000
1000
0000
1000
0000
0000
,
0100
0010
0000
0000
0010
0100
0000
0000
,
0100
0010
0000
0010
0000
0000
1001
0000
,
1000
0000
0001
0000
1000
0001
1000
0001
,
0000
0000
1000
0000
0001
1000
0001
1000
,
0000
0000
0001
0000
1000
0001
1000
0001
,
0000
0100
0010
0000
1001
0000
0110
0000
,
1000
0000
0100
0000
0010
0000
0001
0010
,
0000
0100
0000
1000
0001
0000
0000
0000
,
1001
0000
0100
0000
0001
0000
0010
0001
,
0000
0001
0000
0010
0010
0000
0100
0000
,
1000
0000
0100
0000
0010
0000
0100
1000
,
0000
1000
0000
0100
0100
0000
1000
0000
,
1001
0001
1001
1000
,
1001
0001
1001
1000
,
1001
0001
1001
1000
,
1001
0001
1001
0001
,
1000
0000
1000
0000
0001
0000
0001
1000
,
0000
1000
0000
0001
0001
0000
0000
0000
,
0001
0000
1000
0000
0001
0000
1000
0001
,
0000
0001
0000
1000
1000
0000
0001
0000
,
1001
1000
1001
0001
,
1001
1000
1001
0001
,
1001
1000
1001
0001
,
1001
1000
1001
0001
,
0110
0110
0100
0010
,
0100
0010
0000
0010
0100
0000
0100
0000
,
0110
0110
0010
0001
,
1000
0001
0000
0001
1000
0000
1000
0000
,
0100
0000
0010
0000
0001
0001
0001
0000
,
1000
0000
0001
0000
0010
0010
0010
0000
,
0100
0000
0100
0010
0000
0010
0100
0000
,
1000
0000
0010
0100
0000
0100
0010
0000
,
0110
0110
0100
0001
,
1000
0100
0000
0100
1000
0000
0100
0000
,
0110
0110
0010
0001
,
0010
0001
0000
0001
0010
0000
0001
0000
,
1000
0001
0000
0001
0000
0000
1000
0000
,
0001
1000
0000
1000
0000
0000
0001
0000
,
0101
0000
0000
1010
0000
0000
1100
0000
,
0000
0011
0000
0000
1001
0000
1001
0000
,
0110
0000
0000
1001
0000
0000
0110
0000
,
1001
0000
0000
0000
0000
0100
0001
0010
,
0001
0000
0100
0000
0010
1000
0000
2000
,
0000
0000
0000
0000
3000
0100
1000
0010
,
1000
0000
0100
0000
0010
0001
0000
0002
,
0000
0000
0000
0000
0003
1000
0001
0100
,
0010
0000
0000
0110
0000
0001
1000
0010
,
0100
0000
0000
1001
0000
1000
0100
0010
,
0001
1000
0010
0100
,
0001
1000
0100
0010
,
0001
0000
1000
0000
0100
0010
0000
0020
,
0000
0000
0000
0000
0030
0100
0010
0001
,
0001
0000
0001
0000
0100
0010
0000
0100
,
0000
0010
1000
0000
0100
0001
0100
0001
,
0001
0000
0000
0110
0000
1000
0010
1000
,
1000
0000
0000
1001
0000
1000
0001
0010
,
0100
0100
1000
1000
,
0001
0000
0001
0000
1000
0001
1000
0001
,
0110
0000
0000
0110
0000
0000
0110
0000
,
0110
0000
0000
0110
0000
0000
0110
0000
,
1001
0000
2000
0000
3002
0000
1003
0001
,
0000
0001
1000
0001
2002
0000
0000
0000
,
3003
0000
0000
0000
;

//---------------dance-single - ----------------
#NOTES:
     dance-single:
     :
     Easy:
     4:
     0.254633,0.377892,0.011650,0.011650,0.000000,153.000000,152.000000,1.000000,1.000000,0.000000,0.000000,0.254633,0.377892,0.011650,0.011650,0.000000,153.000000,152.000000,1.000000,1.000000,0.000000,0.000000:
0000
0000
0000
0000
,
0000
0000
0000
0000
,
0000
0000
0000
0000
,
0000
0000
0000
0000
,
0000
0000
0000
1001
,
0001
0000
1000
0000
,
0001
0000
1000
0000
,
0001
0000
1000
0000
,
0001
0000
1000
0000
,
0010
0010
0100
0100
,
0010
0100
0010
0000
,
1000
1000
0001
0001
,
1000
0001
1000
0000
,
0010
0010
0100
0100
,
0010
0100
0010
0000
,
0001
0000
1000
0000
,
0010
0000
0100
0000
,
0001
0000
1000
0000
,
0100
0000
0010
0000
,
0001
0001
1000
1000
,
0010
0100
0001
0000
,
0001
0001
0100
0100
,
0010
1000
0100
0000
,
0010
0000
0001
0000
,
1000
0000
0001
0000
,
0100
0000
0010
0000
,
0100
0000
0010
0000
,
0010
0010
0000
0000
,
0000
0000
0000
0000
,
0100
0100
0000
0000
,
0000
0000
0000
0000
,
0001
1000
0001
0000
,
1000
0001
1000
0000
,
0010
0100
0010
0100
,
0010
0010
0100
0100
,
1000
0001
0000
0000
,
0000
0000
0000
0000
,
0001
1000
0000
0000
,
0000
0000
0000
0000
,
1000
0000
0000
0100
0000
0000
0000
0000
,
0010
0000
0000
0001
0000
0000
0000
0000
,
1000
0000
0000
0001
0000
0000
1000
0000
,
0000
0001
0000
0000
0100
0000
0010
0000
,
0100
0000
0000
0010
0000
0000
0010
0000
,
1000
0000
0000
0000
,
0001
0001
1000
1000
,
0001
0000
0000
0000
,
0001
0001
1000
1000
,
0001
0000
0000
0000
,
0010
0000
0000
0100
0000
0000
0000
0000
,
0010
0000
0000
0100
0000
0000
0000
0000
,
1000
1000
0001
0001
,
0100
0000
0000
0000
,
0010
1000
0010
1000
,
1000
0000
0000
0000
,
0001
0100
0001
0100
,
0100
0000
0000
0000
,
0010
0000
0000
1000
0000
0000
0000
0000
,
0001
0000
0000
0100
0000
0000
0000
0000
,
0010
0010
1000
1000
,
0001
0001
0100
0100
,
0010
0000
0000
1000
0000
0000
0001
0000
,
0100
0000
0000
0010
0000
0000
1000
0000
,
0100
0000
0100
0000
0010
0000
0010
0001
,
0000
0001
1000
0001
2000
0000
0000
3000
;

//---------------dance-single - ----------------
#NOTES:
     dance-single:
     :
     Challenge:
     17:
     0.935317,1.173723,1.025187,0.151448,0.314546,562.000000,474.000000,88.000000,13.000000,0.000000,1.000000,0.935317,1.173723,1.025187,0.151448,0.314546,562.000000,474.000000,88.000000,13.000000,0.000000,1.000000:
// measure 0
0000
0000
0000
0000
0000
0001
1001
0000
,  // measure 1
1100
1100
0100
0010
0110
0110
0010
0001
,  // measure 2
0011
0011
0001
1001
1000
1001
0001
0100
,  // measure 3
0110
0110
0010
1000
1010
1010
0010
0100
,  // measure 4
0101
0101
0001
1001
0000
0001
1001
0000
,  // measure 5
0100
0000
0001
0000
0010
0001
0100
0001
0100
0010
1000
0010
1000
0100
0010
0000
,  // measure 6
0001
0010
0001
0010
0100
1000
0100
1000
0010
0100
0010
0100
0001
1000
0100
0000
,  // measure 7
0010
0001
0010
0001
0100
0010
0100
0010
1000
0001
1000
0001
0100
0010
1000
0000
,  // measure 8
0001
0100
0110
0010
0110
0100
0110
0000
,  // measure 9
2000
0000
3200
0000
0320
0000
0032
0023
,  // measure 10
0000
0000
0000
0000
0000
0000
0230
0000
0000
0000
0000
0000
0000
0000
0000
0000
0000
0000
2300
0000
0000
0000
0000
0000
3002
0000
0000
0000
0000
0000
0003
0000
0000
0000
0000
0100
0010
0000
0000
0000
0000
0000
0000
0000
0000
0000
0000
0000
,  // measure 11
1001
0100
0010
0001
0001
0100
0010
1000
,  // measure 12
0000
1000
0000
0001
1001
0000
0100
0000
,  // measure 13
1000
0100
0010
0001
0001
1000
1000
0001
,  // measure 14
0000
0001
0000
1000
1001
0000
1000
0000
,  // measure 15
1010
1000
0010
0000
0011
0010
0001
0000
,  // measure 16
0101
0001
0100
0000
0110
0100
0010
0000
,  // measure 17
1010
0010
1000
0000
1001
1000
0001
0000
,  // measure 18
0011
0001
0010
0000
0110
0010
0010
0010
,  // measure 19
0001
1000
0010
0100
0001
0001
0010
0001
,  // measure 20
0000
1000
0000
0001
1001
0000
1000
0000
,  // measure 21
0100
1000
0010
0100
0001
0001
1000
1000
,  // measure 22
0000
0001
0000
1000
1001
0000
1000
0000
,  // measure 23
1010
1000
0010
0000
0011
0010
0001
0000
,  // measure 24
0101
0001
0100
0000
1100
0100
1000
0000
,  // measure 25
1010
1000
0010
0000
0110
0010
0100
0000
,  // measure 26
0101
0100
0001
0000
1001
0001
1000
0000
,  // measure 27
0110
0110
0100
0010
,  // measure 28
1000
0001
0001
0001
1000
0000
0100
0000
,  // measure 29
0110
0110
0010
0001
,  // measure 30
1000
0000
0001
0000
0001
0000
0001
0000
1000
0000
0000
0000
1000
0100
1000
0100
,  // measure 31
0010
0000
0010
0000
0001
1000
0001
0100
,  // measure 32
0010
0000
1000
0000
0010
0100
0010
1000
,  // measure 33
0001
0000
1000
0010
0001
0010
0100
0000
,  // measure 34
0001
0000
0010
0100
1000
0100
0010
0000
,  // measure 35
0110
0110
0100
1000
,  // measure 36
0001
0100
1000
0100
0001
0000
0100
0000
,  // measure 37
0110
0110
0010
1000
,  // measure 38
0001
0000
0010
0000
1000
0000
0010
0000
0001
0000
0000
0000
0001
1000
0100
0010
,  // measure 39
0011
0011
0000
1100
0000
0000
1001
0000
,  // measure 40
0110
0110
0001
2000
0000
3000
1001
0000
,  // measure 41
0101
0001
0100
0110
0010
1000
1100
0100
,  // measure 42
0010
0011
0001
1000
1010
0010
0110
0000
,  // measure 43
0101
0000
0000
1010
0000
0000
0110
0000
,  // measure 44
1001
0000
0000
0000
0000
0000
0000
0000
0000
0000
0000
0001
1000
0000
0000
0001
0000
0000
0100
0000
0000
0010
0000
0000
,  // measure 45
0100
0000
0001
0000
1000
0000
0100
0000
0010
0100
0010
0001
0100
0001
0100
0010
,  // measure 46
1000
0100
1000
0100
1000
0100
1000
0000
0100
0000
0010
0000
0001
0000
0001
0000
,  // measure 47
0100
0000
0010
0000
1000
0000
0001
0000
0001
0100
0010
1000
0010
0100
1000
0100
,  // measure 48
0001
0010
0001
0010
0001
0010
0001
0000
0100
0000
0010
0000
0010
0000
1000
0000
,  // measure 49
0100
0010
0001
0101
0100
0010
1000
1000
,  // measure 50
0001
0010
0100
1100
1000
0100
0010
0001
,  // measure 51
0001
1000
0001
0001
1000
0001
1000
1000
,  // measure 52
0001
0000
0010
0000
0100
0000
0010
0000
0001
0100
0001
1000
0100
1000
0010
0100
,  // measure 53
0010
0100
0010
0100
0001
0100
0010
0010
,  // measure 54
1000
0100
0010
0001
0010
0100
1000
0000
1000
0000
0100
0000
0100
0000
1000
0000
,  // measure 55
1000
0001
0001
0100
0010
0100
0001
1000
,  // measure 56
1000
0001
0100
0010
0100
0001
1000
0100
0010
0000
0001
0000
1000
0000
1000
0000
,  // measure 57
0001
0100
0010
0110
0010
1000
0100
0010
,  // measure 58
0001
0010
0100
0110
0100
1000
0010
0100
,  // measure 59
0101
0001
1001
1000
1100
0100
0110
0010
,  // measure 60
0011
0000
0001
0000
1000
0000
0001
0000
0100
0000
0001
0000
1000
0001
1000
0001
,  // measure 61
0110
0010
0100
0110
0100
0010
0110
0100
,  // measure 62
0110
0000
0010
0000
0100
0000
0110
0000
0010
0000
0100
0000
0110
0001
1000
0100
,  // measure 63
1001
0000
2000
0000
3002
0000
1103
0011
,  // measure 64
0000
0011
1100
0110
2002
0000
0000
0000
,  // measure 65
3003
0000
0000
0000
;
