#TITLE:Let It Rip;
#SUBTITLE:Beyblade Opening 1 Latino;
#ARTIST:Ezequiel Serrano;
#TITLETRANSLIT:;
#SUBTITLETRANSLIT:;
#ARTISTTRANSLIT:;
#GENRE:;
#CREDIT:;
#BANNER:LIRBN.jpg;
#BACKGROUND:LIRBG.jpg;
#LYRICSPATH:;
#CDTITLE:cdtitleitachi.png;
#MUSIC:Beyblade Opening Latino.ogg;
#OFFSET:-0.013000;
#SAMPLESTART:12.956421;
#SAMPLELENGTH:21.473686;
#SELECTABLE:YES;
#BPMS:0.000000=190.000000
;
#STOPS:
;
#BGCHANGES:0.063=Beyblade Opening Latino.avi=1.000=0=0=1=====,
189.333=LIRBG.jpg=1.000=0=0=1=====,
99999=-nosongbg-=1.000=0=0=0 // don't automatically add -songbackground-
;
#KEYSOUNDS:;
#ATTACKS:;

//---------------dance-single - ----------------
#NOTES:
     dance-single:
     :
     Easy:
     5:
     0.297158,0.432455,0.232972,0.249613,0.000000,125.000000,111.000000,14.000000,15.000000,0.000000,0.000000,0.297158,0.432455,0.232972,0.249613,0.000000,125.000000,111.000000,14.000000,15.000000,0.000000,0.000000:
0000
0000
0000
0000
,
0000
0000
0000
0000
,
0000
0000
0000
0000
,
0000
0000
0000
0000
,
0000
1000
1000
1000
,
0010
0000
0010
0000
,
0010
1000
0010
1000
,
0001
0001
1000
0010
,
1000
0000
0001
0000
0000
0001
0000
0000
,
0002
0000
0003
0000
,
0000
1000
0000
1000
,
0000
1000
0000
1000
,
0000
0010
0000
0100
,
0000
0100
0000
0010
,
0000
0100
0100
0100
,
0000
0000
0000
0001
0000
0000
0001
0000
,
0000
0000
1000
0000
0000
1000
0000
0000
,
2000
0000
3000
0000
,
0110
0000
0110
0000
0000
0220
0000
0000
,
0000
0000
0000
0330
,
0000
1000
1000
0001
,
0001
0100
0020
0030
,
0100
0001
1000
0001
,
1000
0002
1003
0000
,
0010
0100
0100
0001
,
0001
0000
1000
0000
0000
1000
0000
0000
,
0010
0100
0100
0001
,
0100
0100
0000
0100
0000
0100
0000
0000
,
0000
0010
1000
2000
,
0000
3000
0000
0000
0001
0000
0001
0000
,
0001
0001
0000
0001
,
0000
0002
0000
0000
0003
0000
0000
0000
,
1000
0000
1001
0000
0000
2002
0000
0000
,
0000
0000
0000
3003
,
0000
0000
0110
0000
0000
0202
0000
0000
,
0000
0000
0000
0000
0000
0303
0000
0000
,
0000
0000
1100
0000
0000
1100
0000
0000
,
0022
0000
0000
0033
,
0000
1000
1000
1000
,
1000
1000
1000
1000
,
1000
0002
0000
0000
,
0000
0000
0000
0000
0000
0000
0000
0003
,
0000
1001
0010
0100
,
0001
1000
0001
1000
,
0010
1010
0001
0100
,
0010
0100
0001
1000
,
0001
1001
0010
0100
,
0001
1001
0000
0000
;

//---------------dance-single - ----------------
#NOTES:
     dance-single:
     :
     Medium:
     7:
     0.394626,0.551853,0.416022,0.249613,0.000000,166.000000,141.000000,25.000000,15.000000,0.000000,0.000000,0.394626,0.551853,0.416022,0.249613,0.000000,166.000000,141.000000,25.000000,15.000000,0.000000,0.000000:
0000
0000
0000
0000
,
0000
0000
0000
0000
,
0000
0000
0000
0000
,
0000
0000
0000
0000
,
0000
0000
1000
0000
0010
0000
1000
0010
,
1000
0010
0000
1000
0000
1000
0000
1000
,
0000
0000
1000
0000
0010
0000
0100
0010
,
0100
0010
0000
0100
0000
0100
0000
0100
,
0000
0000
1001
0000
0000
1001
0000
0000
,
2002
0000
0000
3003
,
0000
1000
0001
0100
,
0010
0100
0010
0100
0000
0001
0000
0000
,
1000
0100
1000
0000
0100
0000
1000
0000
,
0010
1000
0010
1000
0000
0010
0000
0000
,
0100
0100
0100
0100
,
0000
0000
0000
0001
0000
0000
1000
0000
,
0001
0000
0100
0000
0000
0010
0000
0000
,
0010
0000
0000
0000
,
1001
0000
1001
0000
0000
2002
0000
0000
,
0000
0000
0000
0000
0000
0000
0000
3003
,
0000
0000
1000
0000
0100
0000
1000
0100
,
1000
0100
0000
1000
0000
0010
0000
0100
,
0001
0000
0100
0000
0001
0000
0010
0001
,
0010
0001
0000
1000
0000
1000
0000
1000
,
0001
0000
1000
0010
1000
0000
0001
0000
,
0100
0010
0100
0010
0000
0100
0000
0000
,
0001
1001
0110
1001
,
0100
1000
0100
1000
0000
0010
0000
0000
,
0100
0100
0001
0100
,
0000
0000
0000
0000
0001
1000
0001
0000
,
1000
0100
0000
0010
,
0000
0002
0000
0003
0000
0000
0000
0000
,
1001
0000
0110
0000
0000
2002
0000
0000
,
0000
0000
0000
3003
,
0000
0000
1001
0000
0000
2200
0000
0000
,
0000
0000
0000
3300
,
0000
0100
1000
0000
0000
0100
0000
0000
,
0020
0000
0000
0000
0000
0030
0000
0000
,
0000
2001
0001
0001
,
0001
0001
0001
0001
,
0001
3000
0220
0000
0000
0000
0000
0000
,
0000
0000
0000
0000
,
0330
1001
0010
0100
,
1001
1001
0100
0100
,
0010
1001
0001
1000
,
1001
1001
0001
1000
,
1001
0000
1001
0000
0001
0010
0000
0100
,
1000
0000
2002
3003
0000
0000
0000
0000
;

//---------------dance-single - ----------------
#NOTES:
     dance-single:
     :
     Hard:
     11:
     0.648994,0.788361,0.765480,0.232972,0.049923,273.000000,227.000000,46.000000,14.000000,0.000000,0.000000,0.648994,0.788361,0.765480,0.232972,0.049923,273.000000,227.000000,46.000000,14.000000,0.000000,0.000000:
0000
0000
0000
0000
,
0000
0000
0000
0000
,
0000
0000
0000
0000
,
0000
0000
0000
0000
,
0000
0000
1000
0100
1000
0010
1000
0100
,
1000
0100
0000
1100
0000
1100
0000
1100
,
1100
0000
0010
0100
0001
0100
0010
0100
,
0001
0100
0000
0101
0000
0101
0000
0101
,
0101
0000
1001
0000
1001
1001
0000
0110
,
0120
0000
0100
0000
0100
0000
0100
0030
,
1001
0000
1000
0100
1000
0010
0100
0000
,
0001
0100
0010
0100
0000
0001
0000
0000
,
1000
0100
1000
0000
1100
0000
0110
0000
,
0001
0010
0100
1000
0000
0101
0000
0001
,
0010
0100
1000
0000
1001
0000
0110
0000
,
0001
0000
1000
0010
1000
0001
1000
0000
,
0010
0010
0100
0001
0000
0101
0000
0101
,
0101
0000
1000
0100
1000
0000
0010
1000
,
0100
0000
1100
0000
0000
2200
0000
0000
,
0000
0000
3300
0000
0001
0000
1000
0001
,
1000
0001
1000
0010
0100
0001
0100
0010
,
0100
0001
0000
1001
0000
1001
0000
1001
,
1001
0000
1000
0100
0010
0001
1000
0100
,
0010
0001
0000
1001
0000
1001
0000
1001
,
1001
0000
1000
0010
0010
0000
1000
0000
,
0001
0001
0100
0010
0000
0100
0000
0001
,
1000
0001
1001
0000
0110
0000
1001
0000
,
1000
0100
1000
0010
0000
0100
0000
0000
,
0010
0010
0100
0000
1001
0000
0001
2000
,
0000
0000
3000
0000
0010
0100
0001
0000
,
1000
0001
0001
2000
0000
3000
0010
0100
,
0000
0002
0000
0000
0000
0000
0003
0000
,
1001
0000
1001
0000
0000
0220
0000
0000
,
0000
0000
0000
0000
0330
0000
0001
0010
,
0100
1000
0011
0000
0000
0022
0000
0000
,
0000
0000
0000
0030
0000
0000
1003
0000
0100
0000
0010
0000
0001
0000
0010
0000
0100
0000
1000
0000
0100
0000
0010
0000
,
0001
0000
1000
0000
1000
0001
0000
1000
,
0020
0000
0000
0000
,
0030
2100
0010
0001
,
0010
0100
0010
0001
,
0010
0000
3001
0001
1000
1000
0010
0010
,
0100
0100
0001
1000
0100
0010
0001
1000
,
0100
0010
0001
0000
1001
0000
0010
1000
,
0001
0100
0001
0100
0001
1000
0010
1000
,
0010
1000
0101
0000
0101
0000
0100
0010
,
0100
0001
1000
0001
1000
0001
1000
0100
,
0010
0001
1000
0000
0001
1000
0000
0001
,
1000
0000
2002
3003
0000
0000
0000
0000
;

//---------------dance-single - ----------------
#NOTES:
     dance-single:
     :
     Challenge:
     14:
     0.727444,0.905818,0.832044,0.249613,0.216331,306.000000,256.000000,50.000000,15.000000,0.000000,1.000000,0.727444,0.905818,0.832044,0.249613,0.216331,306.000000,256.000000,50.000000,15.000000,0.000000,1.000000:
// measure 0
0000
0000
0000
0000
,  // measure 1
0000
0000
0000
0000
,  // measure 2
0000
0000
0000
0000
,  // measure 3
0000
0000
0000
0000
,  // measure 4
0000
0000
1000
0100
0100
0001
1000
0100
,  // measure 5
0100
0001
0000
1001
0000
1001
0000
1001
,  // measure 6
1001
0000
0001
0100
0100
1000
0001
0100
,  // measure 7
0100
1000
0000
1001
0000
1010
0000
1001
,  // measure 8
1010
0000
1010
0000
0010
0110
0000
0100
,  // measure 9
0120
0000
0001
0000
0130
0000
1000
0100
,  // measure 10
0010
0000
1000
1000
0010
0001
0010
1000
,  // measure 11
0001
0001
1000
0100
0000
1001
0000
0000
,  // measure 12
0100
1000
0010
0000
0101
0000
1001
0000
,  // measure 13
1000
0100
0100
0001
0000
0010
0000
1000
,  // measure 14
0100
0001
0010
0000
0110
0000
0011
0000
,  // measure 15
1001
0000
0000
1000
0100
0100
0100
0000
,  // measure 16
1000
0100
0001
0010
0000
1001
0000
0010
,  // measure 17
0100
0000
0010
0100
0001
1000
0100
0010
,  // measure 18
0001
0000
0020
0000
0000
1031
0000
0000
,  // measure 19
0102
0000
0000
0000
1000
0000
0000
0000
0010
0000
0003
0000
1000
0100
0010
0000
,  // measure 20
0001
0010
0100
0000
1000
0000
0100
0000
0100
0000
0001
0000
1000
0000
0100
0000
,  // measure 21
0100
0001
0000
0011
0000
0011
0000
0001
,  // measure 22
0011
0000
0001
0010
0010
1000
0001
0010
,  // measure 23
0010
1000
0000
1010
0000
1010
0000
0100
,  // measure 24
0101
0000
0100
0001
0010
0000
0001
0000
,  // measure 25
0010
0001
1000
0100
0000
0011
0000
0001
,  // measure 26
0010
0001
1010
0000
0110
0000
0101
0000
,  // measure 27
0001
0010
0100
1000
0000
1010
0000
0000
,  // measure 28
1000
0100
0010
0000
1001
0000
0001
2000
,  // measure 29
0000
0000
3000
0000
0010
0100
0010
0000
,  // measure 30
0100
0010
0100
0110
0000
0000
0001
0101
,  // measure 31
0000
0022
0000
0000
0000
0033
0000
0000
,  // measure 32
1100
0000
0110
0000
0000
0022
0033
0000
,  // measure 33
2002
0000
3003
0000
1000
0001
1000
0001
1000
0010
0100
0001
1000
0001
1000
0010
,  // measure 34
0100
0000
1010
0000
0000
0110
0000
0000
,  // measure 35
0110
0000
0000
0000
0000
0000
0000
0000
0000
0110
0000
0000
1000
0000
0001
0000
0010
0000
0100
0000
1000
0000
0001
0000
,  // measure 36
0010
0100
1000
0000
1000
0110
0000
1001
,  // measure 37
0012
0000
1000
0000
1000
0003
1000
0000
,  // measure 38
1000
2100
0010
0001
,  // measure 39
0010
0001
0010
0001
,  // measure 40
0020
3000
0100
0000
1000
0000
0001
0000
,  // measure 41
0100
0000
0030
0000
1000
0100
0010
0001
1000
0001
0010
0100
1000
0001
1000
0100
,  // measure 42
0010
0001
1000
0001
1000
0000
0000
0000
1010
0000
0000
0000
0010
0000
0100
0000
,  // measure 43
0001
0000
1000
0100
0100
0010
1000
0001
,  // measure 44
0010
0001
1000
0000
0110
0000
1000
0100
,  // measure 45
0100
0001
0001
0010
0100
0010
0001
0100
,  // measure 46
0010
0000
0000
1000
0000
0000
0001
0000
0000
0010
0000
0000
0100
0000
0010
0000
0001
0000
1000
0000
0100
0000
0010
0000
,  // measure 47
0001
0100
0010
2002
3003
0000
0000
0000
0000
0000
0000
0000
;
