#TITLE:Let Me Hear;
#SUBTITLE:Parasyte Opening;
#ARTIST:Fear, and Loathing in Las Vegas;
#TITLETRANSLIT:;
#SUBTITLETRANSLIT:;
#ARTISTTRANSLIT:;
#GENRE:;
#CREDIT:Magna Trick;
#BANNER:LMHBN.png;
#BACKGROUND:LMHB.png;
#LYRICSPATH:;
#CDTITLE:Magna Trick title!.png;
#MUSIC:Let Me Hear.mp3;
#OFFSET:-0.058998;
#SAMPLESTART:32.500000;
#SAMPLELENGTH:11.000000;
#SELECTABLE:YES;
#BPMS:0.000000=184.000000
,183.500000=92.000000
,211.500000=184.000000
;
#STOPS:183.000000=1.140000
;
#BGCHANGES:0.083=Let Me Hear.avi=1.000=0=0=1=====,
240.500=LMHB.png=1.000=0=0=1=====,
99999=-nosongbg-=1.000=0=0=0 // don't automatically add -songbackground-
;
#KEYSOUNDS:;
#ATTACKS:;

//---------------dance-single - ----------------
#NOTES:
     dance-single:
     :
     Hard:
     9:
     0.487176,0.569556,0.390059,0.312047,0.066867,306.000000,271.000000,35.000000,28.000000,0.000000,0.000000,0.487176,0.569556,0.390059,0.312047,0.066867,306.000000,271.000000,35.000000,28.000000,0.000000,0.000000:
0000
0000
0001
1000
0001
1000
0000
0000
,
0001
0000
1000
0001
0000
2000
0000
0000
,
0000
3000
0100
0010
0000
0200
0000
0300
,
0010
0000
0100
0010
0000
0002
0000
0000
,
1003
0000
0001
0100
0000
0020
0000
0000
,
0030
0000
1000
0200
0000
0320
0000
0000
,
0030
0000
0001
0200
0000
0320
0000
0000
,
1030
0000
0001
2000
0000
3002
0000
0000
,
1003
0000
0100
1000
0000
0001
0000
0000
,
0101
0000
1100
0000
,
0101
0000
1100
0000
,
0011
0000
1010
0000
,
0011
0000
1010
1001
0000
0000
0000
0000
,
1001
0000
1001
0000
,
0110
0000
0110
0000
,
1010
0000
0101
0001
,
0001
0000
0000
0000
0001
1000
0001
1000
0001
0000
0000
0000
2000
0000
0000
0000
,
0000
0010
0000
0000
0001
0000
0000
0100
,
0000
0010
0010
0100
,
0000
0001
0000
0000
0010
0000
0000
0100
,
0000
0000
0000
0000
3010
0100
0010
0100
0010
0100
0010
0100
0010
0000
0000
0000
,
0000
1010
0000
0000
0101
0000
0000
0011
,
0000
1100
0001
1000
,
0000
0110
0000
0000
1001
0000
0000
0000
,
1000
0000
0100
0100
1000
0001
0100
0000
,
0100
0000
0010
0100
0010
0000
1000
0000
,
0010
0000
1000
0010
1000
0000
0001
0000
,
0010
0000
0001
0010
0001
0000
1000
0000
,
0001
0000
0100
0010
0100
0000
0010
0000
,
1000
0000
0001
1000
0001
0000
0010
0000
,
0100
0000
0010
0100
0010
0000
0100
0000
,
1000
0000
0001
1000
0001
0000
0100
0000
,
0010
0000
1000
0010
1000
0000
0001
0000
,
0100
0000
0001
0100
0001
0000
1000
0000
,
0001
0000
0010
0001
0010
0000
0001
0000
,
1000
0000
0100
1000
0100
0000
1000
0000
,
0001
0100
0010
1000
,
0001
0001
1000
1000
,
0001
0010
0100
0010
,
0010
0100
0100
1000
,
0001
0000
0100
0001
0100
0000
0101
0000
,
0101
0101
0101
0101
,
1000
0100
0010
0001
,
0001
0010
0100
0000
1000
0000
0001
0100
,
0010
0000
0100
0000
0010
1000
1000
0001
,
0001
0000
1000
0000
1000
0000
0001
0000
0001
0000
1000
0000
2000
3000
0001
0000
,
0000
0101
0000
1000
0000
1100
0000
0001
,
0000
0000
0011
0000
0000
0000
1000
1000
0000
0000
1010
0000
0000
0000
0001
0000
,
0000
1001
0000
1000
0000
1001
0000
0010
,
0000
0110
0000
0100
0000
0110
0000
1000
,
0010
1000
0001
0000
0000
0000
0200
0000
0000
0302
0000
0000
2003
0000
3200
0000
,
0000
0320
0000
0000
0230
0000
2300
0000
0000
3002
0000
0000
0203
0000
0320
0000
,
0000
0000
0030
0000
0020
0000
2030
0000
0000
3002
0000
0000
0203
0000
0310
0000
,
1000
0010
1000
0010
1000
0010
1000
0010
,
1000
0010
1000
0010
1000
0100
1000
0010
,
1000
0010
1000
0100
1000
0001
0100
0001
,
1000
0010
0100
0001
1000
0010
0000
0010
,
1000
0100
0010
0100
0010
0100
0010
0001
,
0000
0010
0000
0001
0001
1000
0000
2002
,
0000
0000
0000
0000
,
0000
3003
0000
0000
0000
0000
0000
0000
;

//---------------dance-single - ----------------
#NOTES:
     dance-single:
     :
     Medium:
     6:
     0.386875,0.470021,0.234035,0.122590,0.005572,243.000000,222.000000,21.000000,11.000000,0.000000,0.000000,0.386875,0.470021,0.234035,0.122590,0.005572,243.000000,222.000000,21.000000,11.000000,0.000000,0.000000:
0000
0000
0000
0001
,
0001
0001
0001
1000
,
1000
1000
1000
0010
,
0010
0010
0010
0100
,
0100
0100
0100
0001
,
0001
0001
0001
1000
,
1000
1000
1000
0100
,
0100
0100
0100
0010
,
0010
0010
0010
0001
,
1001
0000
1010
0000
,
1001
0000
0011
0000
,
1001
0000
1100
0000
,
1001
0000
0101
0101
0000
0000
0000
0000
,
1001
0000
1010
0000
,
1001
0000
0011
0000
,
1001
0000
1010
0000
,
1001
0001
1000
0001
,
0000
1000
0000
0000
0001
0000
0000
1000
,
0000
0010
0010
1000
,
0000
0001
0000
0000
1000
0000
0000
0001
,
0000
0100
0100
0001
,
0000
1000
0000
0000
0001
0000
0000
1000
,
0000
0010
0010
1000
,
0000
0001
0000
0000
1000
0000
0000
0001
,
0000
0100
0100
0010
,
1000
0010
1000
0010
,
1000
0001
0100
0001
,
0100
0001
0100
0001
,
0100
0000
0001
1000
0001
0000
1000
0000
,
0100
0000
1000
0001
1000
0000
0001
0000
,
0100
0000
0001
1000
0001
0000
1000
0000
,
0100
0000
1000
0001
1000
0000
0001
0000
,
0100
0010
0010
1000
,
0000
0001
0100
0010
,
0000
1000
0100
0010
,
0001
0010
0100
2000
,
0000
0000
3001
0000
,
0100
0010
0100
0002
,
0000
2003
0000
0000
3002
0000
2003
0000
,
0000
0000
0000
3000
0200
0000
0320
0000
,
0000
0030
0002
0000
0000
0003
0001
0000
,
1000
0001
1000
0010
,
0100
0010
1000
0001
,
0010
0001
0010
0000
0001
0000
1000
0010
,
1000
0001
0100
0010
,
1000
0000
0000
0000
0000
0000
1000
0000
0000
0000
0000
0000
1000
0000
0000
0000
0000
0000
2002
0000
3003
0001
0000
0000
,
0000
1000
0000
0001
0000
1010
0000
0001
,
0000
1000
0000
0001
0000
0011
0000
1000
,
0000
0001
0000
1000
0000
1100
0000
1000
,
0000
0001
0000
1000
0000
0101
0000
0001
,
1000
0001
1000
0000
0000
0000
0001
0000
0000
0000
1000
0000
0000
0000
0001
0000
,
0001
1000
1000
0001
0000
0100
0100
0010
,
0000
0100
0000
0010
0010
1000
1000
0001
,
0000
1000
0000
0001
0000
1000
0000
0001
,
0000
1000
0000
0001
1000
0001
1000
0001
,
0000
1000
0000
0100
0010
0100
0010
0100
,
0000
0010
0000
0001
0000
1000
0000
0001
,
0000
0100
0000
0010
0000
1000
0000
0001
,
0000
0100
0000
0010
1000
0001
0100
0020
,
0000
0000
0000
0000
,
0000
0030
0000
0000
;

//---------------dance-single - ----------------
#NOTES:
     dance-single:
     :
     Easy:
     3:
     0.248364,0.402875,0.066867,0.022289,0.000000,156.000000,150.000000,6.000000,2.000000,0.000000,0.000000,0.248364,0.402875,0.066867,0.022289,0.000000,156.000000,150.000000,6.000000,2.000000,0.000000,0.000000:
0000
0000
0000
0001
,
0000
0000
0000
1000
,
0000
0000
0000
0001
,
0000
0000
0000
1000
,
0000
0000
0000
0010
,
0000
0000
0000
0100
,
0000
0000
0000
0001
,
0000
0000
0000
1000
,
0000
0000
0000
0100
,
0000
0000
0000
0000
,
0000
0000
0000
0000
,
0000
0000
0000
0000
,
0000
0000
0001
0001
0000
0000
0000
0000
,
1000
0000
0001
0000
,
1000
0000
0001
0000
,
1000
0000
0001
0000
,
1000
0001
1000
0001
,
0000
0010
0000
0000
0100
0000
0000
0010
,
0000
0100
0100
1000
,
0000
0001
0000
0000
0100
0000
0000
0010
,
0000
0100
0100
0001
,
0000
1000
0000
0000
0001
0000
0000
1000
,
0000
0001
0001
1000
,
0000
0001
0000
0000
0010
0000
0000
0100
,
0000
0000
0000
1000
,
1000
1000
1000
1000
,
0000
0001
0001
0001
,
0000
1000
1000
1000
,
0000
0010
0010
0010
,
0000
0100
0100
0100
,
0000
0001
0001
0001
,
0000
1000
0000
0001
,
0000
0010
0010
0010
,
0000
0100
0100
0100
,
0000
1000
1000
1000
,
0000
0001
0000
0100
,
0000
0000
0010
0000
,
1000
1000
1000
0010
,
0000
0100
0100
0001
,
0000
0000
0000
1000
,
0000
0001
0000
1000
,
1000
1000
1000
1000
,
1000
1000
1000
1000
,
0000
0001
0000
0000
,
0000
0000
0000
0001
,
0000
0000
1000
0000
0000
0000
0001
1000
,
0000
1100
0000
0001
0000
1000
0000
0001
,
0000
0101
0000
1000
0000
0001
0000
1000
,
0000
1100
0000
0001
0000
1000
0000
0001
,
0000
0011
0000
0001
0000
1000
0000
0001
,
0000
1010
0000
1000
0000
0001
0000
0100
,
0000
0010
0000
1000
0000
0001
0000
1000
,
0000
0100
0000
0010
0000
0001
0000
1000
,
0000
1000
0000
1000
0000
1000
0000
1000
,
0000
1000
0000
1000
0000
1000
0000
0001
,
0000
0001
0000
0001
0000
0001
0000
0001
,
0000
0001
0000
0001
0000
0000
0000
0100
,
0000
0100
0000
0010
0000
0010
0000
1000
,
0000
0001
0000
1000
0000
0001
0000
2002
,
0000
0000
0000
0000
,
0000
3003
0000
0000
;

//---------------dance-single - ----------------
#NOTES:
     dance-single:
     :
     Challenge:
     14:
     0.791263,0.871085,0.445782,0.044578,0.261897,497.000000,457.000000,40.000000,4.000000,0.000000,0.000000,0.791263,0.871085,0.445782,0.044578,0.261897,497.000000,457.000000,40.000000,4.000000,0.000000,0.000000:
// measure 0
0000
0000
1000
0100
0010
0001
0010
0001
,  // measure 1
0010
0000
0001
0000
0010
0000
0001
0000
0010
0000
0001
0010
0100
0000
1000
0000
,  // measure 2
0100
0000
1000
0000
0100
0000
1000
0000
0100
0000
1000
0010
0100
0000
0010
0000
,  // measure 3
0100
0000
0010
0000
0100
0000
0010
0000
0100
0000
0010
0100
0001
0000
0010
0000
,  // measure 4
0001
0000
0010
0000
0001
0000
0010
0000
0001
0000
0010
0100
1000
0000
0010
0000
,  // measure 5
1000
0000
0010
0000
1000
0000
0010
0000
1000
0000
0010
0100
1000
0000
0100
0000
,  // measure 6
1000
0000
0100
0000
1000
0000
0100
0000
1000
0000
0100
0001
0010
0000
0001
0000
,  // measure 7
0010
0000
0001
0000
0010
0000
0001
0000
0010
0000
0001
0100
1000
0000
0100
0000
,  // measure 8
1000
0100
1000
0100
0001
0010
0001
0100
,  // measure 9
1010
0100
0001
1000
0011
1000
0001
0100
,  // measure 10
1010
0001
1000
0100
0011
1000
0001
0010
,  // measure 11
1100
0001
0100
1000
0101
1000
0010
0001
,  // measure 12
1100
0000
0101
1001
0000
0000
0001
1000
,  // measure 13
1001
0010
1000
0100
1001
0010
0001
1000
,  // measure 14
0110
1000
0010
0001
0110
0001
0100
1000
,  // measure 15
0101
0010
0100
0001
1010
1000
1001
0001
,  // measure 16
1001
0000
0010
0000
1000
0001
1000
0001
1000
0000
0001
0000
0100
0000
0000
0000
,  // measure 17
0001
0100
0000
0010
1000
0000
0100
0010
,  // measure 18
0000
0001
0100
0001
0100
0000
0010
0000
,  // measure 19
1000
0010
0000
0100
0001
0000
0001
0100
,  // measure 20
0010
0000
1000
0000
0100
0010
0100
0010
0001
1000
0001
1000
0010
0000
0100
0000
,  // measure 21
0001
0101
1000
0010
1010
0100
1000
1100
,  // measure 22
0010
0001
0011
0100
1000
0001
0010
0100
,  // measure 23
1000
0110
1000
0010
1001
0100
0010
0001
,  // measure 24
0001
0010
0001
0000
0010
0001
0010
0001
0010
0000
0100
0000
1000
0000
0000
0000
,  // measure 25
0001
0000
0100
0001
1000
0100
1000
0000
,  // measure 26
0001
0000
1000
0100
1000
0001
0100
0000
,  // measure 27
0001
0000
1000
0001
0010
0001
1000
0000
,  // measure 28
0010
0000
0001
1000
0010
1000
0001
0000
,  // measure 29
1000
0000
0010
0100
0001
0100
0010
0000
,  // measure 30
1000
0000
0010
0100
1000
0100
0010
0000
,  // measure 31
0100
0000
1000
0001
0100
0010
0100
0000
,  // measure 32
0001
0000
1000
0001
0010
0100
1000
0001
,  // measure 33
0001
0001
0100
0001
1000
0010
1000
0100
,  // measure 34
0100
0100
1000
0100
0010
0001
0100
0100
,  // measure 35
0010
0010
1000
0100
0010
0001
0100
0100
,  // measure 36
0010
0010
1000
1000
1001
0100
0010
0000
,  // measure 37
0101
0101
0101
0101
,  // measure 38
0001
1000
0001
0000
0010
0000
1100
0100
,  // measure 39
0010
0010
0000
0001
0000
0001
1000
0001
,  // measure 40
0010
0001
0100
0001
1000
0000
1010
0000
,  // measure 41
1010
1010
1010
1010
,  // measure 42
0001
0000
0010
0000
0100
0000
0000
0000
0100
0000
1000
0100
1000
0000
0000
0000
,  // measure 43
1000
0100
0010
0000
0001
0000
1000
0010
,  // measure 44
0100
0000
0000
0000
0010
0000
0000
0000
0100
0000
0000
0000
0001
0100
0001
0000
,  // measure 45
1000
0100
1000
0000
0001
0010
0001
0000
1000
0010
1000
0001
0200
0300
0010
1000
,  // measure 46
0010
1000
1010
0000
0000
0000
0001
1000
0000
1000
0001
0000
0001
0000
0010
0000
,  // measure 47
0100
1000
0000
1000
0001
0100
0000
0100
0010
1000
0001
0000
0001
0000
0010
0000
,  // measure 48
0100
0010
0000
0010
0001
0000
0100
0000
0010
0000
1001
0000
0010
0000
0100
0001
,  // measure 49
0100
0000
0000
0000
0010
0000
1000
0000
0010
0000
0000
0000
1000
0000
0100
0000
1000
0000
0000
0000
0001
0000
0010
0100
1000
0100
0010
0000
0001
0000
0000
0000
,  // measure 50
0001
0100
0010
0000
0100
0000
0001
0000
1000
0010
0000
1000
0100
0000
0010
0000
,  // measure 51
0001
0010
0000
0001
0100
0000
0001
0000
1000
0010
1000
0000
0001
0000
0101
0000
,  // measure 52
0010
0000
1000
0000
0100
1000
0100
0000
0010
0000
0001
0000
1000
0000
0100
0000
,  // measure 53
0001
1000
0010
0001
1000
0100
0001
0001
,  // measure 54
0100
1000
1000
0010
0010
0001
1000
0100
,  // measure 55
0001
0010
1000
0100
0001
1000
0010
1000
,  // measure 56
0001
0100
0010
2000
0001
0100
3000
0100
,  // measure 57
0001
0010
1000
1000
0100
0001
0100
1000
,  // measure 58
0000
0100
0000
1100
1100
0010
0000
2002
,  // measure 59
0000
0000
0000
0000
,  // measure 60
0000
3003
0000
0000
0000
0000
0000
0000
;
