#TITLE:La Fantastica Aventura;
#SUBTITLE:Dragon Ball Opening Latino;
#ARTIST:Luis de Lille;
#TITLETRANSLIT:;
#SUBTITLETRANSLIT:;
#ARTISTTRANSLIT:;
#GENRE:;
#CREDIT:Magna Trick;
#BANNER:LFABN.jpg;
#BACKGROUND:LFABG.jpg;
#LYRICSPATH:;
#CDTITLE:Magna Trick title!.png;
#MUSIC:La Fantastica Aventura.mp3;
#OFFSET:-0.078397;
#SAMPLESTART:62.990002;
#SAMPLELENGTH:14.000000;
#SELECTABLE:YES;
#BPMS:0.000000=135.279999
;
#STOPS:
;
#BGCHANGES:0.063=La Fantastica Aventura.avi=1.000=0=0=1=====,
237.000=LFABG.jpg=1.000=0=0=1=====,
99999=-nosongbg-=1.000=0=0=0 // don't automatically add -songbackground-
;
#KEYSOUNDS:;
#ATTACKS:;

//---------------dance-single - ----------------
#NOTES:
     dance-single:
     :
     Hard:
     14:
     0.667746,0.783286,0.273843,0.226629,0.604344,495.000000,466.000000,29.000000,24.000000,0.000000,0.000000,0.667746,0.783286,0.273843,0.226629,0.604344,495.000000,466.000000,29.000000,24.000000,0.000000,0.000000:
0000
0000
0000
0000
0000
0000
1000
0100
0010
0001
1000
0000
0000
1001
0000
0001
,
0000
1000
0100
0010
0001
0010
0100
1000
0001
0000
0000
0000
1100
0000
0000
0101
,
0000
0000
1000
0000
0001
0000
0100
0000
0010
0000
1000
0000
0000
1001
0000
1000
,
0000
0001
0010
0100
1000
0100
0010
0001
0000
0100
0010
0000
1000
0000
0100
0020
,
0000
0000
0030
0000
0001
0000
1000
0001
2000
0000
3000
0000
0001
0000
0000
0000
,
1100
0000
0000
0000
1000
0000
1000
0000
0100
0000
0010
0000
0001
0000
0010
0100
,
0000
0000
0000
0000
1000
0000
0010
0000
0100
1000
0001
0000
0010
0000
1000
0100
,
0000
0000
0001
0000
0110
0000
0000
0000
0010
0001
0000
0001
0100
0000
0100
0010
,
0000
1000
0000
0001
1000
0000
1000
0000
0001
0000
0000
0000
1000
0000
0000
0100
,
0000
0000
0010
0001
1000
0100
0010
0000
0100
0000
1000
0000
0001
0000
0100
0010
,
0000
0000
0000
0000
0110
0000
0100
0000
0001
1000
0100
0000
0010
0000
0001
1000
,
0000
0000
0001
0000
0101
0000
0000
0000
0001
1000
0000
1000
0100
0000
0100
1000
,
0000
0001
0000
0100
0010
0000
0010
0000
0200
0000
0000
0000
0001
0000
0000
1000
,
0300
1000
0000
0100
0001
0000
0001
0000
1000
0000
1000
0100
1000
0000
0001
0100
,
0001
0000
1000
0100
1000
0000
0001
0000
0010
0000
0001
0000
1000
0000
0010
1000
,
0000
1000
0001
0100
0010
0000
1000
0000
0100
0000
1000
0100
1000
0000
0001
0100
,
0001
0000
1000
0000
0010
1000
0001
0010
0001
0000
0000
0000
1000
0000
0100
0000
,
0020
0000
0000
0000
0032
0000
0000
0003
1000
0000
0020
0000
0000
0000
0000
0000
,
0000
0000
0000
0000
0130
0100
0100
0100
,
0100
0000
0000
0000
0000
0000
0000
0000
0000
0000
0010
0000
0000
0000
0000
0000
0100
0000
0000
0000
0000
0000
0000
0000
0001
0000
0000
1000
0000
0000
0001
0000
0000
1000
0000
0000
0001
0000
0000
0000
0000
0000
0000
0000
0000
0001
0000
0000
,
1000
0100
0010
0001
1000
0000
0000
0000
0001
0100
0000
0010
1000
0000
0100
1000
,
0001
0000
0010
0000
0110
0000
0000
0000
1000
0100
1000
0100
1000
0000
0000
0001
,
0010
0100
1000
0010
0100
0000
0000
0000
0001
1000
0000
0010
1000
0000
0100
0010
,
0001
0010
0110
0000
1000
0100
1000
0010
,
0001
1000
0100
0010
0010
1000
0100
0010
,
1000
0001
0100
1000
0010
0010
0100
0001
,
0010
0010
0100
1000
0010
0010
0001
0001
,
1000
0000
0220
0330
0001
1000
0100
0020
,
0000
0000
0032
0000
0000
0000
0003
0000
1000
0000
0010
0100
0000
0001
1000
0010
,
1000
0000
0100
0000
0110
0000
0000
0000
0001
0010
0001
0010
0001
0000
0000
1000
,
0010
0100
0001
1000
0010
0000
0000
0000
0100
0000
1000
0001
0000
0100
0010
1000
,
0100
0010
0110
0000
0100
1000
0001
0100
,
0010
0010
1000
1000
0100
0010
1000
0001
,
0100
0100
1000
0001
0100
0100
0100
0100
,
0100
0100
0100
0010
0020
0000
0000
0000
,
0000
0030
0000
0000
1001
0000
0110
0000
,
1001
0000
1100
0000
0011
0001
0100
0010
,
2000
0000
3100
0000
1100
0000
0001
0100
,
0110
0000
0010
1000
0001
0100
0010
0010
,
1000
0100
1100
0011
,
0101
0000
0000
0000
1010
0000
0000
0000
1001
0000
0010
0000
0100
0000
0001
1000
,
0200
0000
0320
0000
0031
1000
0010
0100
,
0002
0000
0000
2000
0003
0000
3200
0000
0000
0000
0000
0300
0010
0000
0001
0000
,
2000
3020
0230
0000
,
0000
0000
0000
0000
,
0310
0100
0010
0100
0010
0100
0010
0000
0100
0000
0001
0000
1000
0000
0100
0010
,
0000
0000
0000
0000
0100
0000
1000
0000
0001
0100
0010
0000
1000
0000
0100
0010
,
0000
0000
0001
0000
1100
0000
0000
0000
0100
1000
0000
1000
0010
0000
0010
0100
,
0000
0100
0000
0001
0010
0000
0100
0000
1000
0000
0000
0000
0001
0000
0000
0100
,
0000
0000
0010
0100
0001
1000
0100
0000
0010
0000
0001
0000
0010
0000
1000
0010
,
0000
0000
0000
0000
0100
0000
1000
0000
0010
0001
0010
0000
1000
0000
0100
0010
,
0000
0000
0001
0000
1100
0000
0000
0000
0001
1000
0000
1000
0001
0000
0001
0100
,
0000
0100
0000
0010
1000
0000
0001
0000
1000
0000
0000
0000
0100
0000
0000
1000
,
0000
0001
0000
0100
0010
0000
0100
0000
0001
0000
1000
0100
1000
0000
0001
0100
,
0001
0000
1000
0010
1000
0000
0001
0010
0001
0000
1000
0000
0010
0000
0100
0001
,
0000
0001
1000
0100
0010
0000
0001
0000
0100
0000
0010
0100
0010
0000
0100
0001
,
0100
0000
0001
0000
1000
0100
1000
0001
0100
0000
0000
0000
0010
0000
1000
0000
,
0200
0000
0000
0000
0320
0000
0000
0000
0031
0100
0001
0100
0001
0100
0001
0100
,
0010
0100
0010
0100
0010
0100
0010
1000
0010
1000
0100
0010
0001
1000
0100
0000
,
1001
2002
3003
0000
0000
0000
0000
0000
;

//---------------dance-single - ----------------
#NOTES:
     dance-single:
     :
     Challenge:
     16:
     0.813436,0.951133,0.500472,0.217186,0.854580,603.000000,550.000000,53.000000,23.000000,0.000000,0.000000,0.813436,0.951133,0.500472,0.217186,0.854580,603.000000,550.000000,53.000000,23.000000,0.000000,0.000000:
// measure 0
0000
0000
0000
0000
0000
0000
0001
0010
0100
1000
0001
0000
0000
1001
0000
1000
,  // measure 1
0000
0001
0010
0100
1000
0100
0010
0001
1001
0000
0000
0000
0011
0000
0000
1010
,  // measure 2
0000
0000
0000
0000
0000
0000
0001
0000
0100
0000
0010
0000
1000
0000
0100
0000
0010
0000
1000
0000
0010
0000
0001
0000
0100
0000
0000
0010
0000
0000
1000
0000
0000
0000
0000
0000
0000
0000
0000
1001
0000
0000
0000
0000
0000
0001
0000
0000
,  // measure 3
0000
1000
0100
0010
1000
0010
0100
0001
0000
0100
1100
0000
0001
0000
0100
0102
,  // measure 4
0000
0000
0000
0000
0003
0000
0000
0000
1001
0000
0000
0000
0010
0000
0001
1000
0100
0000
0010
0000
0100
0000
0010
0000
0100
0000
0000
0000
0000
0000
0000
0000
,  // measure 5
0011
0000
0000
0000
0110
0000
0110
0000
0010
0000
0100
0000
1000
0000
0100
0010
,  // measure 6
0000
0000
0000
0000
0101
0000
0100
0000
0010
0001
1000
0000
0100
0000
0001
0010
,  // measure 7
0000
0000
1000
0000
0110
0000
0000
0000
0100
1000
0000
1000
0010
0000
0010
0100
,  // measure 8
0000
0001
0000
1000
0001
0000
0001
0000
1000
0000
0000
0000
1001
0000
0000
0010
,  // measure 9
0000
0000
0000
0000
0000
0000
0100
0000
1000
0000
0001
0000
0100
0000
0010
0000
1000
0000
0100
0000
0000
0000
0000
0000
0010
0000
0000
0000
0000
0000
0001
0000
0000
0000
0000
0000
1000
0000
0000
0000
0000
0000
0010
0000
0000
0100
0000
0000
,  // measure 10
0000
0000
0000
0000
0110
0000
0010
0000
1000
0001
0010
0000
0100
0000
1000
0001
,  // measure 11
0000
0000
1000
0000
1010
0000
0000
0000
1000
0001
0000
0001
0010
0000
0010
0001
,  // measure 12
0000
1000
0000
0010
0100
0000
0100
0000
0020
0000
0000
0000
1000
0000
0000
0001
,  // measure 13
0030
0001
0000
0010
1000
0000
1000
0000
0001
0000
1000
0100
0010
0000
0001
0100
,  // measure 14
0010
0000
0001
0010
1000
0000
1000
0000
0100
0000
1000
0000
0001
0000
0100
0001
,  // measure 15
0000
0001
1000
0010
0100
0001
0010
0100
1000
0000
0001
0010
0100
0000
1000
0010
,  // measure 16
0100
0000
0001
0000
0100
0001
1000
0100
0010
0000
0000
0000
0001
0000
0010
0000
,  // measure 17
0200
0000
0000
0000
2300
0000
0000
3000
0001
0100
0010
1000
0001
0000
0100
0000
,  // measure 18
0001
0100
0010
1000
0001
0000
0100
0000
1001
0000
1001
0000
1001
0000
1001
0000
,  // measure 19
1001
0000
0000
0000
0000
0000
0000
0000
0000
0000
0011
0000
0000
0000
0000
0000
1100
0000
0000
0000
0000
0000
0000
0000
1000
0000
0000
0001
0000
0000
1000
0000
0000
0001
0000
0000
1000
0000
0000
0000
0000
0000
0000
0000
0000
1000
0000
0000
,  // measure 20
0001
0010
0100
1000
0001
0000
0000
0000
1000
0010
0000
0100
0001
0000
0010
0001
,  // measure 21
1000
0000
0100
0000
0110
0000
0000
0000
0001
0010
0001
0010
0001
0000
0000
1000
,  // measure 22
0100
0010
0001
0100
0010
0000
0000
0000
1000
0001
0000
0100
0001
0000
0010
0100
,  // measure 23
1000
0100
0110
0000
0001
0010
0001
0100
,  // measure 24
1000
0001
0010
0100
0100
0001
0010
0100
,  // measure 25
0001
1000
0010
0001
0100
0100
0010
1000
,  // measure 26
0100
0100
0010
0001
1100
1100
0011
0011
,  // measure 27
1001
0000
0000
0000
0220
0000
0330
0000
1000
0100
1000
0100
1000
0000
0000
0010
,  // measure 28
0001
1000
0100
0010
0001
0000
1001
0000
0110
0000
0100
0010
0000
1000
0001
0100
,  // measure 29
0001
0000
0110
0000
1001
0000
0000
0000
1000
0100
1000
0100
1000
0000
0000
0001
,  // measure 30
0100
0010
1000
0001
0100
0000
0000
0000
0010
0000
0001
1000
0000
0010
0100
0001
,  // measure 31
0010
0100
0110
0000
0010
0001
1000
0010
,  // measure 32
0100
0100
0001
0001
0010
0100
0001
1000
,  // measure 33
0010
0010
0001
1000
0010
0010
0010
0010
,  // measure 34
0010
0000
0010
0000
0010
0000
0100
0000
0100
0010
1000
0100
0010
0001
0100
1000
,  // measure 35
0100
0001
0010
0001
1000
0100
0010
0001
1001
0000
0000
0000
0110
0000
0000
0000
,  // measure 36
1001
0000
0000
0000
0011
0000
0000
0000
1100
0000
1000
0000
0010
0000
0100
0010
,  // measure 37
2000
0000
3010
0000
0011
0000
1000
0010
,  // measure 38
0110
0000
0100
0001
1000
0010
0100
0100
,  // measure 39
0010
0000
0000
0000
1001
0000
0010
0001
0100
0000
0000
0000
1100
0000
0000
0000
,  // measure 40
1010
0000
0000
0000
0101
0000
0000
0000
1001
0000
0100
0000
0010
0000
1000
0001
,  // measure 41
0020
0000
0230
0000
1300
0001
0100
0010
,  // measure 42
2000
0000
0000
0002
3000
0000
0023
0000
0100
0000
0100
0030
0100
0000
1000
0000
,  // measure 43
0002
0000
0000
0000
0203
0000
0000
0000
0310
1000
0001
0100
0010
1000
0100
0000
,  // measure 44
0010
1000
0001
0100
0010
1000
0100
0000
0010
1000
0001
0100
0010
1000
0100
0001
,  // measure 45
0100
0000
0000
0010
0000
0000
0100
0000
1000
0000
0010
0000
0100
0000
0001
0000
0010
0000
0100
0000
1000
0000
0010
0000
0100
0000
0000
0000
0000
0000
0001
0000
0000
0000
0000
0000
0001
0000
0000
0000
0000
0000
0010
0000
0000
0100
0000
0000
,  // measure 46
0000
0000
0000
0000
1001
0000
0001
0000
1000
0010
0100
0000
0001
0000
0010
0100
,  // measure 47
0000
0000
1000
0000
0011
0000
0000
0000
0010
0001
0000
0001
0100
0000
0100
0010
,  // measure 48
0000
0010
0000
1000
0100
0000
0010
0000
0002
0000
0000
0000
2003
0000
0000
3010
,  // measure 49
0000
0000
0000
0000
0000
0000
0100
0000
0010
0000
1000
0000
0100
0000
0001
0000
0100
0000
1000
0000
0000
0000
0000
0000
0100
0000
0000
0000
0000
0000
1000
0000
0000
0000
0000
0000
0100
0000
0000
0000
0000
0000
0001
0000
0000
0100
0000
0000
,  // measure 50
0000
0000
0000
0000
0110
0000
0001
0000
0100
1000
0100
0000
0001
0000
0010
0100
,  // measure 51
0000
0000
1000
0000
0011
0000
0000
0000
1000
0001
0000
0001
1000
0000
1000
0010
,  // measure 52
0000
0010
0000
0100
0001
0000
1000
0000
0002
0000
0000
0000
0023
0000
0000
0031
,  // measure 53
0000
1000
0000
0010
0100
0000
0010
0000
1000
0000
0001
0010
0100
0000
1000
0010
,  // measure 54
0100
0000
0001
0100
0010
0000
1000
0100
0010
0000
0001
0000
0100
0000
0010
1000
,  // measure 55
0000
1000
0001
0010
0100
0000
1000
0000
0010
0000
0100
0010
1000
0000
0010
0100
,  // measure 56
0001
0000
1000
0000
0001
0010
0100
1000
0020
0000
0000
0000
0130
0000
0001
0000
,  // measure 57
0020
0000
0100
0000
0230
0000
0000
0000
1300
0010
1000
0100
0010
0001
0100
0001
,  // measure 58
1000
0000
0000
0010
0000
0000
1000
0000
0000
0100
0000
0000
0001
0000
0000
0100
0000
0000
0010
0000
0000
0001
0000
0000
1000
0000
0000
0001
0000
0000
0010
0000
0100
0000
1000
0000
0001
0000
0100
0000
0001
0000
1000
0000
0100
0000
0010
0000
,  // measure 59
0001
2002
3003
0000
0000
0000
0000
0000
;

//---------------dance-single - ----------------
#NOTES:
     dance-single:
     :
     Medium:
     9:
     0.473493,0.474563,0.113314,0.226629,0.000000,351.000000,339.000000,12.000000,24.000000,0.000000,0.000000,0.473493,0.474563,0.113314,0.226629,0.000000,351.000000,339.000000,12.000000,24.000000,0.000000,0.000000:
0000
0000
0000
0000
,
0000
0000
0000
0000
,
0000
0000
0000
0000
,
0000
0000
0000
0000
,
0000
0000
0000
0000
,
0000
0000
1001
0001
1000
0100
1000
0001
,
1000
0000
1001
0000
0100
0001
1000
0001
,
0100
0000
1001
0000
1000
0100
1000
0100
,
1000
0100
1000
0100
2000
0000
3000
0000
,
0000
0000
0001
1000
0001
0100
0001
0100
,
0001
0000
1000
0010
1000
0010
1000
0010
,
1000
0001
0001
0000
0020
0000
0230
0000
,
2300
3002
0203
0310
,
1000
0000
0001
1000
0002
0000
2003
0000
,
3200
0000
0310
0001
0010
0001
0010
0001
,
0020
0000
0000
0000
0031
0000
0100
0000
0020
0000
0000
0000
0000
0000
0000
0030
,
1000
0001
1000
0001
2000
0000
3100
0010
,
0002
0000
2003
0000
3100
0020
0000
0000
,
0000
0000
0000
0030
0001
1000
0001
1000
,
0001
0000
0100
0100
0010
0100
0001
1000
,
0000
0100
1000
0000
0100
1000
0100
1000
,
0001
0000
1001
0000
0001
0100
0001
0100
,
0010
0100
0001
0000
1000
0100
0010
0100
,
1000
0000
0001
0000
0100
1000
0100
0001
,
0100
0010
0100
0001
0100
0001
0100
1000
,
0100
0001
0100
1000
0100
0010
0100
0010
,
0100
1000
0100
1000
0100
0001
0100
1000
,
0100
0000
1001
0000
1000
0100
1000
0001
,
0100
0010
1000
0000
0001
1000
0001
1000
,
0001
0000
1001
0000
0100
1000
0100
1000
,
0100
1000
0010
0000
0100
0001
0100
0001
,
0010
0000
0100
1000
0001
0100
0001
0100
,
0001
0100
0010
0100
0001
0100
0010
0100
,
0001
0100
0010
0100
0001
0100
0001
0100
,
0001
0100
0010
0100
1000
0100
0010
0100
,
0001
0100
1000
0100
0020
0000
0230
0000
,
0302
0000
2003
0000
3100
0100
0010
0100
,
0010
0000
0100
0000
1000
0000
0001
0001
,
1000
0000
0001
0000
0100
0100
0010
0010
,
0100
0000
0001
0000
1000
1000
0001
0000
,
0001
0001
1000
0000
1000
0100
1000
0001
,
0100
0000
0002
0000
0000
0000
0000
0003
1000
0000
0100
0000
1000
0000
0100
0000
,
1000
0000
0010
0000
0100
0100
0100
0000
,
0001
0000
1000
0000
0001
0001
0001
0001
,
1000
1000
1000
1000
0010
0010
0010
0010
,
0100
0010
0100
0010
0100
0001
1000
0001
,
1000
0000
1001
0000
0001
1000
0100
1000
,
0001
0000
1001
0000
1000
0001
0100
0001
,
1000
0100
1000
0001
0100
0000
0001
0000
,
1000
0000
0001
0000
0001
1000
0010
1000
,
0001
0000
1001
0000
1000
0001
0010
0001
,
1000
0000
1001
0000
0010
1000
0100
1000
,
0010
0100
0001
0010
0002
0000
0100
0000
,
0013
0000
0100
0100
0010
0000
0100
0000
,
0010
0000
0100
0100
0010
0010
0100
0100
,
0010
0000
1000
0001
2000
0000
3001
0000
,
1000
0100
1000
0001
0100
0000
0001
0100
,
0020
0000
2030
0000
3100
1000
0100
1000
,
0001
1000
0001
1000
0001
0100
0001
0100
,
1001
1001
0000
0000
0000
0000
0000
0000
;

//---------------dance-single - ----------------
#NOTES:
     dance-single:
     :
     Easy:
     2:
     0.153784,0.334986,0.056657,0.066100,0.000000,114.000000,108.000000,6.000000,7.000000,0.000000,0.000000,0.153784,0.334986,0.056657,0.066100,0.000000,114.000000,108.000000,6.000000,7.000000,0.000000,0.000000:
0000
0000
0000
0000
,
0000
0000
0000
0000
,
0000
0000
0000
0000
,
0000
0000
0000
0000
,
0000
0000
0000
0000
,
0000
0000
0000
0000
,
0000
1000
0000
0000
,
0000
0001
0000
0000
,
0000
0000
0000
0100
,
0010
0000
0000
0000
,
0000
1000
0000
0000
,
0000
0001
0000
0000
,
0000
0000
0020
0000
,
0000
0030
1000
1000
,
0001
0001
1000
0001
,
1000
0000
0020
0000
,
0000
0030
0000
0000
0200
0000
0000
0000
,
0000
0300
0000
0000
0001
0000
0001
0000
,
1000
1000
0001
1000
,
0001
0000
0000
0000
,
0000
0000
1000
0000
,
0000
0000
0000
0000
,
0000
0001
0000
0000
,
0000
0000
0100
0100
,
0010
0010
0100
0010
,
0100
0010
0100
0100
,
0100
0100
0100
0100
,
0100
0010
0000
0000
,
0000
0000
1000
0000
,
0000
0001
0000
0000
,
0000
0001
0000
0000
,
0000
1000
0100
0000
,
0010
0000
0001
0000
,
1000
0000
0020
0000
,
0000
0000
0230
0000
,
0000
0000
0000
0300
0001
0000
0000
0000
,
1000
0000
0100
0100
,
0100
0000
0010
0000
,
0001
0000
1000
1000
,
1000
0000
0010
0000
,
0100
0000
0001
0001
,
1000
1000
0001
0000
,
1000
0000
0100
0000
,
0010
0001
2000
0000
,
0000
0000
0000
0000
,
0000
3000
0000
0000
0001
0000
0000
0000
,
1000
0000
0001
0001
,
0100
0000
0010
0000
,
1000
0000
0001
0001
,
1000
0000
0100
0100
,
0010
0000
0001
0001
,
1000
0000
0010
0100
,
0001
1000
0200
0000
,
0000
0000
0000
0300
0010
0000
0000
0000
,
0001
0000
1000
1000
,
0001
0000
1000
0000
,
0001
0000
0100
0000
,
0000
0110
0000
1001
,
0000
1001
0000
1001
,
1001
1001
0000
0000
0000
0000
0000
0000
;
