#TITLE:LIVE for LIVE;
#SUBTITLE:BEN TO Opening;
#ARTIST:Aimi;
#TITLETRANSLIT:;
#SUBTITLETRANSLIT:;
#ARTISTTRANSLIT:;
#GENRE:;
#CREDIT:;
#BANNER:LFLBN.jpg;
#BACKGROUND:LFLBG.jpg;
#LYRICSPATH:;
#CDTITLE:cdtitleitachi.png;
#MUSIC:Ben To – Opening Theme – LIVE for LIFE ~Ookamitachi no Yoru~.mp3;
#OFFSET:0.002000;
#SAMPLESTART:57.500000;
#SAMPLELENGTH:16.363644;
#SELECTABLE:YES;
#BPMS:0.000000=176.000000
;
#STOPS:
;
#BGCHANGES:0.000=1.avi=1.000=0=0=1=====,
262.000=LFLBG.jpg=1.000=0=0=1=====,
99999=-nosongbg-=1.000=0=0=0 // don't automatically add -songbackground-
;
#KEYSOUNDS:;
#ATTACKS:;

//---------------dance-single - ----------------
#NOTES:
     dance-single:
     :
     Hard:
     12:
     0.642172,0.656799,0.865743,0.577162,0.005550,405.000000,327.000000,78.000000,52.000000,0.000000,0.000000,0.642172,0.656799,0.865743,0.577162,0.005550,405.000000,327.000000,78.000000,52.000000,0.000000,0.000000:
// measure 0
0000
0000
0000
0000
1001
1000
0100
1000
,  // measure 1
0010
0100
0001
0010
0000
0100
1000
0001
,  // measure 2
1000
0010
0100
0000
0011
0011
0010
0001
,  // measure 3
0010
0001
0010
0002
0000
1000
1003
0000
,  // measure 4
0220
0000
0330
0000
0001
0001
0010
0001
,  // measure 5
0100
0010
1000
0100
0000
0010
0001
0100
,  // measure 6
0010
0010
1001
0000
0010
0100
0000
0000
,  // measure 7
0100
0010
0000
1001
0000
1001
0000
0000
,  // measure 8
0200
0300
0002
0203
0300
0002
2003
3200
,  // measure 9
0320
0032
2003
3200
0300
2000
3020
0230
,  // measure 10
0302
0023
0230
2300
3000
0020
2030
3200
,  // measure 11
0320
0032
2003
3200
0300
0020
0032
1003
,  // measure 12
0001
0011
0110
1100
0000
0010
0100
0001
,  // measure 13
1000
0100
0100
1000
0000
0010
0100
0010
,  // measure 14
0100
0001
0001
1001
0000
1001
0000
0110
,  // measure 15
0000
0101
0000
1001
0000
0110
0000
1000
,  // measure 16
1000
0000
0000
1000
0010
0100
0000
0001
,  // measure 17
0010
0100
0000
1000
0100
0000
2000
0100
,  // measure 18
0100
0000
3000
1000
0100
1000
0000
0010
,  // measure 19
0100
0001
0000
0101
0000
0110
0000
1100
,  // measure 20
0022
0000
0033
0100
1000
0100
0000
0010
,  // measure 21
0100
0010
0000
0001
0100
1000
0100
0001
,  // measure 22
0010
0000
0000
0001
1000
0010
0000
0010
,  // measure 23
0100
0000
0000
1001
0000
1100
0000
0100
,  // measure 24
1000
0000
0010
0100
0001
0000
0010
1000
,  // measure 25
0010
0200
0010
0301
,  // measure 26
2000
0000
0100
3000
0010
0000
0100
0001
,  // measure 27
0000
1000
0200
0000
0000
0310
0001
1000
,  // measure 28
0001
0010
0100
0010
0000
0000
0010
0001
,  // measure 29
0000
1000
0100
0020
0000
0001
0031
2000
,  // measure 30
0000
3000
0000
1000
0100
0000
0000
1010
,  // measure 31
0000
0000
0101
0000
2200
0000
0000
3300
,  // measure 32
0010
0100
0001
1000
0000
0000
0100
1000
,  // measure 33
0010
0100
1001
0100
,  // measure 34
1010
0000
0100
0001
1000
0000
0100
1000
,  // measure 35
0000
0010
0100
0000
0011
0000
0101
0000
,  // measure 36
1010
1100
1100
1010
,  // measure 37
0101
1100
0011
1010
,  // measure 38
0110
0000
0000
0001
1000
0000
0000
1100
,  // measure 39
0000
0000
0110
0000
1001
0000
0100
1000
,  // measure 40
0000
0010
0100
0000
0000
0001
0100
0010
,  // measure 41
0001
0010
0100
1000
1100
0000
0000
1100
,  // measure 42
0110
1100
0110
1001
,  // measure 43
0110
0000
0001
1000
0020
0000
0030
0100
,  // measure 44
0001
1100
0110
1001
,  // measure 45
1100
0101
0200
0302
,  // measure 46
2003
0000
3200
0300
1010
0000
0110
0000
,  // measure 47
1001
0000
0200
1300
0020
0030
0200
0301
,  // measure 48
0000
0000
2000
0100
3000
0110
0000
1001
,  // measure 49
0000
0110
0000
0000
1010
0000
0010
0100
,  // measure 50
0001
1100
0110
1001
,  // measure 51
0110
0000
0001
1000
0100
0000
0000
1000
,  // measure 52
0010
0100
1001
1100
,  // measure 53
0110
0000
0001
0000
1000
0100
0010
0001
,  // measure 54
0010
1000
0010
0001
0100
1000
0100
0001
,  // measure 55
0010
0100
1000
0001
2000
0000
0000
3200
,  // measure 56
0000
0000
1300
0020
0000
0130
0001
0000
,  // measure 57
1000
0000
0000
0100
0000
0000
0010
0000
0011
0000
0000
0000
0000
0000
0001
0000
,  // measure 58
0100
0000
1000
0100
0000
1000
0010
1000
,  // measure 59
0100
1000
0010
0000
1100
0000
1100
0000
,  // measure 60
0010
0001
0000
1001
0000
1001
0000
0100
,  // measure 61
1000
1010
0110
1001
,  // measure 62
1000
0001
0000
1010
0000
0101
0000
0001
,  // measure 63
1000
0101
0002
0000
,  // measure 64
0000
0000
0000
0000
,  // measure 65
0000
0000
0000
0003
;

//---------------dance-single - ----------------
#NOTES:
     dance-single:
     :
     Medium:
     8:
     0.385303,0.578272,0.366276,0.055496,0.000000,243.000000,210.000000,33.000000,5.000000,0.000000,0.000000,0.385303,0.578272,0.366276,0.055496,0.000000,243.000000,210.000000,33.000000,5.000000,0.000000,0.000000:
0000
0000
0000
0000
,
0000
0000
0000
0000
,
0000
0000
0000
0000
,
0000
0000
0000
0000
,
0000
0000
0000
0000
0010
0010
1000
0000
,
0010
0100
0001
0100
0000
0001
1000
0000
,
0100
1000
0010
0000
0100
0010
0000
0000
,
1000
0010
0000
0100
0000
0010
0000
0000
,
1000
0010
1000
0100
0000
0000
1000
0000
,
0010
0000
0100
0001
0000
0000
0001
0000
,
0010
0001
0100
0001
0000
0010
0010
0000
,
0100
0000
0000
1001
0000
0000
0100
0000
,
1000
0010
1000
0010
0000
0000
0100
0000
,
0001
0000
0000
1001
0000
0000
0100
0000
,
1000
0010
1000
0010
0000
0010
0000
0100
,
0000
0100
0000
1001
0000
1001
0000
0000
,
1001
0000
0010
0000
,
0100
0000
1001
1100
,
0110
0000
0001
0000
,
0100
0000
0000
0110
0000
0110
0000
0010
,
0010
0000
0000
1000
0001
1000
0000
0001
,
1000
0001
0000
0000
1000
0000
0010
0000
,
0100
0000
0000
0010
0100
0000
0000
0001
,
1000
0000
0000
0001
0000
0001
0000
1000
,
0001
0000
0000
1000
1000
0000
0000
0000
,
0010
0000
0100
0001
,
1000
0000
0000
0000
0010
0000
0000
0010
,
0000
0000
0020
0000
0000
0000
0000
0030
,
0000
0100
0000
0001
0000
0000
0000
1000
,
0000
0000
0000
0100
0000
0000
0000
0020
,
0000
0030
0000
0000
0001
0000
0000
1000
,
0000
0100
1001
0000
,
0010
0000
0000
0100
0000
0000
0001
0000
,
1000
0100
1000
0010
,
0100
0000
0000
0000
1001
0000
0000
0110
,
0000
1001
1100
0110
,
0011
0000
1000
1000
,
0100
0100
0010
0010
,
0001
0000
0000
0000
1000
0000
0000
0010
,
0000
0100
0002
0000
,
0000
0000
0003
0000
0000
1000
0010
1000
,
0010
0100
0001
0100
0001
0000
0000
0010
,
0100
1001
1000
0100
,
1000
0000
1001
0000
,
0010
0000
0100
0001
,
1000
0000
1001
1001
,
0110
0110
0101
0101
,
0011
0000
0000
0001
1000
0000
0001
1000
,
0000
0000
0010
1000
0000
0010
0000
0100
,
0000
0001
0000
0000
1000
0000
0000
0100
,
1000
0010
0100
0001
,
0010
0000
0000
0001
1000
0000
0000
0100
,
1000
0010
0101
1010
,
0101
0000
1100
0010
,
0101
0001
1001
0100
,
0110
0000
0000
0001
1000
0000
0000
0010
,
0000
0000
0100
0010
0000
0000
0000
1000
,
0100
0000
1000
0000
,
0020
0000
0000
0000
,
0000
0030
0000
0000
1000
0000
0001
0000
,
1000
0001
0000
1000
0000
0001
0000
1000
,
0001
1000
0010
0100
,
0010
0100
0000
0010
0000
0100
0000
0010
,
0100
0010
2000
0000
,
0000
0000
0000
0000
,
0000
3000
0000
0000
0000
0000
0000
0000
;

//---------------dance-single - ----------------
#NOTES:
     dance-single:
     :
     Easy:
     3:
     0.207715,0.362114,0.122092,0.188688,0.000000,131.000000,120.000000,11.000000,17.000000,0.000000,0.000000,0.207715,0.362114,0.122092,0.188688,0.000000,131.000000,120.000000,11.000000,17.000000,0.000000,0.000000:
0000
0000
0000
0000
,
0000
0000
0000
0000
,
0000
0000
0000
0000
,
0000
0000
0000
0000
,
0000
0000
0000
0000
,
0000
0000
0000
0000
,
0000
0000
1000
0000
,
1000
0000
0000
1000
0000
0000
0000
0000
,
1000
0000
0000
2000
0000
0000
0000
3000
,
0000
0000
0000
0020
0000
0000
0000
0000
,
0030
0000
0000
0200
0000
0000
0000
0300
,
0000
0000
0000
0020
0000
0000
0000
0000
,
0030
0000
0000
2000
0000
0000
0000
3000
,
0000
0000
0000
0002
0000
0000
0000
0000
,
0003
0000
0000
0200
0000
0000
0300
0200
,
0000
0000
0300
0100
0000
0100
0000
0000
,
0100
0000
0010
0000
,
0010
0000
0000
0010
0000
0000
0000
0000
,
0000
0000
1000
0000
,
1000
0000
0000
2000
0000
0000
0000
0000
,
3000
0000
0001
0000
,
0001
0000
0001
0001
,
0001
0000
1000
0000
,
1000
0000
0000
0010
0000
0000
0000
0000
,
0010
0000
1000
0000
,
0100
0000
1000
0000
,
0010
0000
0000
0000
0100
0000
0100
0100
,
0000
0020
0000
0000
,
0030
0000
1000
0000
,
1000
0000
0010
0000
,
0010
0000
0000
0000
1000
0000
0000
1000
,
0000
1000
1000
0000
,
0000
0000
0010
0000
,
0010
0000
0010
0000
,
0010
0000
1000
0000
,
0010
0000
1000
0100
,
0010
0000
0001
1000
,
0100
1000
0001
0100
,
0010
0000
0000
0000
0100
0000
0000
0010
,
0000
0010
0020
0000
,
0030
0000
0000
0000
0000
2000
0000
0000
,
0000
3000
0010
0000
,
0010
0000
1000
0001
,
1000
0000
0010
0000
,
0100
0000
0001
1000
,
0100
0000
1000
0100
,
1000
0010
1000
0001
,
0100
0000
0001
0000
0010
0000
0000
0010
,
0000
0020
0000
0000
,
0000
0030
0000
0000
0001
0000
0000
0000
,
1000
0000
0010
0100
,
0001
0000
1001
0000
,
0110
0000
0001
1000
,
0100
0000
1000
1000
,
0001
0001
1000
0010
,
0100
0000
0000
0000
0001
0000
0000
1000
,
0000
0000
0000
2000
0000
0000
3000
0000
,
0010
0000
0010
0000
,
0020
0000
0000
0030
,
0000
0000
1001
0000
,
0110
0000
1001
0000
,
1010
0000
0110
0000
,
1001
0000
0110
0000
,
1001
0000
2200
0000
,
0000
0000
0000
0300
,
0000
3000
0000
0000
;

//---------------dance-single - ----------------
#NOTES:
     dance-single:
     :
     Challenge:
     14:
     0.726210,0.875733,0.865743,0.976736,0.127642,458.000000,380.000000,78.000000,88.000000,0.000000,1.000000,0.726210,0.875733,0.865743,0.976736,0.127642,458.000000,380.000000,78.000000,88.000000,0.000000,1.000000:
0000
0000
0000
0000
1001
0100
0100
1000
,
0020
0100
0031
1010
0000
0100
2000
0001
,
3001
0010
0100
0000
0012
0010
0013
0100
,
0010
0001
0010
0200
0300
1000
1000
0000
,
0220
0000
0330
0000
1000
0100
0010
0100
1000
0000
0002
0000
0013
0000
0002
0000
,
0103
0020
1030
0200
0300
0020
0031
0100
,
0010
0010
1001
0000
0110
0100
0000
0000
,
0110
0010
0000
1001
0000
2002
0000
3003
,
0200
0000
0300
0000
1001
0000
0010
0100
1000
0000
0002
0000
2003
0000
3200
0000
,
0320
0000
0032
0000
2003
0000
3200
0000
0300
0000
2000
0100
3010
0000
0002
0003
,
0002
0000
0023
0000
0230
0000
2300
0000
3000
0000
0002
0013
0002
0003
0200
0000
,
0320
0000
0032
0000
0023
0000
0230
0000
0300
0000
0002
0000
2003
3000
1000
0000
,
0001
0011
0110
1100
0000
0010
0200
0301
,
1000
0100
0200
1300
0000
0010
0200
0310
,
0200
0301
0001
1001
0000
1001
0000
0110
,
0000
0000
0101
0000
0000
0000
1001
0000
0000
0000
0110
0000
1000
0100
1000
0010
,
1000
0001
1000
0001
1000
0010
1000
0000
0010
0000
0101
0000
0000
0000
0001
0000
,
0010
0101
0000
1000
0100
0000
2000
0010
,
0001
0000
3000
1000
0100
0010
0000
0001
,
0100
0010
0000
0101
0000
0110
0000
1100
,
2002
3000
0003
1000
0010
0001
0000
0010
,
1000
0001
0000
0001
0010
1000
0010
0001
,
0020
0000
0030
0001
1000
0010
0000
0010
,
0100
0000
0000
1001
0000
1100
0000
0100
,
1000
0000
0001
0000
0100
0010
0100
0010
1000
0000
0000
0000
0010
0000
1000
0000
,
0010
0000
0200
0010
0010
0000
0301
0000
,
2000
0000
0100
3000
0110
0000
0001
0011
,
0000
2001
0100
0000
0000
0010
0010
0010
,
3010
0100
0001
0020
0000
0030
0010
0001
,
0000
1000
0100
0020
0000
0030
0010
1002
,
0000
0003
0000
1000
0200
0000
0300
2020
,
0000
3030
0101
0000
2100
0000
0000
3000
,
0010
0100
0001
2000
0000
3000
0100
1000
,
0010
0100
1001
0100
,
1010
0000
0100
0001
1000
0000
0100
1000
,
0000
0010
0100
0000
0011
0000
0101
0000
,
1010
0000
1100
0000
0110
0100
0010
0001
,
0010
1000
0100
0001
0100
1000
0010
0001
,
0110
0000
0000
0001
1000
0000
0000
1100
,
0000
0000
0110
0000
1001
0000
0100
1000
,
0000
0000
0010
0000
0100
0000
0000
0000
0000
0000
0001
0100
0010
0001
0010
0100
,
1000
0100
0010
0100
1000
0100
0010
0000
2000
0000
3200
0000
2300
0000
3020
0000
,
0230
0302
2003
3020
0230
0300
1001
0000
,
0110
0000
0001
1000
0010
0200
0320
2030
,
3002
2003
3110
0000
0110
0000
1001
0000
,
1100
0000
0101
0000
2000
3100
0020
0031
,
2000
3100
0020
0031
0020
0130
2000
3010
,
1000
0010
0200
1300
0200
0300
0020
0031
,
0000
0000
2000
0100
3000
0110
0000
1001
,
0000
0110
0000
0000
1010
0000
0010
0100
,
0001
1100
0110
1001
,
0110
0000
0001
1000
0200
0000
0300
1000
,
0010
0100
1001
1100
,
0110
0000
0001
0000
2000
0100
3020
0001
,
1030
0100
0020
0001
1030
0100
0020
1030
,
0200
0010
0301
1000
0200
0000
0300
0110
,
0000
0000
1000
0010
0000
0100
0001
0000
,
1002
0000
0000
1000
0000
0000
1000
0000
1003
0000
0000
0000
0000
0000
0100
0000
,
1001
0000
1000
0100
0000
1000
0010
0100
,
0001
0000
1000
0000
0010
0000
0000
0000
1000
0010
0100
0000
0001
0010
0100
0000
,
1000
1001
0000
1001
0000
1001
0000
0100
,
1000
0000
0000
0000
1010
0000
0000
0000
1000
0010
0001
0000
1000
0100
0001
0000
,
0101
0101
0000
1100
0000
0110
0000
0011
,
0011
0101
0102
0000
,
0000
0000
0000
0000
,
0000
0000
0000
0003
;
